osu file format v14

[General]
AudioFilename: audio.mp3
AudioLeadIn: 0
PreviewTime: 67
Countdown: 0
SampleSet: Soft
StackLeniency: 0.5
Mode: 0
LetterboxInBreaks: 0
WidescreenStoryboard: 0

[Editor]
Bookmarks: 1175,3902,9356,12084,17538,33902,42084,50265
DistanceSpacing: 0.4
BeatDivisor: 4
GridSize: 4
TimelineZoom: 1

[Metadata]
Title:Marlboro Nights
TitleUnicode:Marlboro Nights
Artist:Lonely God
ArtistUnicode:Lonely God
Creator:Shime
Version:Insomnia
Source:
Tags:hip hop hip-hop hiphop indie english short alternative alt version ver tik tok tiktok tik-tok [-evil-] ryxliee le mirai sirmirai cacturne le_mirai
BeatmapID:3171845
BeatmapSetID:1552275

[Difficulty]
HPDrainRate:5.6
CircleSize:4.4
OverallDifficulty:8.8
ApproachRate:9
SliderMultiplier:1.86
SliderTickRate:1

[Events]
//Background and Video events
0,0,"iwantarankedmap.jpg",0,0
//Break Periods
//Storyboard Layer 0 (Background)
//Storyboard Layer 1 (Fail)
//Storyboard Layer 2 (Pass)
//Storyboard Layer 3 (Foreground)
//Storyboard Layer 4 (Overlay)
//Storyboard Sound Samples

[TimingPoints]
1175,340.909090909091,4,2,27,60,1,0
1175,-181.818181818182,4,2,27,60,0,0
1515,-181.818181818182,4,2,27,20,0,0
3902,-133.333333333333,4,2,27,60,0,0
9356,-181.818181818182,4,2,27,60,0,0
9697,-181.818181818182,4,2,27,20,0,0
12084,-133.333333333333,4,2,27,60,0,0
16515,-105.263157894737,4,2,27,60,0,0
16856,-105.263157894737,4,2,27,50,0,0
17197,-105.263157894737,4,2,27,60,0,0
17538,-95.2380952380952,4,2,27,75,0,0
17794,-95.2380952380952,4,2,27,5,0,0
17879,-105.263157894737,4,2,27,75,0,0
18220,-105.263157894737,4,2,27,75,0,0
18305,-105.263157894737,4,2,27,5,0,0
18390,-105.263157894737,4,2,27,75,0,0
18476,-105.263157894737,4,2,27,5,0,0
18561,-105.263157894737,4,2,27,75,0,0
19584,-105.263157894737,4,2,27,75,0,0
19669,-105.263157894737,4,2,27,5,0,0
19754,-105.263157894737,4,2,27,75,0,0
19839,-105.263157894737,4,2,27,5,0,0
19925,-105.263157894737,4,2,27,75,0,0
20947,-105.263157894737,4,2,27,75,0,0
21032,-105.263157894737,4,2,27,5,0,0
21118,-105.263157894737,4,2,27,75,0,0
21203,-105.263157894737,4,2,27,5,0,0
21288,-105.263157894737,4,2,27,75,0,0
22311,-105.263157894737,4,2,27,75,0,0
22396,-105.263157894737,4,2,27,5,0,0
22481,-105.263157894737,4,2,27,75,0,0
22567,-105.263157894737,4,2,27,5,0,0
22652,-105.263157894737,4,2,27,75,0,0
23675,-105.263157894737,4,2,27,75,0,0
23760,-105.263157894737,4,2,27,5,0,0
23845,-105.263157894737,4,2,27,75,0,0
23930,-105.263157894737,4,2,27,5,0,0
24015,-105.263157894737,4,2,27,75,0,0
25038,-105.263157894737,4,2,27,75,0,0
25123,-105.263157894737,4,2,27,5,0,0
25209,-105.263157894737,4,2,27,75,0,0
25294,-105.263157894737,4,2,27,5,0,0
25379,-105.263157894737,4,2,27,75,0,0
25976,-105.263157894737,4,2,27,5,0,0
26061,-105.263157894737,4,2,27,75,0,0
26402,-105.263157894737,4,2,27,75,0,0
26487,-105.263157894737,4,2,27,5,0,0
26572,-105.263157894737,4,2,27,75,0,0
26657,-105.263157894737,4,2,27,5,0,0
26743,-105.263157894737,4,2,27,75,0,0
27765,-105.263157894737,4,2,27,75,0,0
27851,-105.263157894737,4,2,27,5,0,0
27936,-105.263157894737,4,2,27,75,0,0
28021,-105.263157894737,4,2,27,5,0,0
28106,-105.263157894737,4,2,27,75,0,0
29129,-105.263157894737,4,2,27,75,0,0
29214,-105.263157894737,4,2,27,5,0,0
29300,-105.263157894737,4,2,27,75,0,0
29385,-105.263157894737,4,2,27,5,0,0
29470,-105.263157894737,4,2,27,75,0,0
30493,-105.263157894737,4,2,27,75,0,0
30578,-105.263157894737,4,2,27,5,0,0
30663,-105.263157894737,4,2,27,75,0,0
30748,-105.263157894737,4,2,27,5,0,0
30834,-105.263157894737,4,2,27,75,0,0
31856,-105.263157894737,4,2,27,75,0,0
31942,-105.263157894737,4,2,27,5,0,0
32027,-105.263157894737,4,2,27,75,0,0
32112,-105.263157894737,4,2,27,5,0,0
32197,-105.263157894737,4,2,27,75,0,0
33220,-105.263157894737,4,2,27,20,0,0
33902,-133.333333333333,4,2,27,40,0,0
36629,-142.857142857143,4,2,27,40,0,0
36970,-125,4,2,27,40,0,0
37311,-133.333333333333,4,2,27,40,0,0
42084,-105.263157894737,4,2,27,70,0,0
42339,-105.263157894737,4,2,27,5,0,0
42425,-105.263157894737,4,2,27,70,0,0
42765,-105.263157894737,4,2,27,70,0,0
42851,-105.263157894737,4,2,27,5,0,0
42936,-105.263157894737,4,2,27,70,0,0
43021,-105.263157894737,4,2,27,5,0,0
43106,-105.263157894737,4,2,27,70,0,0
44214,-105.263157894737,4,2,27,5,0,0
44300,-105.263157894737,4,2,27,70,0,0
44385,-105.263157894737,4,2,27,5,0,0
44470,-105.263157894737,4,2,27,70,0,0
45067,-105.263157894737,4,2,27,5,0,0
45152,-105.263157894737,4,2,27,70,0,0
45493,-105.263157894737,4,2,27,70,0,0
45578,-105.263157894737,4,2,27,5,0,0
45663,-105.263157894737,4,2,27,70,0,0
45748,-105.263157894737,4,2,27,5,0,0
45834,-105.263157894737,4,2,27,70,0,0
46942,-105.263157894737,4,2,27,5,0,0
47027,-105.263157894737,4,2,27,70,0,0
47112,-105.263157894737,4,2,27,5,0,0
47197,-105.263157894737,4,2,27,70,0,0
47794,-105.263157894737,4,2,27,5,0,0
47879,-105.263157894737,4,2,27,70,0,0
48220,-105.263157894737,4,2,27,70,0,0
48305,-105.263157894737,4,2,27,5,0,0
48390,-105.263157894737,4,2,27,70,0,0
48476,-105.263157894737,4,2,27,5,0,0
48561,-105.263157894737,4,2,27,70,0,0
49584,-105.263157894737,4,2,27,70,0,0
49669,-105.263157894737,4,2,27,5,0,0
49754,-105.263157894737,4,2,27,70,0,0
49839,-105.263157894737,4,2,27,5,0,0
49925,-105.263157894737,4,2,27,70,0,0
50265,-200,4,2,27,70,0,0
50351,-200,4,2,27,60,0,0
50436,-200,4,2,27,50,0,0
50521,-200,4,2,27,40,0,0
50606,-200,4,2,27,30,0,0
50692,-200,4,2,27,20,0,0
50777,-200,4,2,27,10,0,0
50862,-200,4,2,27,5,0,0

[Colours]
Combo1 : 94,130,162
Combo2 : 125,181,158
Combo3 : 111,154,162
Combo4 : 57,186,208

[HitObjects]
54,159,1175,5,0,1:2:0:0:
54,159,3902,6,0,L|61:228,1,69.7500026607514,2|0,1:2|0:0,0:0:0:0:
130,346,4243,2,0,P|163:354|197:347,1,69.7500026607514,10|0,0:0|0:0,0:0:0:0:
178,157,4584,1,2,1:2:0:0:
117,122,4754,1,2,1:2:0:0:
69,299,4925,1,8,0:0:0:0:
250,234,5095,6,0,L|265:95,1,139.500005321503,2|0,1:2|0:0,0:0:0:0:
181,227,5606,1,8,0:0:0:0:
296,165,5777,1,0,0:0:0:0:
186,61,5947,1,0,1:2:0:0:
186,61,6118,1,0,1:2:0:0:
260,251,6288,2,0,P|289:239|331:234,1,69.7500026607514,10|2,0:0|0:0,0:0:0:0:
455,103,6629,6,0,P|440:134|432:168,1,69.7500026607514,2|0,1:2|0:0,0:0:0:0:
322,24,6970,2,0,P|287:18|254:7,1,69.7500026607514,10|0,0:0|0:0,0:0:0:0:
146,100,7311,1,2,1:2:0:0:
180,160,7481,1,2,1:2:0:0:
323,111,7652,1,8,0:0:0:0:
152,14,7822,6,0,P|85:27|56:87,1,139.500005321503,2|2,1:2|0:0,0:0:0:0:
180,160,8334,2,0,P|169:127|146:100,1,69.7500026607514,8|2,0:0|0:0,0:0:0:0:
62,255,8675,1,0,1:2:0:0:
62,255,8845,1,0,1:2:0:0:
223,227,9015,2,0,P|246:201|257:168,1,69.7500026607514,8|0,0:0|0:0,0:0:0:0:
111,378,9356,5,0,1:2:0:0:
111,378,12084,6,0,L|118:308,1,69.7500026607514,2|0,1:2|0:0,0:0:0:0:
192,163,12425,2,0,P|226:156|259:164,1,69.7500026607514,10|0,0:0|0:0,0:0:0:0:
373,300,12765,1,2,1:2:0:0:
300,339,12936,1,2,1:2:0:0:
224,230,13106,1,8,0:0:0:0:
410,167,13277,6,0,P|386:232|373:301,1,139.500005321503,2|0,1:2|0:0,0:0:0:0:
341,146,13788,1,8,0:0:0:0:
459,228,13959,1,0,0:0:0:0:
295,248,14129,1,0,1:2:0:0:
295,248,14300,1,0,1:2:0:0:
380,87,14470,2,0,P|413:80|446:91,1,69.7500026607514,10|2,0:0|0:0,0:0:0:0:
295,248,14811,6,0,P|290:213|278:180,1,69.7500026607514,2|0,1:2|0:0,0:0:0:0:
224,53,15152,2,0,P|190:46|157:57,1,69.7500026607514,10|0,0:0|0:0,0:0:0:0:
51,215,15492,1,2,1:2:0:0:
124,247,15663,1,2,1:2:0:0:
197,125,15833,1,8,0:0:0:0:
35,148,16004,6,0,P|46:181|51:215,1,69.7500026607514,2|0,1:2|0:0,0:0:0:0:
95,322,16345,1,2,0:0:0:0:
197,125,16515,1,8,0:0:0:0:
197,125,16856,5,8,0:0:0:0:
209,143,16942,1,8,0:0:0:0:
223,159,17027,2,0,L|266:150,1,44.1749988204003,0|0,1:2|1:2,0:0:0:0:
211,361,17197,1,8,0:0:0:0:
243,333,17282,1,0,1:2:0:0:
284,319,17367,1,0,1:2:0:0:
328,326,17452,1,0,1:2:0:0:
369,343,17538,6,0,B|384:319|413:312|413:312|403:221,1,146.474995529938,4|0,1:2|0:0,0:0:0:0:
350,150,17879,2,0,P|307:139|265:150,1,88.3499976408005,8|0,0:0|0:0,0:0:0:0:
163,237,18220,2,0,L|172:193,1,44.1749988204003,2|0,1:2|0:0,0:0:0:0:
248,37,18390,2,0,L|256:84,1,44.1749988204003,0|0,1:2|0:0,0:0:0:0:
337,262,18561,1,8,0:0:0:0:
107,106,18731,6,0,B|1:87|1:87|38:100|46:135,1,176.699995281601,0|0,1:2|0:0,0:0:0:0:
151,277,19243,6,0,P|192:259|236:255,1,88.3499976408005,8|0,0:0|0:0,0:0:0:0:
386,163,19584,2,0,P|378:183|375:205,1,44.1749988204003,2|0,1:2|0:0,0:0:0:0:
310,363,19754,2,0,P|306:341|299:320,1,44.1749988204003,0|0,1:2|0:0,0:0:0:0:
219,130,19925,1,8,0:0:0:0:
337,262,20095,1,2,0:0:0:0:
178,368,20265,6,0,P|137:350|93:346,1,88.3499976408005,0|0,1:2|0:0,0:0:0:0:
18,216,20606,2,0,P|61:211|102:194,1,88.3499976408005,10|0,0:0|0:0,0:0:0:0:
213,37,20947,2,0,L|222:80,1,44.1749988204003,0|0,1:2|0:0,0:0:0:0:
295,231,21118,2,0,L|304:187,1,44.1749988204003,0|0,1:2|0:0,0:0:0:0:
411,4,21288,1,10,0:0:0:0:
214,181,21459,6,0,P|133:161|114:79,1,176.699995281601,2|0,1:2|0:0,0:0:0:0:
253,0,21970,6,0,P|230:37|222:80,1,88.3499976408005,8|0,0:0|0:0,0:0:0:0:
360,179,22311,2,0,P|380:186|402:187,1,44.1749988204003,0|0,1:2|0:0,0:0:0:0:
198,255,22481,2,0,P|177:262|155:263,1,44.1749988204003,0|0,1:2|0:0,0:0:0:0:
376,357,22652,2,0,P|415:374|459:370,1,88.3499976408005,8|2,0:0|0:0,0:0:0:0:
277,147,22993,6,0,L|288:235,1,88.3499976408005,2|2,1:2|0:0,0:0:0:0:
144,350,23334,2,0,L|155:262,1,88.3499976408005,10|2,0:0|0:0,0:0:0:0:
133,119,23675,2,0,L|92:103,1,44.1749988204003,2|0,1:2|0:0,0:0:0:0:
287,234,23845,2,0,L|328:218,1,44.1749988204003,2|0,1:2|0:0,0:0:0:0:
74,319,24015,1,10,0:0:0:0:
240,98,24186,1,2,1:2:0:0:
154,262,24356,5,2,0:0:0:0:
109,29,24527,1,2,0:0:0:0:
282,185,24697,2,0,P|239:171|196:163,1,88.3499976408005,10|2,0:0|0:0,0:0:0:0:
62,161,25038,2,0,P|66:181|69:212,1,44.1749988204003,2|0,1:2|0:0,0:0:0:0:
212,122,25209,2,0,P|202:143|194:174,1,44.1749988204003,2|0,1:2|0:0,0:0:0:0:
0,10,25379,2,0,P|14:51|21:95,1,88.3499976408005,10|0,0:0|0:0,0:0:0:0:
0,318,25720,6,0,B|57:310|57:310|67:317|67:317|129:307,1,132.524996461201,0|0,1:2|0:0,0:0:0:0:
206,325,26061,2,0,P|166:340|150:380,1,88.3499976408005,8|0,0:0|0:0,0:0:0:0:
355,260,26402,2,0,P|336:254|311:251,1,44.1749988204003,2|0,1:2|0:0,0:0:0:0:
164,172,26572,2,0,P|184:165|206:164,1,44.1749988204003,0|0,1:2|0:0,0:0:0:0:
368,79,26743,1,8,0:0:0:0:
200,252,26913,6,0,L|172:77,1,176.699995281601,0|0,1:2|0:0,0:0:0:0:
336,187,27425,2,0,P|379:191|419:173,1,88.3499976408005,8|0,0:0|0:0,0:0:0:0:
291,22,27765,2,0,L|283:65,1,44.1749988204003,2|0,1:2|0:0,0:0:0:0:
190,187,27936,2,0,L|182:143,1,44.1749988204003,0|0,1:2|0:0,0:0:0:0:
91,0,28106,2,0,P|51:19|8:27,1,88.3499976408005,8|2,0:0|0:0,0:0:0:0:
83,229,28447,6,0,P|91:185|107:144,1,88.3499976408005,0|0,1:2|0:0,0:0:0:0:
0,362,28788,2,0,P|40:378|83:373,1,88.3499976408005,10|0,0:0|0:0,0:0:0:0:
190,187,29129,2,0,P|182:207|177:229,1,44.1749988204003,0|0,1:2|0:0,0:0:0:0:
256,356,29300,2,0,P|248:335|243:313,1,44.1749988204003,0|0,1:2|0:0,0:0:0:0:
383,158,29470,1,10,0:0:0:0:
470,372,29640,6,0,P|485:285|512:201,1,176.699995281601,2|0,1:2|0:0,0:0:0:0:
385,313,30152,2,0,P|346:292|303:280,1,88.3499976408005,8|0,0:0|0:0,0:0:0:0:
176,229,30493,2,0,L|218:218,1,44.1749988204003,0|0,1:2|0:0,0:0:0:0:
387,157,30663,2,0,L|344:146,1,44.1749988204003,0|0,1:2|0:0,0:0:0:0:
160,40,30834,2,0,P|202:28|241:7,1,88.3499976408005,8|2,0:0|0:0,0:0:0:0:
490,0,31175,6,0,L|473:86,1,88.3499976408005,2|2,1:2|0:0,0:0:0:0:
284,198,31515,2,0,L|267:111,1,88.3499976408005,10|2,0:0|0:0,0:0:0:0:
433,236,31856,2,0,P|454:242|475:246,1,44.1749988204003,2|0,1:2|0:0,0:0:0:0:
391,57,32027,2,0,P|369:60|348:67,1,44.1749988204003,2|0,1:2|0:0,0:0:0:0:
235,286,32197,1,10,0:0:0:0:
457,160,32368,1,2,1:2:0:0:
267,111,32538,5,2,0:0:0:0:
355,210,32709,1,2,0:0:0:0:
449,26,32879,2,0,P|405:16|364:-1,1,88.3499976408005,10|2,0:0|0:0,0:0:0:0:
198,188,33902,6,0,P|164:181|131:194,1,69.7500026607514,2|0,0:0|0:0,0:0:0:0:
145,324,34243,2,0,P|167:297|172:263,1,69.7500026607514,2|0,0:0|0:0,0:0:0:0:
56,211,34584,1,2,0:0:0:0:
145,324,34754,2,0,L|215:318,1,69.7500026607514,2|0,0:0|0:0,0:0:0:0:
363,312,35095,6,0,P|297:322|281:386,1,139.500005321503,2|2,0:0|0:0,0:0:0:0:
287,233,35606,1,2,0:0:0:0:
395,384,35777,2,0,P|409:315|434:251,1,139.500005321503,2|2,0:0|0:0,0:0:0:0:
263,168,36288,2,0,P|280:198|286:232,1,69.7500026607514,2|2,0:0|0:0,0:0:0:0:
362,108,36629,6,0,P|394:105|425:115,1,65.0999980133057,2|0,0:0|0:0,0:0:0:0:
434,250,36970,2,0,P|403:229|390:195,1,74.4,2|0,3:2|0:0,0:0:0:0:
512,148,37311,1,2,0:0:0:0:
476,316,37481,2,0,P|444:330|411:324,1,69.7500026607514,2|0,0:0|0:0,0:0:0:0:
262,235,37822,6,0,B|328:247|323:183|390:195,1,139.500005321503,2|2,3:2|0:0,0:0:0:0:
246,132,38334,1,2,0:0:0:0:
176,258,38504,2,0,P|242:264|287:329,1,139.500005321503,2|2,0:0|0:0,0:0:0:0:
93,357,39015,2,0,P|91:324|81:289,1,69.7500026607514,2|2,0:0|0:0,0:0:0:0:
31,139,39356,6,0,P|63:126|97:132,1,69.7500026607514,2|0,0:0|0:0,0:0:0:0:
217,197,39697,2,0,P|185:184|151:190,1,69.7500026607514,2|0,3:2|0:0,0:0:0:0:
81,289,40038,1,2,0:0:0:0:
252,315,40209,2,0,P|285:320|317:307,1,69.7500026607514,2|0,0:0|0:0,0:0:0:0:
415,175,40550,6,0,P|428:106|454:41,1,139.500005321503,2|2,3:2|0:0,0:0:0:0:
343,147,41061,1,2,0:0:0:0:
503,215,41231,2,0,P|492:181|489:147,1,69.7500026607514,2|0,0:0|0:0,0:0:0:0:
383,268,41572,1,2,0:0:0:0:
320,78,41743,2,0,P|285:76|253:90,1,69.7500026607514,10|2,0:0|0:0,0:0:0:0:
152,291,42084,6,0,B|112:297|71:273|71:273|103:274|126:247,1,132.524996461201,6|0,1:2|0:0,0:0:0:0:
186,195,42425,2,0,B|200:153|200:153|187:110,1,88.3499976408005,10|0,0:0|0:0,0:0:0:0:
46,23,42765,2,0,P|25:15|3:13,1,44.1749988204003,2|0,1:2|0:0,0:0:0:0:
188,111,42936,2,0,P|209:108|230:101,1,44.1749988204003,2|0,1:2|0:0,0:0:0:0:
11,208,43106,1,8,0:0:0:0:
138,0,43277,6,0,P|135:43|121:85,1,88.3499976408005,2|0,1:2|0:0,0:0:0:0:
299,252,43618,2,0,P|284:210|282:166,1,88.3499976408005,2|8,0:0|0:0,0:0:0:0:
358,13,43959,2,0,P|419:7|470:69,1,132.524996461201,2|0,0:0|0:0,0:0:0:0:
496,146,44300,2,0,L|512:105,1,44.1749988204003,2|0,1:2|0:0,0:0:0:0:
281,166,44470,1,8,0:0:0:0:
452,236,44640,1,0,0:0:0:0:
326,375,44811,6,0,B|287:368|265:387|265:387|250:361|206:358,1,132.524996461201,2|0,1:2|0:0,0:0:0:0:
137,313,45152,2,0,P|167:281|210:276,1,88.3499976408005,10|0,0:0|0:0,0:0:0:0:
304,202,45493,2,0,P|289:185|280:165,1,44.1749988204003,2|0,1:2|0:0,0:0:0:0:
255,20,45663,2,0,P|245:39|231:56,1,44.1749988204003,2|0,1:2|0:0,0:0:0:0:
143,213,45834,1,8,0:0:0:0:
330,109,46004,6,0,P|370:126|413:134,1,88.3499976408005,2|0,1:2|0:0,0:0:0:0:
165,7,46345,2,0,P|124:24|81:32,1,88.3499976408005,2|8,0:0|0:0,0:0:0:0:
23,215,46686,2,0,B|48:204|68:186|68:186|142:212,1,132.524996461201,2|0,0:0|0:0,0:0:0:0:
227,252,47027,2,0,L|217:306,1,44.1749988204003,2|0,1:2|0:0,0:0:0:0:
75,109,47197,1,8,0:0:0:0:
90,286,47368,1,0,0:0:0:0:
342,252,47538,6,0,B|360:242|383:247|383:247|349:209|302:232,1,132.524996461201,2|0,1:2|0:0,0:0:0:0:
227,252,47879,2,0,L|218:164,1,88.3499976408005,10|0,0:0|0:0,0:0:0:0:
197,13,48220,2,0,P|216:2|238:0,1,44.1749988204003,2|0,1:2|0:0,0:0:0:0:
343,157,48390,2,0,P|321:153|301:143,1,44.1749988204003,2|0,1:2|0:0,0:0:0:0:
416,0,48561,1,8,0:0:0:0:
512,187,48731,6,0,P|469:187|429:169,1,88.3499976408005,2|0,1:2|0:0,0:0:0:0:
296,279,49072,2,0,P|336:261|379:261,1,88.3499976408005,2|8,0:0|0:0,0:0:0:0:
422,342,49413,1,2,0:0:0:0:
335,188,49584,2,0,L|327:144,1,44.1749988204003,0|0,1:2|0:0,0:0:0:0:
229,341,49754,2,0,L|221:384,1,44.1749988204003,2|0,1:2|0:0,0:0:0:0:
67,113,49925,1,10,0:0:0:0:
220,221,50095,1,0,0:0:0:0:
91,321,50265,6,0,B|44:308|44:335|0:323,1,93,0|0,1:2|0:0,0:0:0:0:
