osu file format v14

[General]
AudioFilename: audio.mp3
AudioLeadIn: 0
PreviewTime: 67
Countdown: 0
SampleSet: Soft
StackLeniency: 0.7
Mode: 0
LetterboxInBreaks: 0
WidescreenStoryboard: 1

[Editor]
Bookmarks: 1175,3902,12084,17538,33902,42084,50265
DistanceSpacing: 1.7
BeatDivisor: 4
GridSize: 8
TimelineZoom: 3.600004

[Metadata]
Title:Marlboro Nights
TitleUnicode:Marlboro Nights
Artist:Lonely God
ArtistUnicode:Lonely God
Creator:Shime
Version:Hard
Source:
Tags:hip hop hip-hop hiphop indie english short alternative alt version ver tik tok tiktok tik-tok [-evil-] ryxliee le mirai sirmirai cacturne le_mirai
BeatmapID:3171844
BeatmapSetID:1552275

[Difficulty]
HPDrainRate:4
CircleSize:3.6
OverallDifficulty:6.8
ApproachRate:7.8
SliderMultiplier:1.56
SliderTickRate:1

[Events]
//Background and Video events
0,0,"iwantarankedmap.jpg",0,0
//Break Periods
//Storyboard Layer 0 (Background)
//Storyboard Layer 1 (Fail)
//Storyboard Layer 2 (Pass)
//Storyboard Layer 3 (Foreground)
//Storyboard Layer 4 (Overlay)
//Storyboard Sound Samples

[TimingPoints]
1175,340.909090909091,4,2,27,60,1,0
1175,-125,4,2,27,60,0,0
1515,-125,4,2,27,20,0,0
3902,-125,4,2,27,60,0,0
9697,-125,4,2,27,20,0,0
12084,-125,4,2,27,60,0,0
16856,-125,4,2,27,50,0,0
17197,-125,4,2,27,60,0,0
17538,-100,4,2,27,75,0,1
17794,-100,4,2,27,5,0,1
17879,-100,4,2,27,75,0,1
25635,-100,4,2,27,5,0,1
25720,-100,4,2,27,75,0,1
33220,-100,4,2,27,20,0,1
33902,-142.857142857143,4,2,27,40,0,0
42084,-111.111111111111,4,2,27,70,0,0
44726,-111.111111111111,4,2,27,5,0,0
44811,-111.111111111111,4,2,27,70,0,0
47453,-111.111111111111,4,2,27,5,0,0
47538,-111.111111111111,4,2,27,70,0,0
50265,-166.666666666667,4,2,27,70,0,0
50351,-166.666666666667,4,2,27,60,0,0
50436,-166.666666666667,4,2,27,50,0,0
50521,-166.666666666667,4,2,27,40,0,0
50606,-166.666666666667,4,2,27,30,0,0
50692,-166.666666666667,4,2,27,20,0,0
50777,-166.666666666667,4,2,27,10,0,0
50862,-166.666666666667,4,2,27,5,0,0

[Colours]
Combo1 : 94,130,162
Combo2 : 125,181,158
Combo3 : 111,154,162
Combo4 : 57,186,208

[HitObjects]
38,94,1175,5,0,1:2:0:0:
38,94,3902,6,0,L|44:156,1,62.4,2|0,1:2|0:0,0:0:0:0:
115,207,4243,2,0,L|108:269,1,62.4,10|0,0:0|0:0,0:0:0:0:
42,338,4584,1,2,1:2:0:0:
42,338,4754,1,2,1:2:0:0:
123,384,4925,1,8,0:0:0:0:
209,313,5095,6,0,P|267:332|326:314,1,124.8,2|0,1:2|0:0,0:0:0:0:
395,260,5606,2,0,P|425:253|455:261,1,62.4,8|0,0:0|0:0,0:0:0:0:
505,190,5947,1,0,1:2:0:0:
505,190,6118,1,0,1:2:0:0:
468,110,6288,2,0,P|438:118|407:111,1,62.4,10|2,0:0|0:0,0:0:0:0:
301,73,6629,6,0,L|307:10,1,62.4,2|0,1:2|0:0,0:0:0:0:
219,1,6970,2,0,L|212:63,1,62.4,10|0,0:0|0:0,0:0:0:0:
249,147,7311,1,2,1:2:0:0:
249,147,7481,1,2,1:2:0:0:
170,185,7652,1,8,0:0:0:0:
129,80,7822,6,0,B|58:73|88:37|18:29,1,124.8,2|2,1:2|0:0,0:0:0:0:
10,116,8334,2,0,P|19:145|16:176,1,62.4,8|2,0:0|0:0,0:0:0:0:
12,267,8675,1,0,1:2:0:0:
12,267,8845,1,0,1:2:0:0:
91,231,9015,2,0,L|152:243,1,62.4,8|0,0:0|0:0,0:0:0:0:
240,313,9356,5,0,1:2:0:0:
212,363,12084,6,0,L|274:358,1,62.4,2|0,1:2|0:0,0:0:0:0:
327,288,12425,2,0,P|330:257|321:227,1,62.4,10|0,0:0|0:0,0:0:0:0:
258,175,12765,1,2,1:2:0:0:
258,175,12936,1,2,1:2:0:0:
317,110,13106,1,8,0:0:0:0:
393,192,13277,6,0,B|440:188|440:188|464:205|464:205|511:200,1,124.8,2|0,1:2|0:0,0:0:0:0:
484,116,13788,2,0,P|455:104|424:105,1,62.4,8|0,0:0|0:0,0:0:0:0:
341,121,14129,1,0,1:2:0:0:
341,121,14300,1,0,1:2:0:0:
280,58,14470,2,0,P|251:69|220:68,1,62.4,10|2,0:0|0:0,0:0:0:0:
114,27,14811,6,0,L|122:88,1,62.4,2|0,1:2|0:0,0:0:0:0:
67,157,15152,2,0,L|58:218,1,62.4,10|0,0:0|0:0,0:0:0:0:
4,288,15493,1,2,1:2:0:0:
4,288,15663,1,2,1:2:0:0:
74,340,15834,1,8,0:0:0:0:
165,275,16004,6,0,B|206:302|206:302|281:291,1,124.8,2|2,1:2|0:0,0:0:0:0:
340,354,16515,1,8,0:0:0:0:
319,180,16856,2,0,L|288:173,3,31.2,8|8|0|0,0:0|0:0|1:2|1:2,0:0:0:0:
245,164,17197,2,0,L|214:157,3,31.2,8|0|0|0,0:0|1:2|1:2|1:2,0:0:0:0:
168,145,17538,6,0,P|112:145|77:102,1,117,4|0,1:2|0:0,0:0:0:0:
65,54,17879,2,0,P|106:55|140:36,1,78,8|0,0:0|0:0,0:0:0:0:
230,73,18220,1,2,1:2:0:0:
230,73,18390,1,0,1:2:0:0:
312,28,18561,1,8,0:0:0:0:
431,84,18731,6,0,L|405:247,1,156,0|0,1:2|0:0,0:0:0:0:
324,284,19243,2,0,L|317:206,1,78,8|0,0:0|0:0,0:0:0:0:
242,157,19584,1,2,1:2:0:0:
242,157,19754,1,0,1:2:0:0:
173,231,19925,2,0,P|209:246|248:242,1,78,8|2,0:0|0:0,0:0:0:0:
224,111,20265,6,0,P|188:96|149:100,1,78,0|0,1:2|0:0,0:0:0:0:
72,152,20606,2,0,L|78:229,1,78,10|0,0:0|0:0,0:0:0:0:
122,318,20947,1,0,1:2:0:0:
122,318,21118,1,0,1:2:0:0:
203,271,21288,1,10,0:0:0:0:
304,356,21459,6,0,B|389:367|365:316|453:326,1,156,2|0,1:2|0:0,0:0:0:0:
401,247,21970,2,0,L|393:169,1,78,8|0,0:0|0:0,0:0:0:0:
463,106,22311,1,0,1:2:0:0:
463,106,22481,1,0,1:2:0:0:
392,43,22652,2,0,L|314:51,1,78,8|2,0:0|0:0,0:0:0:0:
215,140,22993,6,0,L|137:132,1,78,2|2,1:2|0:0,0:0:0:0:
68,196,23334,2,0,P|49:229|55:267,1,78,10|2,0:0|0:0,0:0:0:0:
119,335,23675,2,0,L|197:327,1,78,2|2,1:2|1:2,0:0:0:0:
278,281,24015,2,0,P|315:274|349:292,1,78,10|2,0:0|1:2,0:0:0:0:
455,373,24356,6,0,L|463:295,1,78,2|2,0:0|0:0,0:0:0:0:
511,214,24697,2,0,P|477:196|439:202,1,78,10|2,0:0|0:0,0:0:0:0:
345,208,25038,2,0,L|337:130,1,78,2|2,1:2|1:2,0:0:0:0:
326,37,25379,2,0,P|268:44|215:23,1,117,10|0,0:0|0:0,0:0:0:0:
171,4,25720,6,0,L|179:81,1,78,0|0,1:2|0:0,0:0:0:0:
239,153,26061,2,0,L|230:230,1,78,8|0,0:0|0:0,0:0:0:0:
209,325,26402,1,2,1:2:0:0:
209,325,26572,1,0,1:2:0:0:
131,271,26743,1,8,0:0:0:0:
7,318,26913,6,0,L|29:163,1,156,0|0,1:2|0:0,0:0:0:0:
82,85,27425,2,0,P|43:88|9:71,1,78,8|0,0:0|0:0,0:0:0:0:
64,0,27765,1,2,1:2:0:0:
64,0,27936,1,0,1:2:0:0:
152,30,28106,2,0,P|190:33|224:16,1,78,8|2,0:0|0:0,0:0:0:0:
357,1,28447,6,0,L|345:78,1,78,0|0,1:2|0:0,0:0:0:0:
272,137,28788,2,0,L|283:214,1,78,10|0,0:0|0:0,0:0:0:0:
311,308,29129,1,0,1:2:0:0:
311,308,29300,1,0,1:2:0:0:
221,281,29470,1,10,0:0:0:0:
119,366,29640,6,0,P|46:352|25:280,1,156,2|0,1:2|0:0,0:0:0:0:
64,195,30152,2,0,P|100:183|136:196,1,78,8|0,0:0|0:0,0:0:0:0:
215,255,30493,1,0,1:2:0:0:
215,255,30663,1,0,1:2:0:0:
279,186,30834,2,0,L|286:109,1,78,8|2,0:0|0:0,0:0:0:0:
373,8,31175,6,0,P|411:9|442:32,1,78,2|2,1:2|0:0,0:0:0:0:
503,102,31515,2,0,P|464:103|433:126,1,78,10|2,0:0|0:0,0:0:0:0:
368,193,31856,2,0,P|406:194|437:217,1,78,2|2,1:2|1:2,0:0:0:0:
498,287,32197,2,0,P|459:288|428:311,1,78,10|2,0:0|1:2,0:0:0:0:
313,378,32538,6,0,L|322:300,1,78,2|2,0:0|0:0,0:0:0:0:
228,289,32879,2,0,L|218:366,1,78,10|2,0:0|0:0,0:0:0:0:
197,176,33902,6,0,B|251:162|248:203|303:188,1,109.199996667481,2|2,0:0|0:0,0:0:0:0:
302,188,34584,2,0,L|309:134,1,54.5999983337403,2|2,0:0|0:0,0:0:0:0:
395,7,35095,6,0,P|345:-11|293:3,1,109.199996667481,2|2,0:0|0:0,0:0:0:0:
234,53,35606,1,2,0:0:0:0:
168,13,35777,2,0,L|183:121,1,109.199996667481,2|2,0:0|0:0,0:0:0:0:
197,201,36288,1,2,0:0:0:0:
197,201,36459,1,2,0:0:0:0:
105,141,36629,6,0,B|66:115|66:115|6:132,1,109.199996667481,2|2,0:0|3:2,0:0:0:0:
6,131,37311,2,0,P|3:157|9:183,1,54.5999983337403,2|2,0:0|0:0,0:0:0:0:
0,337,37822,6,0,L|107:316,1,109.199996667481,2|2,3:2|0:0,0:0:0:0:
173,276,38334,1,2,0:0:0:0:
230,326,38504,2,0,P|278:349|331:344,1,109.199996667481,2|2,0:0|0:0,0:0:0:0:
398,306,39015,1,2,0:0:0:0:
350,245,39186,1,2,0:0:0:0:
447,196,39356,6,0,P|463:144|446:93,1,109.199996667481,2|2,0:0|3:2,0:0:0:0:
446,93,40038,2,0,L|391:98,1,54.5999983337403,2|2,0:0|0:0,0:0:0:0:
278,26,40550,6,0,B|224:12|227:53|172:38,1,109.199996667481,2|2,3:2|0:0,0:0:0:0:
99,41,41061,1,2,0:0:0:0:
99,41,41231,2,0,L|101:102,1,54.5999983337403,2|0,0:0|0:0,0:0:0:0:
105,172,41572,1,2,0:0:0:0:
110,281,41743,1,10,0:0:0:0:
110,281,42084,6,0,B|144:286|144:286|176:274,1,70.1999978576661,6|0,1:2|0:0,0:0:0:0:
257,244,42425,2,0,L|247:313,1,70.1999978576661,10|0,0:0|0:0,0:0:0:0:
303,382,42765,1,2,1:2:0:0:
303,382,42936,2,0,P|336:370|371:374,1,70.1999978576661,2|8,1:2|0:0,0:0:0:0:
464,299,43277,6,0,L|454:229,1,70.1999978576661,2|0,1:2|0:0,0:0:0:0:
403,161,43618,2,0,B|371:149|371:149|336:154,1,70.1999978576661,2|8,0:0|0:0,0:0:0:0:
279,90,43959,2,0,P|244:93|211:82,1,70.1999978576661,2|0,0:0|1:2,0:0:0:0:
146,135,44300,1,2,1:2:0:0:
78,84,44470,2,0,P|28:97|5:143,1,105.299996786499,8|0,0:0|0:0,0:0:0:0:
29,177,44811,6,0,L|37:246,1,70.1999978576661,2|0,1:2|0:0,0:0:0:0:
81,318,45152,2,0,P|113:306|148:310,1,70.1999978576661,10|0,0:0|0:0,0:0:0:0:
217,367,45493,1,2,1:2:0:0:
217,367,45663,2,0,B|249:379|249:379|283:373,1,70.1999978576661,2|8,1:2|0:0,0:0:0:0:
387,312,46004,6,0,L|395:242,1,70.1999978576661,2|0,1:2|0:0,0:0:0:0:
367,162,46345,2,0,B|335:150|335:150|300:155,1,70.1999978576661,2|8,0:0|0:0,0:0:0:0:
225,195,46686,2,0,P|190:198|157:187,1,70.1999978576661,2|0,0:0|1:2,0:0:0:0:
87,127,47027,1,2,1:2:0:0:
15,221,47197,2,0,L|25:325,1,105.299996786499,8|0,0:0|0:0,0:0:0:0:
55,354,47538,6,0,P|87:339|122:337,1,70.1999978576661,2|0,1:2|0:0,0:0:0:0:
163,263,47879,2,0,P|194:277|229:279,1,70.1999978576661,2|0,1:2|0:0,0:0:0:0:
283,351,48220,1,2,1:2:0:0:
283,351,48390,2,0,P|314:336|349:334,1,70.1999978576661,2|0,1:2|0:0,0:0:0:0:
467,352,48731,6,0,B|462:317|462:317|474:285,1,70.1999978576661,2|0,1:2|0:0,0:0:0:0:
505,205,49072,2,0,L|436:196,1,70.1999978576661,2|8,0:0|0:0,0:0:0:0:
352,181,49413,2,0,P|363:147|362:113,1,70.1999978576661,2|0,0:0|1:2,0:0:0:0:
304,50,49754,1,2,1:2:0:0:
238,102,49925,1,10,0:0:0:0:
238,102,50095,1,0,0:0:0:0:
117,40,50265,6,0,B|67:32|80:63|29:55,1,93.5999971435548,0|0,1:2|0:0,0:0:0:0:
