osu file format v14

[General]
AudioFilename: audio.mp3
AudioLeadIn: 0
PreviewTime: 67
Countdown: 0
SampleSet: Soft
StackLeniency: 0.5
Mode: 0
LetterboxInBreaks: 0
WidescreenStoryboard: 1

[Editor]
Bookmarks: 1175,3902,9356,12084,17538,33902,42094,50275
DistanceSpacing: 1.9
BeatDivisor: 4
GridSize: 16
TimelineZoom: 2.4

[Metadata]
Title:Marlboro Nights
TitleUnicode:Marlboro Nights
Artist:Lonely God
ArtistUnicode:Lonely God
Creator:Shime
Version:Evil's Light Insane
Source:
Tags:hip hop hip-hop hiphop indie english short alternative alt version ver tik tok tiktok tik-tok [-evil-] ryxliee le mirai sirmirai cacturne le_mirai
BeatmapID:3173043
BeatmapSetID:1552275

[Difficulty]
HPDrainRate:5
CircleSize:3.8
OverallDifficulty:8
ApproachRate:8.5
SliderMultiplier:1.6
SliderTickRate:1

[Events]
//Background and Video events
0,0,"iwantarankedmap.jpg",0,0
//Break Periods
//Storyboard Layer 0 (Background)
//Storyboard Layer 1 (Fail)
//Storyboard Layer 2 (Pass)
//Storyboard Layer 3 (Foreground)
//Storyboard Layer 4 (Overlay)
//Storyboard Sound Samples

[TimingPoints]
1175,340.909090909091,4,2,27,60,1,0
1175,-83.3333333333333,4,2,27,60,0,0
1260,-100,4,2,27,5,0,0
1515,-100,4,2,27,20,0,0
3902,-90.9090909090909,4,2,27,60,0,0
9271,-90.9090909090909,4,2,27,5,0,0
9356,-90.9090909090909,4,2,27,60,0,0
9442,-100,4,2,27,5,0,0
9697,-100,4,2,27,20,0,0
12084,-90.9090909090909,4,2,27,60,0,0
16856,-90.9090909090909,4,2,27,50,0,0
17197,-90.9090909090909,4,2,27,60,0,0
17538,-76.9230769230769,4,2,27,75,0,1
17794,-76.9230769230769,4,2,27,5,0,1
17879,-76.9230769230769,4,2,27,75,0,1
25976,-76.9230769230769,4,2,27,5,0,1
26061,-76.9230769230769,4,2,27,75,0,1
33220,-76.9230769230769,4,2,27,20,0,0
33902,-100,4,2,27,40,0,0
36118,-222.222222222221,4,2,27,40,0,0
36544,-222.222222222221,4,2,27,5,0,0
36629,-111.111111111111,4,2,27,40,0,0
37822,-100,4,2,27,40,0,0
38845,-222.222222222221,4,2,27,40,0,0
39271,-222.222222222221,4,2,27,5,0,0
39356,-100,4,2,27,40,0,0
41317,-100,4,2,27,5,0,0
41402,-100,4,2,27,40,0,0
42084,-90.9090909090909,4,2,27,70,0,0
49754,-76.9230769230769,4,2,27,70,0,0
50180,-76.9230769230769,4,2,27,5,0,0
50265,-76.9230769230769,4,2,27,70,0,0
50351,-76.9230769230769,4,2,27,5,0,0
50436,-76.9230769230769,4,2,27,50,0,0
50521,-76.9230769230769,4,2,27,40,0,0
50606,-76.9230769230769,4,2,27,30,0,0
50692,-76.9230769230769,4,2,27,20,0,0
50777,-76.9230769230769,4,2,27,10,0,0
50862,-76.9230769230769,4,2,27,5,0,0

[Colours]
Combo1 : 94,130,162
Combo2 : 125,181,158
Combo3 : 111,154,162
Combo4 : 57,186,208

[HitObjects]
416,60,1175,6,0,L|406:143,1,47.9999985351563,0|0,1:2|0:0,0:0:0:0:
47,255,3902,6,0,P|66:227|138:215,1,88.000002685547,2|0,1:2|0:0,0:0:0:0:
199,334,4243,2,0,P|165:331|118:275,1,88.000002685547,10|0,0:0|0:0,0:0:0:0:
213,159,4584,1,2,1:2:0:0:
213,159,4754,2,0,L|195:272,1,88.000002685547,2|8,1:2|0:0,0:0:0:0:
35,113,5095,6,0,B|95:106|95:106|119:57|119:57|185:48,1,176.000005371094,2|0,1:2|0:0,0:0:0:0:
300,170,5606,2,0,L|205:157,1,88.000002685547,8|0,0:0|0:0,0:0:0:0:
313,35,5947,1,0,1:2:0:0:
368,106,6118,1,0,1:2:0:0:
495,12,6288,2,0,L|400:24,1,88.000002685547,10|2,0:0|0:0,0:0:0:0:
415,186,6629,6,0,P|457:147|455:103,1,88.000002685547,2|0,1:2|0:0,0:0:0:0:
300,170,6970,2,0,P|312:225|351:246,1,88.000002685547,10|0,0:0|0:0,0:0:0:0:
484,298,7311,1,2,1:2:0:0:
484,298,7481,2,0,P|429:281|392:304,1,88.000002685547,2|8,1:2|0:0,0:0:0:0:
232,375,7822,6,0,L|116:359,1,88.000002685547,2|0,1:2|0:0,0:0:0:0:
15,271,8163,2,0,L|131:287,1,88.000002685547,2|8,0:0|0:0,0:0:0:0:
205,214,8504,2,0,L|89:198,1,88.000002685547,2|0,0:0|1:2,0:0:0:0:
26,187,8845,1,0,1:2:0:0:
137,75,9015,2,0,B|107:58|102:22|102:22|87:53|49:58,1,132.00000402832,8|0,0:0|0:0,0:0:0:0:
82,131,9356,6,0,L|93:69,1,44.0000013427735,0|0,1:2|0:0,0:0:0:0:
399,341,12084,6,0,P|365:302|315:297,1,88.000002685547,2|0,1:2|0:0,0:0:0:0:
190,368,12425,2,0,P|240:358|270:317,1,88.000002685547,10|0,0:0|0:0,0:0:0:0:
188,202,12765,1,2,1:2:0:0:
188,202,12936,2,0,L|199:308,1,88.000002685547,2|8,1:2|0:0,0:0:0:0:
326,162,13277,6,0,B|376:179|424:150|393:126|442:102|508:129,1,176.000005371094,2|0,1:2|0:0,0:0:0:0:
362,5,13788,2,0,P|338:47|356:95,1,88.000002685547,8|0,0:0|0:0,0:0:0:0:
467,203,14129,1,0,1:2:0:0:
487,122,14300,1,0,1:2:0:0:
326,162,14470,6,0,L|213:144,1,88.000002685547,10|2,0:0|0:0,0:0:0:0:
149,17,14811,2,0,P|182:68|173:111,1,88.000002685547,2|0,1:2|0:0,0:0:0:0:
22,72,15152,2,0,P|49:17|91:4,1,88.000002685547,10|0,0:0|0:0,0:0:0:0:
131,158,15493,1,2,1:2:0:0:
131,158,15663,2,0,P|70:161|37:131,1,88.000002685547,2|8,1:2|0:0,0:0:0:0:
4,312,16004,6,0,L|20:204,1,88.000002685547,2|0,1:2|0:0,0:0:0:0:
98,361,16345,2,0,L|114:253,1,88.000002685547,2|8,0:0|0:0,0:0:0:0:
131,158,16686,1,2,0:0:0:0:
254,249,16856,5,8,0:0:0:0:
254,249,16942,1,8,0:0:0:0:
254,249,17027,2,0,L|192:235,1,44.0000013427735,0|0,1:2|1:2,0:0:0:0:
255,340,17197,5,8,0:0:0:0:
255,340,17283,1,0,1:2:0:0:
255,340,17368,2,0,L|317:326,1,44.0000013427735,0|0,1:2|1:2,0:0:0:0:
405,364,17538,6,0,L|388:162,1,155.999992858887,4|0,1:2|0:0,0:0:0:0:
391,197,17879,2,0,P|411:169|492:179,1,103.999995239258,8|0,0:0|0:0,0:0:0:0:
360,17,18220,1,2,1:2:0:0:
307,168,18390,1,0,1:2:0:0:
146,61,18561,2,0,L|252:78,1,103.999995239258,8|0,0:0|1:2,0:0:0:0:
68,23,18902,6,0,P|56:80|90:121,1,103.999995239258,2|0,0:0|0:0,0:0:0:0:
249,218,19243,2,0,P|205:179|153:188,1,103.999995239258,8|0,0:0|0:0,0:0:0:0:
0,381,19584,1,2,1:2:0:0:
180,333,19754,1,0,1:2:0:0:
46,201,19925,1,8,0:0:0:0:
87,355,20095,1,2,0:0:0:0:
87,355,20265,6,0,P|192:335|307:320,2,207.999990478516,0|10|0,1:2|0:0|1:2,0:0:0:0:
117,168,21118,2,0,L|150:289,1,103.999995239258,0|10,1:2|0:0,0:0:0:0:
0,147,21459,2,0,L|88:57,1,103.999995239258,2|0,1:2|0:0,0:0:0:0:
257,28,21800,1,0,0:0:0:0:
257,28,21970,2,0,P|188:34|161:-16,1,103.999995239258,8|0,0:0|0:0,0:0:0:0:
254,157,22311,1,0,1:2:0:0:
342,22,22481,1,0,1:2:0:0:
178,114,22652,1,8,0:0:0:0:
342,200,22822,5,2,0:0:0:0:
342,200,22993,2,0,P|392:194|419:152,1,103.999995239258,2|2,1:2|0:0,0:0:0:0:
341,21,23334,2,0,P|291:27|264:69,1,103.999995239258,10|2,0:0|0:0,0:0:0:0:
203,247,23675,1,2,1:2:0:0:
315,128,23845,1,2,1:2:0:0:
143,54,24015,2,0,L|162:193,1,103.999995239258,10|2,0:0|1:2,0:0:0:0:
224,331,24356,6,0,P|264:361|313:349,1,103.999995239258,2|2,0:0|0:0,0:0:0:0:
343,201,24697,2,0,P|302:170|253:182,1,103.999995239258,10|2,0:0|0:0,0:0:0:0:
123,288,25038,1,2,1:2:0:0:
283,265,25209,1,2,1:2:0:0:
133,152,25379,1,10,0:0:0:0:
133,152,25720,6,0,B|97:157|80:205|80:205|80:153|49:135,1,155.999992858887,0|0,1:2|0:0,0:0:0:0:
41,137,26061,2,0,L|63:16,1,103.999995239258,8|0,0:0|0:0,0:0:0:0:
247,37,26402,1,2,1:2:0:0:
133,152,26572,1,0,1:2:0:0:
299,239,26743,2,0,L|278:104,1,103.999995239258,8|0,0:0|1:2,0:0:0:0:
436,27,27084,6,0,P|386:86|341:78,1,103.999995239258,2|0,0:0|0:0,0:0:0:0:
185,4,27425,2,0,P|261:17|276:60,1,103.999995239258,8|0,0:0|0:0,0:0:0:0:
118,223,27765,1,2,1:2:0:0:
80,29,27936,1,0,1:2:0:0:
246,118,28106,1,8,0:0:0:0:
65,108,28277,1,2,0:0:0:0:
65,108,28447,6,0,B|25:151|25:151|60:310,2,207.999990478516,0|10|0,1:2|0:0|1:2,0:0:0:0:
234,219,29300,2,0,L|101:194,1,103.999995239258,0|10,1:2|0:0,0:0:0:0:
60,372,29640,2,0,L|193:347,1,103.999995239258,2|0,1:2|0:0,0:0:0:0:
338,282,29981,1,0,0:0:0:0:
338,282,30152,2,0,P|359:222|319:164,1,103.999995239258,8|0,0:0|0:0,0:0:0:0:
239,59,30493,1,0,1:2:0:0:
234,219,30663,1,0,1:2:0:0:
375,94,30834,1,8,0:0:0:0:
199,151,31004,5,2,0:0:0:0:
199,151,31175,2,0,B|173:150|158:178|158:178|153:142|130:132,1,103.999995239258,2|2,1:2|0:0,0:0:0:0:
92,316,31515,2,0,B|117:316|132:288|132:288|137:324|160:334,1,103.999995239258,10|2,0:0|0:0,0:0:0:0:
23,200,31856,1,2,1:2:0:0:
34,368,32027,1,2,1:2:0:0:
212,277,32197,2,0,L|357:307,1,103.999995239258,10|2,0:0|1:2,0:0:0:0:
457,177,32538,6,0,B|431:177|416:149|416:149|411:185|388:195,1,103.999995239258,2|2,0:0|0:0,0:0:0:0:
428,343,32879,2,0,B|453:342|468:370|468:370|473:334|496:324,1,103.999995239258,10|2,0:0|0:0,0:0:0:0:
192,59,33902,6,0,L|206:148,1,80,2|0,0:0|0:0,0:0:0:0:
105,69,34243,2,0,L|119:158,1,80,2|0,0:0|0:0,0:0:0:0:
18,78,34584,1,2,0:0:0:0:
18,78,34754,2,0,L|32:167,1,80,2|0,0:0|0:0,0:0:0:0:
0,367,35095,6,0,P|20:314|52:295,1,80,2|0,0:0|0:0,0:0:0:0:
79,223,35436,2,0,P|130:199|166:208,1,80,2|2,0:0|0:0,0:0:0:0:
234,171,35777,2,0,P|287:190|306:222,1,80,2|0,0:0|0:0,0:0:0:0:
376,258,36118,6,0,P|399:309|390:345,1,89.9999972534181,2|0,0:0|0:0,0:0:0:0:
389,351,36629,6,0,L|305:331,1,71.9999978027344,2|0,0:0|0:0,0:0:0:0:
446,274,36970,2,0,L|362:254,1,71.9999978027344,2|0,3:2|0:0,0:0:0:0:
501,196,37311,1,2,0:0:0:0:
501,196,37481,2,0,L|417:176,1,71.9999978027344,2|0,0:0|0:0,0:0:0:0:
179,59,37822,6,0,P|223:32|265:43,1,80,2|0,3:2|0:0,0:0:0:0:
335,76,38163,2,0,P|361:120|350:162,1,80,2|2,0:0|0:0,0:0:0:0:
320,233,38504,2,0,P|275:259|233:248,1,80,2|0,0:0|0:0,0:0:0:0:
164,219,38845,6,0,P|137:174|148:132,1,89.9999972534181,2|0,0:0|0:0,0:0:0:0:
154,141,39356,6,0,L|55:119,1,80,2|0,0:0|0:0,0:0:0:0:
152,243,39697,2,0,L|53:221,1,80,2|0,3:2|0:0,0:0:0:0:
154,348,40038,1,2,0:0:0:0:
154,348,40209,2,0,L|55:326,1,80,2|0,0:0|0:0,0:0:0:0:
220,191,40550,6,0,P|270:209|295:252,1,80,2|0,3:2|0:0,0:0:0:0:
373,204,40890,2,0,P|382:257|357:300,1,80,2|2,0:0|0:0,0:0:0:0:
410,360,41231,1,2,0:0:0:0:
395,368,41402,5,0,0:0:0:0:
321,345,41572,1,2,0:0:0:0:
286,228,41743,5,10,0:0:0:0:
373,204,41913,1,2,0:0:0:0:
463,96,42084,6,0,B|439:66|439:66|440:60|440:60|387:-7,1,88.000002685547,6|0,1:2|0:0,0:0:0:0:
346,178,42425,2,0,B|383:172|383:172|388:176|388:176|473:164,1,88.000002685547,10|0,0:0|0:0,0:0:0:0:
335,34,42765,1,2,1:2:0:0:
335,34,42936,2,0,B|320:68|320:68|315:71|315:71|282:151,1,88.000002685547,2|8,1:2|0:0,0:0:0:0:
321,278,43277,6,0,P|276:229|223:223,1,88.000002685547,2|0,1:2|0:0,0:0:0:0:
152,354,43618,2,0,P|216:339|248:296,1,88.000002685547,2|8,0:0|0:0,0:0:0:0:
174,168,43959,2,0,P|154:231|175:280,1,88.000002685547,2|0,0:0|1:2,0:0:0:0:
215,93,44300,1,2,1:2:0:0:
75,184,44470,1,8,0:0:0:0:
75,184,44811,6,0,B|77:179|52:177|33:191|33:191|60:196|74:206,1,88.000002685547,2|0,1:2|0:0,0:0:0:0:
204,101,45152,2,0,B|206:104|220:84|218:60|218:60|200:81|184:88,1,88.000002685547,10|0,0:0|0:0,0:0:0:0:
207,254,45493,1,2,1:2:0:0:
207,254,45663,2,0,B|202:254|213:276|234:286|234:286|225:260|227:243,1,88.000002685547,2|8,1:2|0:0,0:0:0:0:
66,343,46004,6,0,L|163:324,1,88.000002685547,2|0,1:2|0:0,0:0:0:0:
313,261,46345,2,0,L|216:242,1,88.000002685547,2|8,0:0|0:0,0:0:0:0:
71,181,46686,2,0,L|168:162,1,88.000002685547,2|0,0:0|1:2,0:0:0:0:
323,140,47027,1,2,1:2:0:0:
193,35,47197,1,8,0:0:0:0:
193,35,47538,6,0,B|188:20|177:11|162:12|162:12|150:20|148:39|159:55,1,88.000002685547,2|0,1:2|0:0,0:0:0:0:
303,139,47879,2,0,B|317:142|331:136|337:123|337:123|337:109|321:98|302:100,1,88.000002685547,10|0,0:0|0:0,0:0:0:0:
158,181,48220,1,2,1:2:0:0:
158,181,48390,2,0,B|147:192|145:206|153:218|153:218|166:225|183:217|192:199,1,88.000002685547,2|8,1:2|0:0,0:0:0:0:
315,87,48731,6,0,L|408:63,1,88.000002685547,2|0,1:2|0:0,0:0:0:0:
341,222,49072,2,0,L|434:198,1,88.000002685547,2|8,0:0|0:0,0:0:0:0:
368,357,49413,2,0,L|461:333,1,88.000002685547,2|0,0:0|1:2,0:0:0:0:
279,297,49754,6,0,B|238:274|190:291|215:312|148:329|101:290|106:278|85:244|19:268,1,259.999988098145,2|0,1:2|0:0,0:0:0:0:
28,271,50265,2,0,L|40:328,1,51.999997619629,0|0,1:2|0:0,0:0:0:0:
