osu file format v14

[General]
AudioFilename: audio.mp3
AudioLeadIn: 0
PreviewTime: 44960
Countdown: 0
SampleSet: Normal
StackLeniency: 0.7
Mode: 1
LetterboxInBreaks: 0
WidescreenStoryboard: 1

[Editor]
Bookmarks: 9492,15673,15793,50932,58293,111627,125655,130099,184266
DistanceSpacing: 1
BeatDivisor: 4
GridSize: 32
TimelineZoom: 3.699998

[Metadata]
Title:Yuru Fuwa Jukai Girl
TitleUnicode:ゆるふわ樹海ガール
Artist:Lon
ArtistUnicode:ろん
Creator:Catbug1524
Version:Muzukashii
Source:
Tags:Hatsune Miku Vocaloid Ishiburo-p Ishifuro 石風呂 Easy-going Forest Girl 学園リバーシ gakuen reversi Gaaru 初音ミク pop japanese
BeatmapID:2641780
BeatmapSetID:1220631

[Difficulty]
HPDrainRate:6.5
CircleSize:5
OverallDifficulty:5
ApproachRate:5
SliderMultiplier:1.4
SliderTickRate:1

[Events]
//Background and Video events
0,0,"BG.png",0,52
//Break Periods
//Storyboard Layer 0 (Background)
//Storyboard Layer 1 (Fail)
//Storyboard Layer 2 (Pass)
//Storyboard Layer 3 (Foreground)
//Storyboard Layer 4 (Overlay)
//Storyboard Sound Samples

[TimingPoints]
516,277.777777777778,4,1,0,40,1,0
9335,-100,4,1,0,100,0,0
9404,-100,4,1,0,100,0,0
17113,-100,4,2,0,80,0,0
18293,-100,4,2,0,80,0,0
26835,-100,4,1,0,100,0,0
36071,-100,4,1,0,100,0,0
36141,-111.111111111111,4,1,0,100,0,0
44474,-111.111111111111,4,1,0,70,0,0
44891,-111.111111111111,4,1,0,100,0,0
44960,-100,4,1,0,100,0,1
52738,-95.2380952380952,4,1,0,100,0,1
53849,-100,4,1,0,100,0,1
61627,-95.2380952380952,4,1,0,100,0,0
89404,-100,4,1,0,100,0,0
89474,-111.111111111111,4,1,0,100,0,0
97807,-111.111111111111,4,1,0,70,0,0
98224,-111.111111111111,4,1,0,100,0,0
98293,-100,4,1,0,100,0,1
106071,-95.2380952380952,4,1,0,100,0,1
106835,-100,4,1,0,100,0,1
114960,-100,4,1,0,100,0,0
129404,-99.009900990099,4,1,0,100,0,0
129682,-98.0392156862745,4,1,0,100,0,0
129960,-97.0873786407767,4,1,0,100,0,0
130238,-96.1538461538461,4,1,0,100,0,0
130516,-95.2380952380952,4,1,0,100,0,0
131557,-95.2380952380952,4,1,0,60,0,0
131766,-125,4,1,0,60,0,0
140446,-100,4,1,0,100,0,0
140516,-100,4,1,0,100,0,1
148293,-95.2380952380952,4,1,0,100,0,0
149404,-100,4,1,0,100,0,1
163710,-100,4,1,0,100,0,0

[HitObjects]
256,194,9404,5,4,0:0:0:0:
256,194,9682,1,8,0:0:0:0:
256,194,9960,1,0,0:0:0:0:
256,194,10099,1,0,0:0:0:0:
256,194,10238,1,8,0:0:0:0:
256,194,10377,1,0,0:0:0:0:
256,194,10654,1,8,0:0:0:0:
256,194,10932,1,0,0:0:0:0:
256,194,11002,1,0,0:0:0:0:
256,194,11071,1,0,0:0:0:0:
256,194,11210,1,0,0:0:0:0:
256,194,11349,1,8,0:0:0:0:
256,194,11627,1,0,0:0:0:0:
256,194,11904,1,8,0:0:0:0:
256,194,12182,1,0,0:0:0:0:
256,194,12321,1,0,0:0:0:0:
256,194,12460,1,0,0:0:0:0:
256,194,12599,1,8,0:0:0:0:
256,194,12877,1,0,0:0:0:0:
256,194,13154,1,8,0:0:0:0:
256,194,13224,1,8,0:0:0:0:
256,194,13293,1,8,0:0:0:0:
256,194,13432,1,0,0:0:0:0:
256,194,13571,1,8,0:0:0:0:
256,194,13849,1,4,0:0:0:0:
256,194,14127,1,8,0:0:0:0:
256,194,14404,1,0,0:0:0:0:
256,194,14543,1,0,0:0:0:0:
256,194,14682,1,8,0:0:0:0:
256,194,14821,1,0,0:0:0:0:
256,194,15099,1,8,0:0:0:0:
256,194,15377,1,0,0:0:0:0:
256,194,15446,1,0,0:0:0:0:
256,194,15516,1,0,0:0:0:0:
256,194,15654,1,0,0:0:0:0:
256,194,15793,1,8,0:0:0:0:
256,194,16071,1,8,0:0:0:0:
256,194,16210,1,8,0:0:0:0:
256,194,16349,1,8,0:0:0:0:
256,194,16488,1,0,0:0:0:0:
256,194,16627,1,8,0:0:0:0:
256,194,16904,1,8,0:0:0:0:
256,194,17043,1,0,0:0:0:0:
254,192,18293,1,0,0:0:0:0:
254,192,18849,1,8,0:0:0:0:
254,192,19404,1,0,0:0:0:0:
254,192,19543,1,0,0:0:0:0:
254,192,19682,1,8,0:0:0:0:
254,192,19960,1,8,0:0:0:0:
254,192,20238,1,0,0:0:0:0:
254,192,20516,1,8,0:0:0:0:
254,192,20793,1,0,0:0:0:0:
254,192,20932,1,0,0:0:0:0:
254,192,21071,1,8,0:0:0:0:
254,192,21349,1,0,0:0:0:0:
254,192,21627,1,8,0:0:0:0:
254,192,21766,1,0,0:0:0:0:
254,192,21904,1,8,0:0:0:0:
254,192,22182,1,0,0:0:0:0:
254,192,22738,1,0,0:0:0:0:
254,192,23293,1,8,0:0:0:0:
254,192,23849,1,8,0:0:0:0:
254,192,23988,1,0,0:0:0:0:
254,192,24127,1,8,0:0:0:0:
254,192,24404,1,8,0:0:0:0:
254,192,24682,1,0,0:0:0:0:
254,192,24960,1,8,0:0:0:0:
254,192,25238,1,0,0:0:0:0:
254,192,25377,1,8,0:0:0:0:
254,192,25516,1,0,0:0:0:0:
254,192,25793,1,0,0:0:0:0:
254,192,25932,1,8,0:0:0:0:
254,192,26071,1,0,0:0:0:0:
254,192,26349,1,8,0:0:0:0:
254,192,26627,1,8,0:0:0:0:
254,192,27182,1,4,0:0:0:0:
254,192,27460,1,8,0:0:0:0:
254,192,27738,1,8,0:0:0:0:
254,192,27877,1,0,0:0:0:0:
254,192,28016,1,0,0:0:0:0:
254,192,28293,1,8,0:0:0:0:
254,192,28432,1,0,0:0:0:0:
254,192,28571,1,8,0:0:0:0:
254,192,28849,1,8,0:0:0:0:
254,192,29127,1,0,0:0:0:0:
254,192,29404,1,8,0:0:0:0:
254,192,29682,1,8,0:0:0:0:
254,192,29960,1,8,0:0:0:0:
254,192,30238,1,8,0:0:0:0:
254,192,30377,1,0,0:0:0:0:
254,192,30516,1,0,0:0:0:0:
254,192,30654,1,0,0:0:0:0:
254,192,30793,1,8,0:0:0:0:
254,192,31071,1,0,0:0:0:0:
254,192,31210,1,8,0:0:0:0:
254,192,31279,1,8,0:0:0:0:
254,192,31349,1,8,0:0:0:0:
254,192,31627,1,0,0:0:0:0:
254,192,32043,1,0,0:0:0:0:
254,192,32182,1,8,0:0:0:0:
254,192,32460,1,0,0:0:0:0:
254,192,32738,1,8,0:0:0:0:
254,192,32877,1,0,0:0:0:0:
254,192,33016,1,0,0:0:0:0:
254,192,33154,1,0,0:0:0:0:
254,192,33293,1,8,0:0:0:0:
254,192,33571,1,8,0:0:0:0:
254,192,33849,1,8,0:0:0:0:
254,192,34127,1,0,0:0:0:0:
254,192,34266,1,0,0:0:0:0:
254,192,34404,1,8,0:0:0:0:
254,192,34682,1,0,0:0:0:0:
254,192,34960,1,8,0:0:0:0:
254,192,35099,1,0,0:0:0:0:
254,192,35238,1,8,0:0:0:0:
254,192,35377,1,8,0:0:0:0:
254,192,35516,1,0,0:0:0:0:
258,194,35654,1,8,0:0:0:0:
257,197,35724,1,8,0:0:0:0:
258,194,35793,1,8,0:0:0:0:
258,194,36071,1,4,0:0:0:0:
253,191,36488,1,0,0:0:0:0:
253,191,36904,1,8,0:0:0:0:
253,191,37182,1,0,0:0:0:0:
253,191,37599,1,0,0:0:0:0:
253,191,38016,1,8,0:0:0:0:
253,191,38293,1,0,0:0:0:0:
248,188,38710,1,0,0:0:0:0:
248,188,39127,1,8,0:0:0:0:
248,188,39404,1,0,0:0:0:0:
248,188,39682,1,0,0:0:0:0:
248,188,39960,1,0,0:0:0:0:
248,188,40238,1,0,0:0:0:0:
248,188,40516,1,12,0:0:0:0:
248,188,40932,1,0,0:0:0:0:
248,188,41349,1,8,0:0:0:0:
248,188,41627,1,0,0:0:0:0:
248,188,42043,1,0,0:0:0:0:
248,188,42460,1,8,0:0:0:0:
248,188,42738,1,4,0:0:0:0:
248,188,43293,1,4,0:0:0:0:
248,188,43849,1,4,0:0:0:0:
248,188,44404,1,0,0:0:0:0:
249,187,44960,1,4,0:0:0:0:
249,187,45238,1,8,0:0:0:0:
249,187,45377,1,8,0:0:0:0:
249,187,45516,1,0,0:0:0:0:
249,187,45793,1,0,0:0:0:0:
249,187,45932,1,0,0:0:0:0:
249,187,46071,1,8,0:0:0:0:
249,187,46210,1,0,0:0:0:0:
249,187,46349,1,0,0:0:0:0:
249,187,46488,1,8,0:0:0:0:
249,187,46766,1,8,0:0:0:0:
249,187,46835,1,8,0:0:0:0:
249,187,46904,1,8,0:0:0:0:
249,187,47043,1,0,0:0:0:0:
249,187,47182,1,8,0:0:0:0:
249,187,47460,1,0,0:0:0:0:
249,187,47599,1,8,0:0:0:0:
249,187,47738,1,0,0:0:0:0:
249,187,48016,1,0,0:0:0:0:
249,187,48154,1,8,0:0:0:0:
249,187,48224,1,8,0:0:0:0:
249,187,48293,1,8,0:0:0:0:
249,187,48432,1,0,0:0:0:0:
249,187,48571,1,0,0:0:0:0:
249,187,48710,1,8,0:0:0:0:
249,187,48988,1,8,0:0:0:0:
249,187,49404,1,4,0:0:0:0:
249,187,49682,1,8,0:0:0:0:
249,187,49821,1,8,0:0:0:0:
249,187,49960,1,0,0:0:0:0:
249,187,50238,1,8,0:0:0:0:
249,187,50377,1,0,0:0:0:0:
249,187,50446,1,0,0:0:0:0:
249,187,50516,1,0,0:0:0:0:
249,187,50793,1,8,0:0:0:0:
249,187,50932,1,8,0:0:0:0:
249,187,51210,1,8,0:0:0:0:
249,187,51279,1,8,0:0:0:0:
249,187,51349,1,8,0:0:0:0:
249,187,51488,1,8,0:0:0:0:
249,187,51627,1,0,0:0:0:0:
249,187,51904,1,8,0:0:0:0:
249,187,52182,1,0,0:0:0:0:
249,187,52321,1,8,0:0:0:0:
249,187,52391,1,8,0:0:0:0:
249,187,52460,1,8,0:0:0:0:
249,187,52738,1,4,0:0:0:0:
249,187,52877,1,4,0:0:0:0:
249,187,53293,1,4,0:0:0:0:
249,187,53432,1,4,0:0:0:0:
249,187,53849,1,4,0:0:0:0:
249,187,54266,1,8,0:0:0:0:
249,187,54404,1,0,0:0:0:0:
249,187,54682,1,8,0:0:0:0:
249,187,54821,1,0,0:0:0:0:
249,187,54960,1,8,0:0:0:0:
249,187,55029,1,8,0:0:0:0:
249,187,55099,1,8,0:0:0:0:
249,187,55238,1,0,0:0:0:0:
249,187,55516,1,8,0:0:0:0:
249,187,55793,1,0,0:0:0:0:
249,187,56071,1,8,0:0:0:0:
249,187,56141,1,8,0:0:0:0:
249,187,56210,1,8,0:0:0:0:
249,187,56349,1,0,0:0:0:0:
249,187,56627,1,0,0:0:0:0:
249,187,56766,1,0,0:0:0:0:
249,187,56904,1,8,0:0:0:0:
249,187,57043,1,8,0:0:0:0:
249,187,57182,1,0,0:0:0:0:
249,187,57321,1,0,0:0:0:0:
249,187,57460,1,8,0:0:0:0:
249,187,57738,1,0,0:0:0:0:
249,187,57877,1,8,0:0:0:0:
249,187,57946,1,8,0:0:0:0:
249,187,58016,1,8,0:0:0:0:
249,187,58293,1,4,0:0:0:0:
249,187,58710,1,8,0:0:0:0:
249,187,58849,1,0,0:0:0:0:
249,187,59127,1,0,0:0:0:0:
249,187,59266,1,0,0:0:0:0:
249,187,59404,1,8,0:0:0:0:
249,187,59543,1,8,0:0:0:0:
249,187,59682,1,0,0:0:0:0:
249,187,59821,1,0,0:0:0:0:
249,187,59960,1,8,0:0:0:0:
249,187,60238,1,0,0:0:0:0:
249,187,60516,1,8,0:0:0:0:
249,187,60654,1,0,0:0:0:0:
249,187,60724,1,0,0:0:0:0:
249,187,60793,1,0,0:0:0:0:
249,187,61071,1,8,0:0:0:0:
249,187,61210,1,0,0:0:0:0:
249,187,61279,1,0,0:0:0:0:
249,187,61349,1,0,0:0:0:0:
249,187,61627,1,4,0:0:0:0:
249,187,61766,1,4,0:0:0:0:
249,187,62738,1,4,0:0:0:0:
249,187,63016,1,8,0:0:0:0:
249,187,63293,1,0,0:0:0:0:
249,187,63432,1,0,0:0:0:0:
249,187,63571,1,8,0:0:0:0:
249,187,63710,1,0,0:0:0:0:
249,187,63988,1,8,0:0:0:0:
249,187,64266,1,0,0:0:0:0:
249,187,64335,1,0,0:0:0:0:
249,187,64404,1,0,0:0:0:0:
249,187,64543,1,0,0:0:0:0:
249,187,64682,1,8,0:0:0:0:
249,187,64960,1,0,0:0:0:0:
249,187,65238,1,8,0:0:0:0:
249,187,65516,1,0,0:0:0:0:
249,187,65654,1,0,0:0:0:0:
249,187,65793,1,0,0:0:0:0:
249,187,65932,1,8,0:0:0:0:
249,187,66210,1,0,0:0:0:0:
249,187,66488,1,8,0:0:0:0:
249,187,66557,1,8,0:0:0:0:
249,187,66627,1,8,0:0:0:0:
249,187,66766,1,0,0:0:0:0:
249,187,66904,1,8,0:0:0:0:
249,187,67182,1,4,0:0:0:0:
249,187,67460,1,8,0:0:0:0:
249,187,67738,1,0,0:0:0:0:
249,187,67877,1,0,0:0:0:0:
249,187,68016,1,8,0:0:0:0:
249,187,68154,1,0,0:0:0:0:
249,187,68432,1,8,0:0:0:0:
249,187,68710,1,0,0:0:0:0:
249,187,68779,1,0,0:0:0:0:
249,187,68849,1,0,0:0:0:0:
249,187,68988,1,8,0:0:0:0:
249,187,69127,1,8,0:0:0:0:
249,187,69404,1,0,0:0:0:0:
249,187,69543,1,8,0:0:0:0:
249,187,69613,1,8,0:0:0:0:
249,187,69682,1,8,0:0:0:0:
249,187,69960,1,0,0:0:0:0:
249,187,70099,1,0,0:0:0:0:
249,187,70238,1,8,0:0:0:0:
249,187,70377,1,0,0:0:0:0:
248,186,71627,1,4,0:0:0:0:
248,186,72043,1,8,0:0:0:0:
248,186,72182,1,0,0:0:0:0:
248,186,72460,1,0,0:0:0:0:
248,186,72599,1,0,0:0:0:0:
248,186,72738,1,8,0:0:0:0:
248,186,72877,1,0,0:0:0:0:
248,186,73016,1,8,0:0:0:0:
248,186,73293,1,8,0:0:0:0:
248,186,73432,1,0,0:0:0:0:
248,186,73571,1,0,0:0:0:0:
248,186,73849,1,8,0:0:0:0:
248,186,74127,1,0,0:0:0:0:
248,186,74404,1,8,0:0:0:0:
248,186,74543,1,8,0:0:0:0:
248,186,74682,1,0,0:0:0:0:
248,186,74821,1,0,0:0:0:0:
248,186,74960,1,8,0:0:0:0:
248,186,75099,1,0,0:0:0:0:
248,186,75238,1,8,0:0:0:0:
248,186,75516,1,0,0:0:0:0:
248,186,75654,1,8,0:0:0:0:
248,186,75724,1,8,0:0:0:0:
248,186,75793,1,8,0:0:0:0:
248,186,76071,1,4,0:0:0:0:
248,186,76488,1,8,0:0:0:0:
248,186,76627,1,0,0:0:0:0:
248,186,76904,1,0,0:0:0:0:
248,186,77043,1,0,0:0:0:0:
248,186,77182,1,8,0:0:0:0:
248,186,77321,1,0,0:0:0:0:
248,186,77460,1,8,0:0:0:0:
248,186,77738,1,8,0:0:0:0:
248,186,78016,1,8,0:0:0:0:
248,186,78293,1,8,0:0:0:0:
248,186,78432,1,0,0:0:0:0:
248,186,78571,1,0,0:0:0:0:
248,186,78849,1,8,0:0:0:0:
248,186,78988,1,0,0:0:0:0:
248,186,79127,1,8,0:0:0:0:
248,186,79266,1,8,0:0:0:0:
248,186,79404,1,0,0:0:0:0:
248,186,79543,1,0,0:0:0:0:
248,186,79682,1,8,0:0:0:0:
248,186,79960,1,8,0:0:0:0:
248,186,80099,1,8,0:0:0:0:
248,186,80168,1,8,0:0:0:0:
248,186,80238,1,8,0:0:0:0:
248,186,80516,1,4,0:0:0:0:
248,186,80932,1,8,0:0:0:0:
248,186,81071,1,0,0:0:0:0:
248,186,81349,1,0,0:0:0:0:
248,186,81488,1,0,0:0:0:0:
248,186,81627,1,8,0:0:0:0:
248,186,81766,1,8,0:0:0:0:
248,186,81904,1,0,0:0:0:0:
248,186,82043,1,8,0:0:0:0:
248,186,82182,1,8,0:0:0:0:
248,186,82460,1,8,0:0:0:0:
248,186,82738,1,8,0:0:0:0:
248,186,82877,1,0,0:0:0:0:
248,186,83016,1,8,0:0:0:0:
248,186,83154,1,0,0:0:0:0:
248,186,83293,1,0,0:0:0:0:
248,186,83432,1,0,0:0:0:0:
248,186,83571,1,8,0:0:0:0:
248,186,83849,1,0,0:0:0:0:
248,186,83988,1,8,0:0:0:0:
248,186,84127,1,0,0:0:0:0:
248,186,84266,1,0,0:0:0:0:
248,186,84335,1,0,0:0:0:0:
248,186,84404,1,0,0:0:0:0:
248,186,84960,1,8,0:0:0:0:
248,186,85099,1,0,0:0:0:0:
248,186,85238,1,0,0:0:0:0:
248,186,85377,1,8,0:0:0:0:
248,186,85516,1,0,0:0:0:0:
248,186,85793,1,0,0:0:0:0:
248,186,85932,1,0,0:0:0:0:
248,186,86071,1,8,0:0:0:0:
248,186,86210,1,8,0:0:0:0:
248,186,86349,1,0,0:0:0:0:
248,186,86488,1,0,0:0:0:0:
248,186,86627,1,8,0:0:0:0:
248,186,86904,1,8,0:0:0:0:
248,186,87043,1,0,0:0:0:0:
248,186,87113,1,0,0:0:0:0:
248,186,87182,1,0,0:0:0:0:
248,186,87460,1,8,0:0:0:0:
248,186,87738,1,0,0:0:0:0:
248,186,87877,1,0,0:0:0:0:
248,186,88016,1,8,0:0:0:0:
248,186,88293,1,0,0:0:0:0:
248,186,88432,1,8,0:0:0:0:
248,186,88571,1,0,0:0:0:0:
248,186,88710,1,8,0:0:0:0:
248,186,88849,1,0,0:0:0:0:
248,186,88988,1,8,0:0:0:0:
248,186,89127,1,8,0:0:0:0:
258,194,89404,1,4,0:0:0:0:
253,191,89821,1,0,0:0:0:0:
253,191,90238,1,8,0:0:0:0:
253,191,90516,1,0,0:0:0:0:
253,191,90932,1,0,0:0:0:0:
253,191,91349,1,8,0:0:0:0:
253,191,91627,1,0,0:0:0:0:
248,188,92043,1,0,0:0:0:0:
248,188,92460,1,8,0:0:0:0:
248,188,92738,1,0,0:0:0:0:
248,188,93016,1,0,0:0:0:0:
248,188,93293,1,0,0:0:0:0:
248,188,93571,1,0,0:0:0:0:
248,188,93849,1,12,0:0:0:0:
248,188,94266,1,0,0:0:0:0:
248,188,94682,1,8,0:0:0:0:
248,188,94960,1,0,0:0:0:0:
248,188,95377,1,0,0:0:0:0:
248,188,95793,1,8,0:0:0:0:
248,188,96071,1,4,0:0:0:0:
248,188,96627,1,4,0:0:0:0:
248,188,97182,1,4,0:0:0:0:
248,188,97738,1,0,0:0:0:0:
249,187,98293,1,4,0:0:0:0:
249,187,98571,1,8,0:0:0:0:
249,187,98710,1,8,0:0:0:0:
249,187,98849,1,0,0:0:0:0:
249,187,99127,1,0,0:0:0:0:
249,187,99266,1,0,0:0:0:0:
249,187,99404,1,8,0:0:0:0:
249,187,99543,1,0,0:0:0:0:
249,187,99682,1,0,0:0:0:0:
249,187,99821,1,8,0:0:0:0:
249,187,100099,1,8,0:0:0:0:
249,187,100168,1,8,0:0:0:0:
249,187,100238,1,8,0:0:0:0:
249,187,100377,1,0,0:0:0:0:
249,187,100516,1,8,0:0:0:0:
249,187,100793,1,0,0:0:0:0:
249,187,100932,1,8,0:0:0:0:
249,187,101071,1,0,0:0:0:0:
249,187,101488,1,0,0:0:0:0:
249,187,101627,1,8,0:0:0:0:
249,187,101696,1,8,0:0:0:0:
249,187,101766,1,8,0:0:0:0:
249,187,101904,1,0,0:0:0:0:
249,187,102043,1,8,0:0:0:0:
249,187,102321,1,8,0:0:0:0:
249,187,102738,1,4,0:0:0:0:
249,187,103016,1,8,0:0:0:0:
249,187,103154,1,8,0:0:0:0:
249,187,103293,1,0,0:0:0:0:
249,187,103571,1,0,0:0:0:0:
249,187,103710,1,0,0:0:0:0:
249,187,103779,1,0,0:0:0:0:
249,187,103849,1,0,0:0:0:0:
249,187,103988,1,0,0:0:0:0:
249,187,104127,1,8,0:0:0:0:
249,187,104266,1,8,0:0:0:0:
249,187,104543,1,8,0:0:0:0:
249,187,104613,1,8,0:0:0:0:
249,187,104682,1,8,0:0:0:0:
249,187,104821,1,8,0:0:0:0:
249,187,104960,1,0,0:0:0:0:
249,187,105238,1,8,0:0:0:0:
249,187,105377,1,0,0:0:0:0:
249,187,105446,1,0,0:0:0:0:
249,187,105516,1,0,0:0:0:0:
249,187,105793,1,8,0:0:0:0:
249,187,106071,1,4,0:0:0:0:
249,187,106210,1,4,0:0:0:0:
249,187,106627,1,4,0:0:0:0:
249,187,106766,1,4,0:0:0:0:
249,187,107182,1,4,0:0:0:0:
249,187,107599,1,8,0:0:0:0:
249,187,107738,1,0,0:0:0:0:
249,187,108016,1,8,0:0:0:0:
249,187,108154,1,8,0:0:0:0:
249,187,108293,1,0,0:0:0:0:
249,187,108432,1,0,0:0:0:0:
249,187,108571,1,8,0:0:0:0:
249,187,108710,1,8,0:0:0:0:
249,187,108849,1,0,0:0:0:0:
249,187,109127,1,8,0:0:0:0:
249,187,109404,1,8,0:0:0:0:
249,187,109474,1,8,0:0:0:0:
249,187,109543,1,8,0:0:0:0:
249,187,109682,1,8,0:0:0:0:
249,187,109960,1,0,0:0:0:0:
249,187,110099,1,0,0:0:0:0:
249,187,110238,1,8,0:0:0:0:
249,187,110377,1,0,0:0:0:0:
249,187,110516,1,8,0:0:0:0:
249,187,110654,1,0,0:0:0:0:
249,187,110724,1,0,0:0:0:0:
249,187,110793,1,0,0:0:0:0:
249,187,111071,1,8,0:0:0:0:
249,187,111210,1,0,0:0:0:0:
249,187,111279,1,0,0:0:0:0:
249,187,111349,1,0,0:0:0:0:
249,187,111627,1,4,0:0:0:0:
249,187,112043,1,0,0:0:0:0:
249,187,112182,1,8,0:0:0:0:
249,187,112460,1,0,0:0:0:0:
249,187,112599,1,0,0:0:0:0:
249,187,112738,1,8,0:0:0:0:
249,187,112807,1,8,0:0:0:0:
249,187,112877,1,8,0:0:0:0:
249,187,113016,1,8,0:0:0:0:
249,187,113154,1,0,0:0:0:0:
249,187,113293,1,8,0:0:0:0:
249,187,113571,1,0,0:0:0:0:
249,187,113849,1,0,0:0:0:0:
249,187,113988,1,8,0:0:0:0:
249,187,114057,1,8,0:0:0:0:
249,187,114127,1,8,0:0:0:0:
249,187,114266,1,0,0:0:0:0:
244,181,114404,1,8,0:0:0:0:
244,181,114543,1,0,0:0:0:0:
244,181,114682,1,0,0:0:0:0:
244,181,114960,1,8,0:0:0:0:
244,181,115099,1,8,0:0:0:0:
244,181,116071,1,4,0:0:0:0:
244,181,116210,1,8,0:0:0:0:
244,181,116349,1,8,0:0:0:0:
244,181,116627,1,0,0:0:0:0:
244,181,116904,1,8,0:0:0:0:
244,181,117182,1,0,0:0:0:0:
244,181,117252,1,0,0:0:0:0:
244,181,117321,1,0,0:0:0:0:
244,181,117460,1,8,0:0:0:0:
244,181,117599,1,0,0:0:0:0:
244,181,117877,1,8,0:0:0:0:
244,181,118293,1,0,0:0:0:0:
244,181,118432,1,8,0:0:0:0:
244,181,118502,1,8,0:0:0:0:
244,181,118571,1,8,0:0:0:0:
244,181,118710,1,0,0:0:0:0:
244,181,118988,1,0,0:0:0:0:
244,181,119127,1,8,0:0:0:0:
244,181,119404,1,8,0:0:0:0:
244,181,119543,1,8,0:0:0:0:
244,181,119682,1,0,0:0:0:0:
244,181,119821,1,8,0:0:0:0:
244,181,119891,1,8,0:0:0:0:
244,181,119960,1,8,0:0:0:0:
244,181,120099,1,0,0:0:0:0:
244,181,120238,1,8,0:0:0:0:
244,181,120516,1,4,0:0:0:0:
244,181,120793,1,8,0:0:0:0:
244,181,120932,1,8,0:0:0:0:
244,181,121071,1,0,0:0:0:0:
244,181,121210,1,0,0:0:0:0:
244,181,121349,1,8,0:0:0:0:
244,181,121627,1,0,0:0:0:0:
244,181,121696,1,0,0:0:0:0:
244,181,121766,1,0,0:0:0:0:
244,181,121904,1,8,0:0:0:0:
244,181,122043,1,0,0:0:0:0:
244,181,122321,1,8,0:0:0:0:
244,181,122738,1,0,0:0:0:0:
244,181,123016,1,8,0:0:0:0:
244,181,123154,1,8,0:0:0:0:
244,181,123293,1,0,0:0:0:0:
244,181,123432,1,8,0:0:0:0:
244,181,123571,1,0,0:0:0:0:
244,181,123710,1,8,0:0:0:0:
244,181,123988,1,8,0:0:0:0:
244,181,124057,1,8,0:0:0:0:
244,181,124127,1,8,0:0:0:0:
244,181,124266,1,8,0:0:0:0:
244,181,124404,1,0,0:0:0:0:
244,181,124960,1,0,0:0:0:0:
244,181,125238,1,8,0:0:0:0:
244,181,125516,1,0,0:0:0:0:
244,181,125654,1,8,0:0:0:0:
244,181,125793,1,8,0:0:0:0:
244,181,126071,1,0,0:0:0:0:
244,181,126349,1,8,0:0:0:0:
244,181,126488,1,8,0:0:0:0:
244,181,126557,1,8,0:0:0:0:
244,181,126627,1,8,0:0:0:0:
244,181,126904,1,8,0:0:0:0:
244,181,127182,1,0,0:0:0:0:
244,181,127460,1,8,0:0:0:0:
244,181,127599,1,0,0:0:0:0:
244,181,127877,1,0,0:0:0:0:
244,181,128016,1,8,0:0:0:0:
244,181,128154,1,8,0:0:0:0:
244,181,128432,1,8,0:0:0:0:
244,181,128710,1,8,0:0:0:0:
244,181,128849,1,8,0:0:0:0:
244,181,128988,1,0,0:0:0:0:
244,181,129127,1,8,0:0:0:0:
244,181,129404,1,0,0:0:0:0:
244,181,129682,1,0,0:0:0:0:
244,181,129960,1,0,0:0:0:0:
244,181,130238,1,0,0:0:0:0:
244,181,130516,1,8,0:0:0:0:
244,181,130793,1,8,0:0:0:0:
244,181,131071,1,8,0:0:0:0:
244,181,131210,1,8,0:0:0:0:
244,181,131349,1,0,0:0:0:0:
244,181,131418,1,0,0:0:0:0:
244,181,131488,1,0,0:0:0:0:
244,181,131627,1,0,0:0:0:0:
244,181,132043,1,0,0:0:0:0:
244,181,132460,1,8,0:0:0:0:
244,181,132738,1,0,0:0:0:0:
244,181,133154,1,0,0:0:0:0:
244,181,133571,1,8,0:0:0:0:
244,181,133849,1,0,0:0:0:0:
244,181,134266,1,0,0:0:0:0:
244,181,134682,1,8,0:0:0:0:
244,181,134960,1,0,0:0:0:0:
244,181,135377,1,8,0:0:0:0:
244,181,135654,1,8,0:0:0:0:
244,181,136071,1,0,0:0:0:0:
244,181,136488,1,0,0:0:0:0:
244,181,136904,1,8,0:0:0:0:
244,181,137182,1,0,0:0:0:0:
244,181,137599,1,0,0:0:0:0:
244,181,138016,1,8,0:0:0:0:
244,181,138293,1,0,0:0:0:0:
244,181,138710,1,0,0:0:0:0:
244,181,139127,1,8,0:0:0:0:
244,178,140516,1,4,0:0:0:0:
244,178,140932,1,8,0:0:0:0:
244,178,141071,1,0,0:0:0:0:
244,178,141349,1,8,0:0:0:0:
244,178,141488,1,0,0:0:0:0:
244,178,141627,1,8,0:0:0:0:
244,178,141696,1,8,0:0:0:0:
244,178,141766,1,8,0:0:0:0:
244,178,141904,1,0,0:0:0:0:
244,178,142182,1,8,0:0:0:0:
244,178,142460,1,0,0:0:0:0:
244,178,142738,1,8,0:0:0:0:
244,178,142877,1,0,0:0:0:0:
244,178,143016,1,8,0:0:0:0:
244,178,143293,1,0,0:0:0:0:
244,178,143432,1,0,0:0:0:0:
244,178,143571,1,8,0:0:0:0:
244,178,143710,1,8,0:0:0:0:
244,178,143849,1,0,0:0:0:0:
244,178,143988,1,0,0:0:0:0:
244,178,144127,1,8,0:0:0:0:
244,178,144404,1,0,0:0:0:0:
244,178,144543,1,8,0:0:0:0:
244,178,144613,1,8,0:0:0:0:
244,178,144682,1,8,0:0:0:0:
244,178,144960,1,4,0:0:0:0:
244,178,145377,1,0,0:0:0:0:
244,178,145516,1,8,0:0:0:0:
244,178,145793,1,8,0:0:0:0:
244,178,145932,1,0,0:0:0:0:
244,178,146071,1,8,0:0:0:0:
244,178,146210,1,8,0:0:0:0:
244,178,146349,1,0,0:0:0:0:
244,178,146488,1,8,0:0:0:0:
244,178,146627,1,0,0:0:0:0:
244,178,146904,1,8,0:0:0:0:
244,178,147182,1,8,0:0:0:0:
244,178,147321,1,0,0:0:0:0:
244,178,147390,1,0,0:0:0:0:
244,178,147460,1,0,0:0:0:0:
244,178,147738,1,8,0:0:0:0:
244,178,147877,1,0,0:3:0:0:
244,178,147947,1,0,0:3:0:0:
244,178,148016,1,0,0:3:0:0:
244,178,148293,1,4,0:0:0:0:
244,178,148432,1,4,0:0:0:0:
247,176,149404,1,4,0:0:0:0:
256,255,149682,1,8,0:0:0:0:
256,255,149960,1,0,0:0:0:0:
256,255,150099,1,8,0:0:0:0:
256,255,150238,1,8,0:0:0:0:
256,255,150377,1,0,0:0:0:0:
256,255,150654,1,8,0:0:0:0:
256,255,150793,1,0,0:0:0:0:
256,255,151071,1,8,0:0:0:0:
256,255,151349,1,8,0:0:0:0:
256,255,151627,1,8,0:0:0:0:
256,255,151766,1,0,0:0:0:0:
256,255,151904,1,0,0:0:0:0:
256,255,152043,1,8,0:0:0:0:
256,255,152182,1,0,0:0:0:0:
256,255,152321,1,0,0:0:0:0:
256,255,152460,1,0,0:0:0:0:
256,255,152599,1,8,0:0:0:0:
256,255,152877,1,0,0:0:0:0:
256,255,153016,1,8,0:0:0:0:
256,255,153293,1,8,0:0:0:0:
256,255,153432,1,0,0:0:0:0:
256,255,153502,1,0,0:0:0:0:
256,255,153571,1,0,0:0:0:0:
256,255,153710,1,8,0:0:0:0:
256,255,153849,1,4,0:0:0:0:
256,255,154266,1,8,0:0:0:0:
256,255,154404,1,0,0:0:0:0:
256,255,154821,1,0,0:0:0:0:
256,255,154960,1,8,0:0:0:0:
256,255,155099,1,0,0:0:0:0:
256,255,155238,1,8,0:0:0:0:
256,255,155377,1,0,0:0:0:0:
256,255,155654,1,0,0:0:0:0:
256,255,155793,1,8,0:0:0:0:
256,255,155932,1,8,0:0:0:0:
256,255,156071,1,8,0:0:0:0:
256,255,156210,1,0,0:0:0:0:
256,255,156349,1,0,0:0:0:0:
256,255,156488,1,8,0:0:0:0:
256,255,156627,1,0,0:0:0:0:
256,255,156766,1,0,0:0:0:0:
256,255,156904,1,8,0:0:0:0:
256,255,157182,1,0,0:0:0:0:
256,255,157321,1,8,0:0:0:0:
256,255,157460,1,0,0:0:0:0:
256,255,157599,1,0,0:0:0:0:
256,255,157738,1,8,0:0:0:0:
256,255,158016,1,0,0:0:0:0:
256,255,158293,1,8,0:0:0:0:
256,255,158571,1,8,0:0:0:0:
256,255,158849,1,0,0:0:0:0:
256,255,158988,1,0,0:0:0:0:
256,255,159127,1,8,0:0:0:0:
256,255,159266,1,0,0:0:0:0:
256,255,159543,1,0,0:0:0:0:
256,255,159682,1,8,0:0:0:0:
256,255,159960,1,0,0:0:0:0:
256,255,160099,1,0,0:0:0:0:
256,255,160238,1,8,0:0:0:0:
256,255,160516,1,0,0:0:0:0:
256,255,160793,1,8,0:0:0:0:
256,255,161210,1,0,0:0:0:0:
256,255,161349,1,8,0:0:0:0:
256,255,161627,1,0,0:0:0:0:
256,255,161766,1,0,0:0:0:0:
256,255,161904,1,8,0:0:0:0:
256,255,162182,1,8,0:0:0:0:
256,255,162460,1,8,0:0:0:0:
256,255,162738,1,0,0:0:0:0:
256,255,162807,1,0,0:0:0:0:
256,255,162877,1,0,0:0:0:0:
256,255,163016,1,8,0:0:0:0:
256,255,163154,1,0,0:0:0:0:
256,255,163224,1,0,0:0:0:0:
256,255,163293,1,0,0:0:0:0:
256,255,163432,1,8,0:0:0:0:
256,255,163571,1,0,0:0:0:0:
256,255,163710,1,12,0:0:0:0:
256,255,164404,1,4,0:0:0:0:
256,255,164682,1,12,0:0:0:0:
256,255,164960,1,4,0:0:0:0:
256,255,165238,1,8,0:0:0:0:
256,255,165516,1,0,0:0:0:0:
256,255,165654,1,0,0:0:0:0:
256,255,165793,1,8,0:0:0:0:
256,255,165932,1,0,0:0:0:0:
256,255,166210,1,8,0:0:0:0:
256,255,166488,1,0,0:0:0:0:
256,255,166557,1,0,0:0:0:0:
256,255,166627,1,0,0:0:0:0:
256,255,166766,1,0,0:0:0:0:
256,255,166904,1,8,0:0:0:0:
256,255,167182,1,0,0:0:0:0:
256,255,167460,1,8,0:0:0:0:
256,255,167738,1,0,0:0:0:0:
256,255,167877,1,0,0:0:0:0:
256,255,168016,1,0,0:0:0:0:
256,255,168154,1,8,0:0:0:0:
256,255,168432,1,0,0:0:0:0:
256,255,168710,1,8,0:0:0:0:
256,255,168779,1,8,0:0:0:0:
256,255,168849,1,8,0:0:0:0:
256,255,168988,1,0,0:0:0:0:
256,255,169127,1,8,0:0:0:0:
256,255,169404,1,4,0:0:0:0:
256,255,169682,1,8,0:0:0:0:
256,255,169960,1,0,0:0:0:0:
256,255,170099,1,8,0:0:0:0:
256,255,170238,1,8,0:0:0:0:
256,255,170377,1,0,0:0:0:0:
256,255,170654,1,8,0:0:0:0:
256,255,170932,1,8,0:0:0:0:
256,255,171002,1,8,0:0:0:0:
256,255,171071,1,8,0:0:0:0:
256,255,171210,1,0,0:0:0:0:
256,255,171349,1,8,0:0:0:0:
256,255,171627,1,0,0:0:0:0:
256,255,171904,1,8,0:0:0:0:
256,255,172182,1,0,0:0:0:0:
256,255,172321,1,8,0:0:0:0:
256,255,172460,1,8,0:0:0:0:
256,255,172599,1,8,0:0:0:0:
256,255,172877,1,0,0:0:0:0:
256,255,173154,1,0,0:0:0:0:
256,255,173224,1,0,0:0:0:0:
256,255,173293,1,0,0:0:0:0:
256,255,173432,1,8,0:0:0:0:
256,255,173571,1,8,0:0:0:0:
256,255,173849,1,4,0:0:0:0:
256,255,174404,1,0,0:0:0:0:
256,255,174543,1,0,0:0:0:0:
256,255,174682,1,8,0:0:0:0:
256,255,174821,1,0,0:0:0:0:
256,255,175099,1,8,0:0:0:0:
256,255,175377,1,0,0:0:0:0:
256,255,175446,1,0,0:0:0:0:
256,255,175516,1,0,0:0:0:0:
256,255,175654,1,0,0:0:0:0:
256,255,175793,1,8,0:0:0:0:
256,255,176071,1,0,0:0:0:0:
256,255,176349,1,8,0:0:0:0:
256,255,176627,1,8,0:0:0:0:
256,255,176766,1,0,0:0:0:0:
256,255,176904,1,0,0:0:0:0:
256,255,177043,1,0,0:0:0:0:
256,255,177321,1,8,0:0:0:0:
256,255,177599,1,0,0:0:0:0:
256,255,177668,1,0,0:0:0:0:
256,255,177738,1,0,0:0:0:0:
256,255,177877,1,0,0:0:0:0:
256,255,178016,1,8,0:0:0:0:
256,255,178293,1,4,0:0:0:0:
256,255,178571,1,8,0:0:0:0:
256,255,178849,1,0,0:0:0:0:
256,255,178988,1,0,0:0:0:0:
256,255,179127,1,8,0:0:0:0:
256,255,179266,1,0,0:0:0:0:
256,255,179543,1,8,0:0:0:0:
256,255,179821,1,0,0:0:0:0:
256,255,179891,1,0,0:0:0:0:
256,255,179960,1,0,0:0:0:0:
256,255,180099,1,0,0:0:0:0:
256,255,180238,1,8,0:0:0:0:
256,255,180516,1,8,0:0:0:0:
256,255,180793,1,0,0:0:0:0:
256,255,180932,1,0,0:0:0:0:
256,255,181002,1,0,0:0:0:0:
256,255,181071,1,0,0:0:0:0:
256,255,181210,1,0,0:0:0:0:
256,255,181349,1,8,0:0:0:0:
256,255,181488,1,4,0:0:0:0:
256,192,181627,12,0,183571,0:0:0:0:
254,191,183849,5,12,0:0:0:0:
254,191,184127,1,12,0:0:0:0:
