osu file format v14

[General]
AudioFilename: audio.mp3
AudioLeadIn: 0
PreviewTime: 18291
Countdown: 0
SampleSet: Soft
StackLeniency: 0.7
Mode: 0
LetterboxInBreaks: 0
WidescreenStoryboard: 1

[Editor]
Bookmarks: 56069,71625,97875,106902,169264
DistanceSpacing: 0.9
BeatDivisor: 2
GridSize: 32
TimelineZoom: 1.8

[Metadata]
Title:Yuru Fuwa Jukai Girl
TitleUnicode:ゆるふわ樹海ガール
Artist:Lon
ArtistUnicode:ろん
Creator:Arsalan
Version:Pop
Source:
Tags:石風呂 ishifuro vocaloid arrangement cover Japanese j j-pop pop Easy Going Forest Girl niconico pigeons Jonarwhal Jonawaga Armada Kumocha shirokumocha xytoper kyrian dahkjdas herestotheroc arkisol Jounzan EvilElvis Natteke desu
BeatmapID:4019527
BeatmapSetID:1776045

[Difficulty]
HPDrainRate:6
CircleSize:4
OverallDifficulty:9
ApproachRate:9.3
SliderMultiplier:2
SliderTickRate:1

[Events]
//Background and Video events
0,0,"daisuke.jpg",0,0
//Break Periods
2,131825,138571
//Storyboard Layer 0 (Background)
//Storyboard Layer 1 (Fail)
//Storyboard Layer 2 (Pass)
//Storyboard Layer 3 (Foreground)
//Storyboard Layer 4 (Overlay)
//Storyboard Sound Samples

[TimingPoints]
514,277.777777777778,4,2,1,30,1,0
514,-166.666666666667,4,2,1,30,0,0
9402,-86.9565217391304,4,2,1,60,0,0
17180,-166.666666666667,4,2,1,60,0,0
18291,-166.666666666667,4,2,1,40,0,0
27180,-86.9565217391304,4,2,1,60,0,0
35514,-117.647058823529,4,2,1,60,0,0
36902,-66.6666666666667,4,2,1,40,0,0
37180,-117.647058823529,4,2,1,40,0,0
38014,-66.6666666666667,4,2,1,40,0,0
38291,-117.647058823529,4,2,1,40,0,0
39125,-66.6666666666667,4,2,1,40,0,0
39402,-86.9565217391304,4,2,1,40,0,0
40514,-100,4,2,1,40,0,0
43847,-142.857142857143,4,2,1,60,0,0
44958,-72.463768115942,4,2,1,60,0,1
61764,-72.463768115942,4,2,1,60,0,0
62736,-86.9565217391304,4,2,1,60,0,0
70514,-166.666666666667,4,2,1,60,0,0
71625,-86.9565217391304,4,2,1,60,0,0
89402,-117.647058823529,4,2,1,40,0,0
90236,-66.6666666666667,4,2,1,40,0,0
90514,-117.647058823529,4,2,1,40,0,0
91347,-66.6666666666667,4,2,1,40,0,0
91625,-117.647058823529,4,2,1,40,0,0
92458,-66.6666666666667,4,2,1,40,0,0
93847,-100,4,2,1,40,0,0
96069,-100,4,2,1,60,0,0
97180,-142.857142857143,4,2,1,60,0,0
98291,-66.6666666666667,4,2,1,60,0,1
115097,-166.666666666667,4,2,1,60,0,0
116069,-66.6666666666667,4,2,1,60,0,1
121069,-166.666666666667,4,2,1,60,0,1
121625,-66.6666666666667,4,2,1,60,0,1
123291,-166.666666666667,4,2,1,60,0,1
123847,-66.6666666666667,4,2,1,60,0,1
124958,-111.111111111111,4,2,1,60,0,0
129402,-125,4,2,1,40,0,1
130514,-125,4,2,1,60,0,1
131625,-166.666666666667,4,2,1,30,0,0
139125,-86.9565217391304,4,2,1,60,0,0
140514,-62.5,4,2,1,60,0,1
148430,-62.5,4,2,1,60,0,0
149402,-72.463768115942,4,2,1,60,0,0
163708,-166.666666666667,4,2,1,60,0,0
164958,-86.9565217391304,4,2,1,60,0,0
183430,-86.9565217391304,4,2,1,10,0,0
183569,-62.5,4,2,1,40,0,0
183847,-62.5,4,2,1,60,0,0

[Colours]
Combo1 : 20,173,120
Combo2 : 128,255,0
Combo3 : 12,243,186
Combo4 : 171,248,135

[HitObjects]
61,235,514,6,0,B|41:294|41:294|70:345,1,119.999996337891,0|2,3:0|0:0,0:0:0:0:
152,303,930,1,2,0:0:0:0:
152,303,1069,1,0,0:0:0:0:
152,303,1208,2,0,B|179:288|179:288|228:298,1,59.9999981689454,2|0,3:2|0:0,0:0:0:0:
299,274,1486,6,0,B|321:334|321:334|287:398,2,119.999996337891,2|2|2,3:2|0:0|0:0,0:0:0:0:
431,227,2319,1,2,0:0:0:0:
431,227,2458,2,0,L|445:298,1,59.9999981689454,2|0,0:0|0:0,0:0:0:0:
479,135,2736,5,2,3:2:0:0:
479,135,3014,2,0,B|428:147|428:147|362:99,1,119.999996337891,2|0,3:2|0:0,0:0:0:0:
406,24,3430,1,2,3:2:0:0:
406,24,3569,1,0,0:0:0:0:
406,24,3708,2,0,B|376:16|376:16|342:29,1,59.9999981689454,2|0,3:2|0:0,0:0:0:0:
285,82,3986,5,2,0:0:0:0:
285,82,4125,1,2,0:0:0:0:
190,28,4264,2,0,L|208:154,1,119.999996337891,0|2,3:0|0:0,0:0:0:0:
231,303,4819,1,2,0:0:0:0:
231,303,4958,2,0,B|239:359,3,29.9999990844727,0|0|2|0,3:0|0:0|0:0|0:0,0:0:0:0:
190,343,5236,6,0,B|140:370|140:370|78:349,1,119.999996337891,2|2,0:0|0:0,0:0:0:0:
22,279,5652,1,2,3:2:0:0:
22,279,5791,1,0,0:0:0:0:
22,279,5930,2,0,B|48:266|48:266|89:272,1,59.9999981689454,0|0,3:0|0:0,0:0:0:0:
138,201,6208,6,0,B|184:166|184:166|260:197,2,119.999996337891,2|2|2,3:2|0:0|0:0,0:0:0:0:
62,147,6902,2,0,B|40:94|40:94|75:33,1,119.999996337891
199,0,7458,5,2,0:0:0:0:
281,22,7875,1,2,0:0:0:0:
199,0,8152,1,2,0:0:0:0:
511,119,9402,6,0,P|405:124|272:81,1,230.000004386902,6|8,1:0|1:0,0:0:0:0:
232,19,9819,1,0,0:0:0:0:
331,190,9958,2,0,P|332:248|330:306,1,115.000002193451,2|0,1:0|0:0,0:0:0:0:
198,219,10236,1,8,1:0:0:0:
89,129,10375,2,0,P|86:74|90:8,1,115.000002193451,2|0,1:0|0:0,0:0:0:0:
0,245,10652,5,0,1:0:0:0:
121,340,10791,2,0,P|179:345|238:359,1,115.000002193451,10|0,1:0|0:0,0:0:0:0:
371,316,11069,1,0,1:0:0:0:
498,237,11208,1,2,1:0:0:0:
360,328,11347,1,8,1:0:0:0:
313,177,11486,1,2,1:0:0:0:
466,384,11625,6,0,P|476:242|464:137,1,230.000004386902,2|8,1:0|1:0,0:0:0:0:
337,77,12041,1,0,0:0:0:0:
191,148,12180,2,0,P|183:263|195:378,1,230.000004386902,2|8,1:0|1:0,0:0:0:0:
57,346,12597,6,0,P|56:294|52:232,1,115.000002193451,2|0,1:0|0:0,0:0:0:0:
191,148,12875,1,2,1:0:0:0:
335,379,13014,2,0,P|337:292|329:206,1,172.500003290176,10|0,1:0|0:0,0:0:0:0:
322,168,13291,1,8,1:0:0:0:
213,74,13430,1,0,0:0:0:0:
214,61,13500,1,8,1:0:0:0:
111,166,13639,1,0,0:0:0:0:
111,178,13708,1,8,1:0:0:0:
0,114,13847,6,0,P|106:119|187:35,1,230.000004386902,6|8,1:0|1:0,0:0:0:0:
99,7,14264,1,0,0:0:0:0:
223,179,14402,2,0,P|212:235|206:302,1,115.000002193451,2|0,1:0|0:0,0:0:0:0:
326,119,14680,1,8,1:0:0:0:
461,173,14819,2,0,P|450:117|444:50,1,115.000002193451,2|0,1:0|0:0,0:0:0:0:
377,253,15097,5,2,1:0:0:0:
443,384,15236,1,10,1:0:0:0:
493,254,15375,1,0,0:0:0:0:
366,337,15514,1,0,1:0:0:0:
475,277,15652,1,2,1:0:0:0:
285,174,15791,2,0,P|299:228|291:295,1,115.000002193451,8|2,1:0|1:0,0:0:0:0:
0,206,16069,5,6,3:1:0:0:
53,41,16207,1,0,3:0:0:0:
130,235,16347,5,12,1:0:0:0:
186,47,16485,1,0,3:0:0:0:
249,263,16625,5,6,3:1:0:0:
308,54,16763,1,0,3:0:0:0:
380,292,16903,5,8,1:0:0:0:
442,60,17041,1,0,3:0:0:0:
484,175,17180,6,0,L|475:248,1,59.9999981689454,0|0,1:0|0:0,0:0:0:0:
495,185,17388,2,0,L|486:259,1,59.9999981689454,2|0,0:0|0:0,0:0:0:0:
506,195,17596,2,0,L|498:270,1,59.9999981689454,0|0,1:0|0:0,0:0:0:0:
492,331,17874,5,0,1:0:0:0:
492,331,18013,1,0,3:0:0:0:
403,60,18291,6,0,P|378:115|383:197,1,119.999996337891,0|8,3:0|0:0,0:0:0:0:
376,173,18708,1,0,0:0:0:0:
316,241,18847,2,0,L|255:229,2,59.9999981689454,0|0|8,0:0|0:0|3:2,0:0:0:0:
135,176,19402,5,0,3:2:0:0:
135,176,19541,1,0,0:0:0:0:
48,207,19680,1,8,3:2:0:0:
95,282,19819,1,0,0:0:0:0:
177,257,19958,2,0,P|176:308|162:381,1,119.999996337891,0|8,0:0|3:2,0:0:0:0:
417,340,20514,6,0,L|406:269,1,59.9999981689454,0|0,3:0|0:0,0:0:0:0:
351,205,20791,1,8,3:2:0:0:
434,155,20930,1,0,0:0:0:0:
489,234,21069,1,0,0:0:0:0:
489,234,21208,1,0,0:0:0:0:
420,136,21347,2,0,L|431:73,1,59.9999981689454,8|0,3:2|0:0,0:0:0:0:
345,19,21625,5,0,3:2:0:0:
252,69,21764,1,0,0:0:0:0:
252,69,21833,1,0,0:0:0:0:
252,69,21902,2,0,L|265:139,1,59.9999981689454,8|0,3:2|0:0,0:0:0:0:
177,199,22180,1,0,0:0:0:0:
177,199,22319,1,0,0:0:0:0:
60,147,22458,2,0,L|-9:155,1,59.9999981689454,8|0,3:2|0:0,0:0:0:0:
117,63,22736,6,0,P|142:118|134:195,1,119.999996337891,0|8,3:0|0:0,0:0:0:0:
140,176,23152,1,0,0:0:0:0:
58,239,23291,2,0,P|60:275|66:303,2,59.9999981689454,0|0|8,0:0|0:0|3:2,0:0:0:0:
293,291,23847,5,0,3:2:0:0:
293,291,23986,1,0,0:0:0:0:
212,253,24125,1,8,3:2:0:0:
143,307,24264,1,0,0:0:0:0:
222,342,24402,2,0,P|214:286|216:218,1,119.999996337891,0|8,0:0|3:2,0:0:0:0:
277,167,24819,1,0,0:0:0:0:
412,231,24958,6,0,L|333:238,1,59.9999981689454,4|0,3:2|0:0,0:0:0:0:
420,243,25236,2,0,L|341:249,1,59.9999981689454,8|0,3:2|0:0,0:0:0:0:
429,256,25514,2,0,L|308:268,1,119.999996337891,0|8,3:2|3:2,0:0:0:0:
374,161,25930,1,2,0:0:0:0:
485,370,26069,5,4,3:2:0:0:
485,370,26208,1,2,0:0:0:0:
485,370,26347,1,10,3:2:0:0:
485,370,26486,1,2,0:0:0:0:
485,370,26625,1,0,0:0:0:0:
309,267,26902,5,4,1:3:0:0:
512,169,27180,6,0,P|516:116|496:44,1,115.000002193451,4|0,1:3|0:0,0:0:0:0:
407,210,27458,2,0,P|399:153|413:93,1,115.000002193451,10|0,1:0|0:0,0:0:0:0:
325,61,27736,1,8,3:0:0:0:
259,156,27875,1,8,3:0:0:0:
139,95,28014,1,10,3:1:0:0:
205,0,28152,1,0,0:0:0:0:
5,91,28291,6,0,P|81:78|181:185,2,230,4|10|8,1:3|1:0|3:0,0:0:0:0:
231,78,28986,1,8,3:0:0:0:
74,179,29126,2,0,P|67:236|82:291,1,115.000002193451,10|10,3:1|3:1,0:0:0:0:
210,384,29402,6,0,L|232:258,1,115.000002193451,4|0,1:3|0:0,0:0:0:0:
372,124,29680,2,0,L|395:255,1,115.000002193451,10|0,1:0|0:0,0:0:0:0:
468,371,29958,1,8,3:0:0:0:
468,371,30097,1,8,3:0:0:0:
512,206,30236,1,10,3:1:0:0:
389,249,30375,1,10,3:1:0:0:
273,192,30514,5,4,1:3:0:0:
351,331,30652,1,0,0:0:0:0:
453,143,30791,2,0,P|462:86|452:25,1,115.000002193451,10|0,1:0|0:0,0:0:0:0:
235,104,31069,5,10,3:0:0:0:
176,228,31208,1,8,0:1:0:0:
176,228,31277,1,8,0:1:0:0:
176,228,31347,1,10,3:1:0:0:
51,187,31486,1,10,3:1:0:0:
114,75,31625,6,0,L|-2:87,1,115.000002193451,4|0,1:3|0:0,0:0:0:0:
238,0,31902,1,10,1:0:0:0:
390,178,32041,1,2,1:0:0:0:
308,133,32180,2,0,P|305:193|320:249,1,115,8|8,3:0|3:0,0:0:0:0:
420,354,32458,1,10,3:1:0:0:
420,354,32597,1,0,0:0:0:0:
246,272,32736,5,4,1:3:0:0:
130,370,32875,1,0,0:0:0:0:
228,253,33014,1,10,1:0:0:0:
115,366,33152,1,2,1:0:0:0:
213,234,33291,2,0,B|116:204|91:320|-10:291,1,230,8|10,3:0|3:1,0:0:0:0:
20,175,33708,1,10,3:1:0:0:
115,366,33847,6,0,P|103:310|114:254,1,115,4|0,1:3|0:0,0:0:0:0:
206,147,34125,1,10,1:0:0:0:
306,237,34264,1,2,1:0:0:0:
388,7,34402,2,0,P|398:63|386:118,1,115,8|2,3:0|3:1,0:0:0:0:
306,237,34680,1,10,3:1:0:0:
306,237,34819,1,2,3:1:0:0:
206,35,34958,6,0,P|194:94|207:150,1,115,4|2,1:2|0:1,0:0:0:0:
238,283,35236,1,10,1:0:0:0:
318,381,35375,1,2,0:1:0:0:
223,369,35514,2,0,L|179:385,1,43.1250016450883,8|0,3:0|0:0,0:0:0:0:
355,307,35653,1,8,3:0:0:0:
355,307,35722,1,0,0:0:0:0:
355,307,35791,1,8,3:1:0:0:
183,196,35930,1,8,3:1:0:0:
104,268,36069,6,0,L|89:178,1,85.0000016212464,4|0,1:0|0:0,0:0:0:0:
119,352,36486,2,0,L|104:266,1,85.0000016212464,4|0,1:0|0:0,0:0:0:0:
0,289,36764,1,2,0:1:0:0:
0,289,36902,6,0,B|85:262|85:262|139:289|139:289|227:265,1,224.24998973465,4|0,1:3|0:0,0:0:0:0:
247,264,37180,6,0,L|266:357,1,85.0000016212464,4|8,1:3|1:3,0:0:0:0:
292,195,37458,1,0,0:0:0:0:
360,239,37597,2,0,L|378:327,1,85.0000016212464,8|4,1:3|1:3,0:0:0:0:
445,116,37875,1,2,0:1:0:0:
445,116,38014,6,0,B|340:75|340:75|229:121,1,225.000008583069,4|0,1:3|0:0,0:0:0:0:
201,142,38291,6,0,L|218:240,1,85.0000016212464,4|0,1:0|0:0,0:0:0:0:
201,309,38708,2,0,L|216:222,1,85.0000016212464,4|0,1:0|0:0,0:0:0:0:
128,359,38986,1,2,0:1:0:0:
69,300,39125,6,0,B|20:210|20:210|120:111,1,225.000008583069,4|0,1:3|0:0,0:0:0:0:
257,129,39402,6,0,B|204:101|204:101|151:114,1,115.000002193451,4|0,1:3|0:0,0:0:0:0:
256,129,39680,2,0,B|309:101|309:101|363:114,1,115,0|0,1:3|0:0,0:0:0:0:
147,36,39958,5,4,1:3:0:0:
189,187,40097,1,8,1:3:0:0:
365,36,40236,1,4,1:3:0:0:
323,187,40375,1,8,1:3:0:0:
0,187,40514,6,0,P|64:162|156:203,1,150,4|0,1:0|0:0,0:0:0:0:
163,208,40791,2,0,P|187:273|182:323,1,100,2|8,0:1|3:0,0:0:0:0:
292,363,41069,2,0,P|288:305|298:258,1,100
306,383,41347,1,10,1:0:0:0:
368,156,41625,6,0,P|385:204|379:263,1,100,4|8,3:2|3:0,0:0:0:0:
419,92,41902,1,2,0:1:0:0:
488,141,42041,2,0,P|507:209|473:344,1,200,8|0,3:0|0:0,0:0:0:0:
407,384,42458,1,10,1:0:0:0:
250,20,42736,5,4,1:3:0:0:
255,182,42875,1,0,3:0:0:0:
258,0,43014,1,4,1:3:0:0:
257,204,43153,1,0,3:0:0:0:
389,137,43292,5,4,1:3:0:0:
116,75,43431,1,0,3:0:0:0:
386,52,43569,1,8,1:0:0:0:
125,171,43708,1,8,1:0:0:0:
258,0,43847,5,4,1:3:0:0:
257,204,44125,2,0,B|216:256|290:279|245:347,1,139.999995727539,2|8,0:2|0:0,0:0:0:0:
458,42,44958,6,0,P|391:48|339:104,1,137.999995788574,6|0,1:0|0:0,0:0:0:0:
264,233,45236,1,8,1:0:0:0:
256,150,45375,1,8,3:1:0:0:
67,22,45514,2,0,P|134:28|186:84,1,137.999995788574,2|8,1:1|3:0,0:0:0:0:
255,224,45791,1,8,1:0:0:0:
177,179,45930,5,4,3:0:0:0:
46,340,46069,2,0,P|95:343|180:307,1,137.999995788574,6|2,3:1|1:0,0:0:0:0:
264,233,46347,1,10,1:0:0:0:
403,380,46486,2,0,P|286:344|251:207,1,275.999991577149,10|8,3:1|3:0,0:0:0:0:
250,79,46902,1,10,1:0:0:0:
255,182,47041,1,4,3:0:0:0:
426,247,47180,6,0,P|397:185|338:154,1,137.999995788574,6|0,3:1|0:0,0:0:0:0:
259,207,47458,1,8,1:0:0:0:
248,294,47597,1,8,3:1:0:0:
84,247,47736,2,0,P|114:185|174:154,1,137.999995788574,2|8,1:1|3:0,0:0:0:0:
55,381,48014,1,8,1:0:0:0:
0,307,48152,5,4,3:0:0:0:
180,254,48291,2,0,L|322:246,1,137.999995788574,6|0,3:1|0:0,0:0:0:0:
207,353,48569,1,10,1:0:0:0:
154,157,48708,2,0,L|16:151,1,137.999995788574,8|0,3:1|3:1,0:0:0:0:
256,136,48986,1,8,1:0:0:0:
256,136,49264,1,4,3:0:0:0:
187,61,49402,6,0,P|112:77|58:36,1,137.999995788574,6|0,3:1|0:0,0:0:0:0:
261,147,49680,1,8,1:0:0:0:
249,237,49819,1,10,3:1:0:0:
307,29,49958,2,0,P|367:-1|432:17,1,137.999995788574,0|8,3:1|3:0,0:0:0:0:
259,157,50236,1,8,1:0:0:0:
136,223,50375,5,4,3:0:0:0:
136,223,50514,2,0,L|-6:200,1,137.999995788574,6|2,3:1|1:0,0:0:0:0:
189,289,50791,1,10,1:0:0:0:
140,363,50930,2,0,P|275:362|313:221,1,275.999991577149,10|8,3:1|3:0,0:0:0:0:
424,63,51347,5,10,1:0:0:0:
346,121,51486,1,4,3:0:0:0:
327,30,51625,2,0,P|396:20|432:77,1,137.999995788574,6|0,3:1|0:0,0:0:0:0:
88,63,51902,5,8,1:0:0:0:
166,121,52041,1,10,3:1:0:0:
185,30,52180,2,0,P|117:20|80:77,1,137.999995788574,0|10,3:1|3:1,0:0:0:0:
255,256,52458,5,4,1:2:0:0:
256,122,52597,1,0,3:1:0:0:
425,16,52736,5,6,3:1:0:0:
53,145,52875,1,0,1:0:0:0:
7,23,53291,5,6,3:1:0:0:
454,209,53430,1,0,1:0:0:0:
512,128,53847,6,0,P|416:128|352:225,1,206.999993682861,6|0,1:0|0:0,0:0:0:0:
330,234,54125,1,8,1:0:0:0:
190,109,54264,1,10,3:1:0:0:
338,15,54402,2,0,L|285:162,1,137.999995788574,2|8,3:1|3:0,0:0:0:0:
492,349,54680,2,0,L|439:202,1,137.999995788574,8|4,1:0|3:0,0:0:0:0:
241,40,54958,5,6,3:1:0:0:
204,210,55097,1,2,1:0:0:0:
204,210,55236,2,0,L|181:359,1,137.999995788574,10|0,3:1|1:0,0:0:0:0:
91,199,55514,2,0,P|129:146|192:109,1,137.999995788574,2|8,3:1|3:0,0:0:0:0:
22,30,55791,2,0,P|84:11|161:20,1,137.999995788574,10|4,1:0|3:0,0:0:0:0:
489,30,56069,6,0,P|423:10|355:19,1,137.999995788574,6|0,3:1|0:0,0:0:0:0:
420,199,56346,2,0,P|380:144|321:110,1,137.999995788574,10|10,1:0|3:1,0:0:0:0:
261,330,56625,1,2,3:1:0:0:
329,278,56764,1,8,3:0:0:0:
196,188,56902,1,10,1:0:0:0:
137,247,57041,1,4,3:0:0:0:
292,201,57180,5,6,3:1:0:0:
151,354,57319,1,2,1:0:0:0:
340,384,57458,1,10,3:1:0:0:
223,265,57597,1,10,3:1:0:0:
307,120,57736,5,0,3:1:0:0:
416,162,57875,1,10,1:0:0:0:
182,67,58014,1,10,1:0:0:0:
79,111,58153,1,12,3:0:0:0:
239,0,58291,6,0,P|267:108|246:226,1,206.999993682861,6|0,3:1|0:0,0:0:0:0:
278,222,58569,1,8,1:0:0:0:
167,148,58708,1,10,3:1:0:0:
375,74,58847,2,0,P|361:138|375:208,1,137.999995788574,2|8,3:1|3:0,0:0:0:0:
168,163,59125,1,8,1:0:0:0:
88,226,59264,1,4,3:0:0:0:
182,353,59402,5,6,3:1:0:0:
297,269,59541,1,2,1:0:0:0:
107,237,59680,1,10,3:1:0:0:
261,352,59819,1,10,3:1:0:0:
88,226,59958,2,0,P|102:289|82:364,1,137.999995788574,2|8,3:1|3:0,0:0:0:0:
256,192,60236,1,8,1:0:0:0:
256,192,60375,1,4,3:0:0:0:
330,145,60514,6,0,L|350:-1,1,137.999995788574,6|0,3:1|0:0,0:0:0:0:
182,145,60791,2,0,L|162:-1,1,137.999995788574,10|10,1:0|3:1,0:0:0:0:
388,220,61069,2,0,L|478:103,1,137.999995788574,4|8,3:2|3:0,0:0:0:0:
124,220,61347,2,0,L|33:103,1,137.999995788574,8|4,1:0|3:0,0:0:0:0:
256,384,61625,5,4,3:1:0:0:
256,0,61764,1,4,3:1:0:0:
256,0,62180,5,2,0:0:0:0:
256,0,62458,1,2,0:0:0:0:
256,384,62736,6,0,P|258:277|256:151,1,230,6|8,1:0|1:0,0:0:0:0:
256,0,63152,1,0,0:0:0:0:
253,143,63291,2,0,P|248:200|244:259,1,115,2|0,1:0|0:0,0:0:0:0:
173,97,63569,1,8,1:0:0:0:
346,172,63708,6,0,B|402:189|402:189|460:162,1,115,2|0,1:0|0:0,0:0:0:0:
448,75,63986,1,0,1:0:0:0:
379,26,64125,2,0,B|286:-18|252:103|162:96,1,230,10|0,1:0|1:0,0:0:0:0:
89,110,64541,1,2,1:0:0:0:
89,110,64680,2,0,B|113:157|113:157|93:219,1,115,8|2,1:0|1:0,0:0:0:0:
0,321,64958,6,0,P|110:307|191:384,1,230,2|8,1:0|1:0,0:0:0:0:
206,243,65375,1,0,0:0:0:0:
266,357,65514,2,0,P|347:281|458:296,1,230,2|8,1:0|1:0,0:0:0:0:
264,188,65930,6,0,B|215:163|215:163|150:185,1,115,2|0,1:0|0:0,0:0:0:0:
318,129,66208,1,2,1:0:0:0:
383,232,66347,2,0,P|397:132|303:18,1,230,10|8,1:0|1:0,0:0:0:0:
203,9,66764,1,0,0:0:0:0:
182,25,66833,1,8,1:0:0:0:
93,136,66972,1,0,0:0:0:0:
90,110,67041,1,8,1:0:0:0:
0,39,67180,6,0,B|142:-10|88:130|229:90,1,230.000004386902,6|8,1:0|1:0,0:0:0:0:
281,43,67597,1,0,0:0:0:0:
162,191,67736,2,0,P|162:253|152:311,1,115,2|0,1:0|0:0,0:0:0:0:
62,361,68014,1,8,1:0:0:0:
248,300,68152,2,0,L|373:296,1,115,2|0,1:0|0:0,0:0:0:0:
470,216,68430,1,2,1:0:0:0:
435,366,68569,6,0,P|381:273|404:154,1,230,10|2,1:0|1:0,0:0:0:0:
488,220,68986,1,2,1:0:0:0:
335,73,69125,1,10,1:0:0:0:
287,154,69264,1,2,1:0:0:0:
471,43,69402,5,6,3:1:0:0:
512,307,69542,1,0,3:0:0:0:
340,63,69680,5,12,1:0:0:0:
380,285,69820,1,0,3:0:0:0:
219,85,69958,5,6,3:1:0:0:
260,266,70098,1,0,3:0:0:0:
88,107,70236,5,8,1:0:0:0:
129,244,70375,1,0,3:0:0:0:
6,288,70514,6,0,L|-3:364,1,59.9999981689454,0|0,1:0|0:0,0:0:0:0:
17,298,70722,2,0,L|9:373,1,59.9999981689454,2|0,0:0|0:0,0:0:0:0:
28,308,70930,2,0,L|20:382,1,59.9999981689454,0|0,1:0|0:0,0:0:0:0:
102,384,71208,5,0,1:0:0:0:
102,384,71347,1,0,3:0:0:0:
376,262,71625,6,0,L|507:275,1,115,4|0,1:3|0:0,0:0:0:0:
320,201,71902,1,10,1:0:0:0:
320,201,72041,1,0,0:0:0:0:
478,94,72180,2,0,L|346:104,1,115,8|8,3:0|3:0,0:0:0:0:
297,57,72458,1,10,3:1:0:0:
297,57,72597,1,0,0:0:0:0:
137,11,72736,5,4,1:3:0:0:
262,140,72875,1,0,0:0:0:0:
187,184,73014,2,0,P|81:153|0:227,2,230,10|8|10,1:0|3:0|3:1,0:0:0:0:
190,87,73708,1,10,3:1:0:0:
278,243,73847,6,0,P|283:298|285:359,1,115,4|0,1:3|0:0,0:0:0:0:
98,357,74125,2,0,P|98:302|108:239,1,115,10|0,1:0|0:0,0:0:0:0:
259,142,74402,1,8,3:0:0:0:
193,283,74541,1,8,3:0:0:0:
362,209,74680,1,10,3:1:0:0:
212,267,74819,1,2,1:0:0:0:
487,370,74958,6,0,L|346:331,1,115,4|0,1:3|0:0,0:0:0:0:
379,198,75236,2,0,L|495:168,1,115,10|0,1:0|0:0,0:0:0:0:
512,278,75514,1,8,3:0:0:0:
372,358,75653,1,8,3:0:0:0:
372,358,75722,1,8,3:0:0:0:
372,358,75791,1,10,3:1:0:0:
301,256,75930,1,10,3:1:0:0:
301,256,76069,6,0,P|313:197|291:120,1,115,4|0,1:3|0:0,0:0:0:0:
229,65,76347,1,10,1:0:0:0:
229,65,76486,1,0,0:0:0:0:
122,139,76625,2,0,P|110:80|133:5,1,115,8|8,3:0|3:0,0:0:0:0:
0,196,76902,1,10,3:1:0:0:
0,196,77041,1,2,1:0:0:0:
57,305,77180,5,4,1:3:0:0:
172,262,77319,1,0,0:0:0:0:
249,370,77458,2,0,B|157:408|135:254|33:309,2,230,10|8|10,1:0|3:0|3:1,0:0:0:0:
350,311,78152,1,10,3:1:0:0:
443,155,78291,6,0,L|462:278,1,115,4|0,1:3|0:0,0:0:0:0:
255,133,78569,2,0,L|236:256,1,115,10|0,1:0|0:0,0:0:0:0:
454,139,78847,2,0,L|473:262,1,115,8|8,3:0|3:0,0:0:0:0:
351,296,79125,1,10,3:1:0:0:
357,221,79264,1,2,1:0:0:0:
248,118,79402,6,0,L|229:241,1,115,4|2,1:3|1:0,0:0:0:0:
339,74,79680,1,10,1:0:0:0:
443,18,79819,1,0,0:0:0:0:
326,159,79958,1,8,3:0:0:0:
215,23,80097,1,0,3:0:0:0:
215,23,80166,1,8,0:1:0:0:
215,23,80236,1,10,3:1:0:0:
116,124,80375,1,10,3:1:0:0:
31,349,80514,6,0,P|30:217|22:113,1,230,4|10,1:3|1:0,0:0:0:0:
136,238,80930,1,2,1:0:0:0:
243,349,81069,2,0,P|244:217|252:113,1,230,8|10,3:0|3:1,0:0:0:0:
260,0,81486,5,2,1:0:0:0:
411,38,81625,1,4,1:3:0:0:
323,153,81764,1,2,1:0:0:0:
401,57,81903,1,10,1:0:0:0:
512,130,82041,1,2,1:0:0:0:
425,262,82180,2,0,P|425:190|419:135,1,115,8|8,3:0|3:0,0:0:0:0:
254,331,82458,2,0,P|248:274|249:217,1,115,10|10,3:1|3:1,0:0:0:0:
373,378,82736,6,0,P|426:369|476:306,1,115,4|0,1:3|0:0,0:0:0:0:
139,378,83014,2,0,P|85:369|36:306,1,115,10|0,1:0|0:0,0:0:0:0:
339,270,83291,2,0,P|390:251|437:189,1,115,8|8,3:0|3:0,0:0:0:0:
173,270,83569,2,0,P|122:251|75:189,1,115,10|0,3:1|0:0,0:0:0:0:
12,173,83847,5,4,1:3:0:0:
80,16,83986,1,0,0:0:0:0:
80,16,84125,2,0,P|72:79|79:138,1,115,10|2,1:0|1:0,0:0:0:0:
151,115,84402,1,8,3:0:0:0:
169,126,84472,1,0,0:0:0:0:
247,0,84611,1,8,0:1:0:0:
225,15,84681,1,10,3:1:0:0:
305,103,84819,1,10,3:1:0:0:
451,0,84958,6,0,P|457:57|457:117,1,115,4|0,1:3|0:0,0:0:0:0:
347,254,85236,1,10,1:0:0:0:
344,167,85375,1,2,1:0:0:0:
225,15,85514,2,0,P|224:129|235:244,1,230,8|10,3:0|3:1,0:0:0:0:
339,375,85930,5,2,1:0:0:0:
446,305,86069,1,4,1:3:0:0:
310,218,86208,1,0,0:0:0:0:
440,284,86347,1,10,1:0:0:0:
487,150,86486,1,0,0:0:0:0:
377,73,86625,2,0,P|381:141|378:191,1,115,8|8,3:0|3:0,0:0:0:0:
160,135,86902,2,0,P|159:80|165:20,1,115,10|10,3:1|3:1,0:0:0:0:
26,218,87180,6,0,P|136:229|185:327,1,230,4|10,1:3|1:0,0:0:0:0:
256,179,87597,1,2,1:0:0:0:
485,218,87736,2,0,P|375:229|326:327,1,230,8|10,3:0|3:1,0:0:0:0:
255,195,88152,1,2,3:1:0:0:
326,327,88291,6,0,L|440:348,1,115,4|2,1:2|1:0,0:0:0:0:
185,327,88569,2,0,L|71:348,1,115,10|2,1:0|1:0,0:0:0:0:
256,179,88847,1,8,3:0:0:0:
256,179,88986,1,8,3:0:0:0:
314,253,89125,1,8,3:1:0:0:
234,384,89264,1,8,3:1:0:0:
99,231,89402,6,0,B|190:217,1,85.0000016212464,4|0,1:0|0:0,0:0:0:0:
15,244,89819,2,0,B|107:229,1,85.0000016212464,4|0,1:0|0:0,0:0:0:0:
79,119,90236,6,0,L|119:358,1,225.000008583069,4|0,1:3|0:0,0:0:0:0:
151,368,90514,6,0,B|192:381|192:381|235:366,1,85.0000016212464,4|8,1:3|1:3,0:0:0:0:
296,315,90791,1,0,0:0:0:0:
260,243,90930,2,0,B|219:230|219:230|176:245,1,85.0000016212464,8|4,1:3|1:3,0:0:0:0:
312,324,91208,1,2,0:1:0:0:
388,267,91347,6,0,L|371:32,1,225.000008583069,4|0,1:3|0:0,0:0:0:0:
355,17,91625,6,0,L|363:110,1,85.0000016212464,4|0,1:0|0:0,0:0:0:0:
250,66,92041,2,0,L|259:154,1,85.0000016212464,4|0,1:0|0:0,0:0:0:0:
148,119,92319,1,2,0:1:0:0:
364,206,92458,6,0,B|266:250|266:250|156:208,1,225.000008583069,4|0,1:3|0:0,0:0:0:0:
69,224,92736,6,0,P|62:152|69:74,1,150.000005722046,4|0,1:3|0:0,0:0:0:0:
450,127,93014,2,0,P|456:200|450:277,1,150.000005722046,0|0,1:3|0:0,0:0:0:0:
140,315,93291,5,4,1:3:0:0:
372,315,93430,1,8,1:3:0:0:
150,335,93569,1,4,1:3:0:0:
360,335,93708,1,8,1:3:0:0:
64,351,93847,6,0,P|185:350|219:321,1,150,4|0,1:0|0:0,0:0:0:0:
227,308,94125,2,0,P|247:253|245:181,1,100,2|8,0:1|3:0,0:0:0:0:
181,143,94402,2,0,P|185:97|185:40,1,100
78,165,94680,2,0,P|85:113|82:53,1,100,10|0,1:0|0:0,0:0:0:0:
326,40,94958,6,0,P|326:96|332:163,1,100,4|8,3:2|3:0,0:0:0:0:
409,183,95236,1,2,0:1:0:0:
420,69,95375,2,0,B|295:45|341:133|213:111,1,200,8|0,3:0|0:0,0:0:0:0:
185,43,95791,1,10,1:0:0:0:
250,364,96069,5,4,1:3:0:0:
255,202,96208,1,0,3:0:0:0:
258,384,96347,1,4,1:3:0:0:
257,180,96486,1,0,3:0:0:0:
389,247,96625,5,4,1:3:0:0:
116,309,96764,1,0,3:0:0:0:
386,332,96902,1,8,1:0:0:0:
125,213,97041,1,8,1:0:0:0:
258,384,97180,5,4,1:3:0:0:
257,180,97458,2,0,B|221:117|300:107|263:34,1,139.999995727539,2|8,0:2|0:0,0:0:0:0:
371,7,98291,6,0,P|367:78|394:157,1,149.499993156433,6|0,1:0|0:0,0:0:0:0:
246,260,98569,1,8,1:0:0:0:
256,177,98708,1,8,3:1:0:0:
131,7,98847,2,0,P|135:78|108:157,1,149.499993156433,2|8,1:1|3:0,0:0:0:0:
251,271,99125,1,8,1:0:0:0:
355,225,99264,5,4,3:0:0:0:
355,225,99402,2,0,P|409:180|496:191,1,149.499993156433,6|2,3:1|1:0,0:0:0:0:
242,287,99680,1,10,1:0:0:0:
41,236,99819,2,0,P|126:224|226:392,1,298.999986312867,10|8,3:1|3:0,0:0:0:0:
318,309,100236,1,10,1:0:0:0:
355,225,100375,1,4,3:0:0:0:
147,329,100514,6,0,P|74:325|20:374,1,149.499993156433,6|0,3:1|0:0,0:0:0:0:
246,260,100791,1,8,1:0:0:0:
256,180,100930,1,8,3:1:0:0:
365,329,101069,2,0,P|438:325|492:374,1,149.499993156433,2|8,1:1|3:0,0:0:0:0:
256,165,101347,1,8,1:0:0:0:
146,164,101486,5,4,3:0:0:0:
146,164,101624,2,0,L|116:17,1,149.499993156433,6|0,3:1|0:0,0:0:0:0:
255,190,101902,1,10,1:0:0:0:
395,17,102041,2,0,L|366:164,1,149.499993156433,8|0,3:1|0:0,0:0:0:0:
303,268,102319,1,8,1:0:0:0:
303,268,102597,1,4,3:0:0:0:
495,197,102736,6,0,P|425:182|334:214,1,149.499993156433,6|0,3:1|0:0,0:0:0:0:
209,265,103014,1,8,1:0:0:0:
192,351,103152,1,10,3:1:0:0:
0,217,103291,2,0,P|70:202|162:237,1,149.499993156433,0|8,3:1|3:0,0:0:0:0:
224,260,103569,5,8,1:0:0:0:
207,174,103708,1,4,3:0:0:0:
148,242,103847,1,6,3:1:0:0:
284,198,103986,1,2,1:0:0:0:
373,276,104125,1,10,1:0:0:0:
487,203,104264,6,0,L|500:351,1,149.499993156433,10|2,3:1|1:1,0:0:0:0:
364,181,104541,1,8,3:0:0:0:
280,300,104680,1,10,1:0:0:0:
183,150,104819,1,4,3:0:0:0:
148,242,104958,6,0,L|0:255,1,149.499993156433,6|0,3:1|0:0,0:0:0:0:
258,118,105236,1,8,1:0:0:0:
258,118,105375,1,10,3:1:0:0:
364,181,105514,2,0,L|512:166,1,149.499993156433,0|0,3:1|0:0,0:0:0:0:
253,32,105791,2,0,L|104:18,1,149.499993156433,4|0,1:2|3:1,0:0:0:0:
60,122,106069,5,6,3:1:0:0:
350,89,106208,1,0,1:0:0:0:
209,279,106625,5,6,3:1:0:0:
507,217,106764,1,0,1:0:0:0:
507,217,107180,6,0,B|405:163|392:296|273:226,1,224.24998973465,6|0,1:0|0:0,0:0:0:0:
265,216,107458,1,8,1:0:0:0:
308,380,107597,1,10,3:1:0:0:
409,309,107736,2,0,P|432:239|407:170,1,149.499993156433,2|8,3:1|3:0,0:0:0:0:
296,121,108014,2,0,P|223:130|172:183,1,149.499993156433,8|4,1:0|3:0,0:0:0:0:
295,237,108291,5,6,3:1:0:0:
377,102,108430,1,2,1:0:0:0:
377,102,108569,1,10,3:1:0:0:
227,21,108708,1,0,1:0:0:0:
93,85,108847,6,0,P|82:159|82:233,1,149.499993156433,2|8,3:1|3:0,0:0:0:0:
188,356,109125,2,0,P|115:371|40:369,1,149.499993156433,10|4,1:0|3:0,0:0:0:0:
324,356,109402,2,0,P|396:371|471:369,1,149.499993156433,6|0,3:1|0:0,0:0:0:0:
430,233,109680,2,0,P|429:159|418:85,1,149.499993156433,10|10,1:0|3:1,0:0:0:0:
223,75,109958,2,0,B|194:141|194:141|248:201,1,149.499993156433,2|8,3:1|3:0,0:0:0:0:
261,0,110236,1,10,1:0:0:0:
261,0,110375,1,4,3:0:0:0:
357,144,110514,5,6,3:1:0:0:
347,231,110652,1,2,1:0:0:0:
337,149,110791,1,10,3:1:0:0:
426,186,110930,1,10,3:1:0:0:
223,75,111069,5,0,3:1:0:0:
91,239,111208,1,10,1:0:0:0:
15,66,111347,1,10,1:0:0:0:
144,150,111486,1,12,3:0:0:0:
13,360,111625,6,0,P|118:372|181:278,1,224.24998973465,6|0,3:1|0:0,0:0:0:0:
185,248,111902,1,8,1:0:0:0:
264,336,112041,1,10,3:1:0:0:
463,282,112180,2,0,L|302:258,1,149.499993156433,2|8,3:1|3:0,0:0:0:0:
180,236,112458,1,8,1:0:0:0:
316,117,112597,5,4,3:0:0:0:
316,117,112736,2,0,L|473:85,1,149.499993156433,6|0,3:1|0:0,0:0:0:0:
200,30,113014,2,0,L|43:-2,1,149.499993156433,10|10,3:1|3:1,0:0:0:0:
122,170,113291,5,2,3:1:0:0:
231,128,113430,1,8,3:0:0:0:
358,281,113569,1,8,1:0:0:0:
255,237,113708,1,4,3:0:0:0:
95,245,113847,6,0,P|73:174|87:102,1,149.499993156433,6|0,3:1|0:0,0:0:0:0:
250,90,114125,1,10,1:0:0:0:
292,165,114264,1,10,3:1:0:0:
473,55,114402,5,4,3:2:0:0:
324,38,114541,1,8,3:0:0:0:
106,252,114680,1,8,1:0:0:0:
255,269,114819,1,4,3:0:0:0:
256,384,114958,5,4,3:1:0:0:
256,0,115097,1,4,3:1:0:0:
256,0,115514,5,2,0:0:0:0:
256,0,115652,1,2,0:0:0:0:
210,154,115791,5,2,0:0:0:0:
210,154,115930,1,2,0:0:0:0:
158,296,116069,6,0,B|269:267|269:267|372:329,1,224.24998973465,4|0,1:0|0:0,0:0:0:0:
390,350,116347,2,0,L|405:179,1,149.499993156433,10|8,1:0|3:1,0:0:0:0:
504,78,116625,1,0,3:1:0:0:
504,78,116764,1,2,3:1:0:0:
434,27,116902,2,0,B|361:50|361:50|277:11,1,149.499993156433,8|4,1:0|3:0,0:0:0:0:
232,283,117180,6,0,L|217:57,1,224.24998973465,6|0,3:1|0:0,0:0:0:0:
187,30,117458,1,8,1:0:0:0:
201,192,117597,2,0,B|139:204|139:204|48:169,1,149.499993156433,10|0,3:1|3:1,0:0:0:0:
161,115,117875,1,10,3:1:0:0:
295,47,118014,2,0,B|368:29|368:29|432:65,1,149.499993156433,8|4,1:0|3:0,0:0:0:0:
512,162,118291,6,0,B|440:148|440:148|379:203|379:203|311:192,1,224.24998973465,6|0,3:1|0:0,0:0:0:0:
285,166,118569,1,10,1:0:0:0:
408,360,118708,2,0,B|421:287|421:287|384:220,1,149.499993156433,4|0,3:2|3:1,0:0:0:0:
317,384,118986,1,2,3:1:0:0:
185,205,119125,2,0,B|148:270|148:270|161:343,1,149.499993156433,8|2,1:0|3:1,0:0:0:0:
256,154,119402,5,6,3:1:0:0:
63,266,119541,1,10,3:1:0:0:
231,384,119680,1,8,1:0:0:0:
74,256,119819,1,8,3:1:0:0:
233,281,119958,5,2,3:1:0:0:
249,294,120027,1,8,1:0:0:0:
326,199,120166,1,8,1:0:0:0:
341,187,120236,1,10,1:0:0:0:
487,267,120375,1,12,3:0:0:0:
401,360,120514,6,0,L|424:137,1,224.24998973465,4|0,3:1|0:0,0:0:0:0:
427,85,120791,2,0,B|351:104|351:104|271:46,1,149.499993156433,10|8,1:0|3:1,0:0:0:0:
209,16,121069,2,0,L|201:79,3,59.9999981689454,0|2|8|4,3:1|3:1|1:0|3:0,0:0:0:0:
176,188,121625,5,6,3:1:0:0:
107,116,121764,1,2,1:0:0:0:
36,217,121902,1,8,1:0:0:0:
0,89,122041,2,0,B|39:153|39:153|21:226,1,150.000005722046,10|0,3:1|3:1,0:0:0:0:
272,171,122319,5,10,3:0:0:0:
381,203,122458,1,8,1:0:0:0:
477,140,122597,1,4,3:0:0:0:
458,26,122736,6,0,B|381:17|381:17|315:57|315:57|239:44,1,225.000008583069,6|0,3:1|0:0,0:0:0:0:
212,12,123014,2,0,L|186:177,1,150.000005722046,10|8,1:0|3:1,0:0:0:0:
340,255,123291,2,0,L|350:192,1,59.9999981689454,2|10,3:1|3:1,0:0:0:0:
365,260,123569,2,0,L|375:195,1,59.9999981689454,4|4,1:2|3:0,0:0:0:0:
493,366,123847,6,0,L|319:343,1,150.000005722046,4|2,3:1|0:1,0:0:0:0:
311,369,124055,1,0,0:0:0:0:
311,369,124125,2,0,L|223:360,1,75.0000028610231,12|0,3:1|0:0,0:0:0:0:
195,379,124264,1,2,0:1:0:0:
34,247,124402,5,4,3:1:0:0:
0,264,124472,1,0,1:0:0:0:
135,153,124611,1,8,1:0:0:0:
152,119,124680,1,8,3:1:0:0:
197,279,124819,1,8,3:1:0:0:
39,157,124958,6,0,B|10:72|10:72|71:-9,2,179.999994506836,6|8|2,3:1|1:0|1:0,0:0:0:0:
154,276,125652,1,0,0:0:0:0:
154,276,125791,2,0,L|216:282,1,44.999998626709,8|0,1:0|0:0,0:0:0:0:
234,248,125930,2,0,L|301:253,1,44.999998626709,0|0,3:0|0:0,0:0:0:0:
321,229,126069,5,0,3:0:0:0:
437,339,126208,1,2,3:1:0:0:
437,339,126347,1,8,1:0:0:0:
512,237,126486,1,0,0:0:0:0:
414,166,126625,6,0,B|399:209|399:209|419:271,1,89.9999972534181,2|0,1:0|0:0,0:0:0:0:
245,131,126902,1,8,1:0:0:0:
153,149,127041,1,10,1:0:0:0:
113,50,127180,6,0,B|161:11|161:11|289:47,1,179.999994506836,2|8,3:1|1:0,0:0:0:0:
371,19,127597,1,4,3:1:0:0:
322,184,127736,2,0,L|348:93,1,89.9999972534181,2|2,1:0|3:1,0:0:0:0:
381,270,128014,1,8,1:0:0:0:
437,350,128152,2,0,L|327:374,1,89.9999972534181,10|4,3:1|3:0,0:0:0:0:
291,266,128430,1,2,3:1:0:0:
261,345,128570,2,0,L|168:325,1,89.9999972534181,10|4,1:0|3:1,0:0:0:0:
180,181,128847,6,0,L|202:73,1,89.9999972534181,2|0,1:0|0:0,0:0:0:0:
208,62,129055,1,0,0:0:0:0:
208,61,129125,1,8,1:0:0:0:
345,0,129264,1,0,0:0:0:0:
492,106,129402,5,6,1:0:0:0:
457,195,129541,1,10,1:0:0:0:
307,245,129680,5,2,1:0:0:0:
269,165,129819,1,10,1:0:0:0:
107,30,129958,5,2,1:0:0:0:
54,94,130097,1,10,1:0:0:0:
224,236,130236,5,10,1:0:0:0:
171,127,130375,1,2,1:0:0:0:
383,47,130514,5,6,1:0:0:0:
512,207,130652,1,10,1:0:0:0:
282,86,130791,5,6,1:0:0:0:
433,267,130929,1,10,1:0:0:0:
171,127,131069,5,6,1:0:0:0:
332,331,131207,1,10,1:0:0:0:
40,172,131347,5,14,1:0:0:0:
204,384,131485,1,2,1:0:0:0:
255,231,131625,5,4,3:2:0:0:
315,265,139125,5,6,0:0:0:0:
256,192,139194,12,2,139958,0:0:0:0:
98,15,140236,5,2,0:0:0:0:
98,15,140514,6,0,P|83:95|107:263,1,241.499992630005,6|0,1:0|0:0,0:0:0:0:
76,273,140792,1,8,1:0:0:0:
0,206,140931,1,10,3:1:0:0:
110,359,141070,2,0,P|172:342|276:334,1,160.99999508667,2|8,3:1|3:0,0:0:0:0:
396,380,141347,1,8,1:0:0:0:
511,229,141486,5,4,3:0:0:0:
511,229,141625,2,0,L|339:233,1,160.99999508667,6|2,3:1|1:0,0:0:0:0:
210,140,141902,1,10,3:1:0:0:
161,202,142041,1,10,3:1:0:0:
395,150,142180,2,0,P|409:72|377:0,1,160.99999508667,2|8,3:1|3:0,0:0:0:0:
159,61,142458,1,10,1:0:0:0:
227,118,142597,1,4,3:0:0:0:
52,254,142736,6,0,P|22:179|34:101,1,160.99999508667,6|0,3:1|0:0,0:0:0:0:
250,27,143014,2,0,P|279:101|267:179,1,160.99999508667,10|8,1:0|3:1,0:0:0:0:
177,361,143291,1,2,3:1:0:0:
133,214,143430,1,8,3:0:0:0:
335,361,143569,1,10,1:0:0:0:
379,214,143708,1,4,3:0:0:0:
193,128,143847,5,6,3:1:0:0:
193,128,143986,1,2,1:0:0:0:
454,303,144125,2,0,L|294:278,1,160.99999508667,10|10,3:1|3:1,0:0:0:0:
452,177,144402,5,0,3:1:0:0:
512,240,144541,1,10,1:0:0:0:
273,134,144680,1,10,1:0:0:0:
364,100,144819,1,12,3:0:0:0:
471,7,144958,6,0,L|299:26,1,160.99999508667,6|0,3:1|0:0,0:0:0:0:
212,219,145236,1,8,1:0:0:0:
263,151,145375,1,10,3:1:0:0:
41,57,145514,2,0,L|213:76,1,160.99999508667,2|8,3:1|3:0,0:0:0:0:
230,236,145791,1,8,1:0:0:0:
61,339,145930,5,4,3:0:0:0:
61,339,146069,2,0,P|106:273|116:187,1,160.99999508667,6|2,3:1|1:0,0:0:0:0:
245,250,146347,1,10,3:1:0:0:
279,331,146486,1,10,3:1:0:0:
343,104,146625,2,0,P|354:183|399:249,1,160.99999508667,2|8,3:1|3:0,0:0:0:0:
268,343,146902,1,8,1:0:0:0:
188,384,147041,1,4,3:0:0:0:
116,194,147181,6,0,P|91:273|90:354,1,160.99999508667,6|0,3:1|0:0,0:0:0:0:
422,350,147459,2,0,P|420:270|396:194,1,160.99999508667,10|8,1:0|3:1,0:0:0:0:
169,104,147736,2,0,P|90:79|9:78,1,160.99999508667,4|8,3:2|3:0,0:0:0:0:
343,104,148014,2,0,P|422:79|503:78,1,160.99999508667,4|4,1:2|3:0,0:0:0:0:
251,2,148291,5,4,3:1:0:0:
256,384,148430,1,4,3:1:0:0:
256,384,148847,5,2,0:0:0:0:
256,384,149125,1,2,0:0:0:0:
189,50,149402,6,0,P|190:143|184:341,1,275.999991577149,6|8,1:0|1:0,0:0:0:0:
75,358,149819,1,8,3:1:0:0:
108,275,149958,1,0,3:1:0:0:
30,294,150097,1,8,3:0:0:0:
156,341,150236,1,8,1:0:0:0:
327,325,150375,6,0,P|322:187|323:50,1,275.999991577149,2|0,3:1|0:0,0:0:0:0:
512,152,150791,1,8,3:1:0:0:
395,212,150930,1,10,3:1:0:0:
480,231,151069,2,0,P|493:317|486:380,1,137.999995788574,2|8,3:1|3:0,0:0:0:0:
313,185,151347,2,0,P|311:119|324:44,1,137.999995788574,8|4,1:0|3:0,0:0:0:0:
205,94,151625,6,0,P|204:250|181:373,1,275.999991577149,6|8,3:1|1:0,0:0:0:0:
320,337,152041,1,8,3:1:0:0:
418,229,152180,2,0,P|409:154|426:79,1,137.999995788574,0|8,3:1|3:0,0:0:0:0:
362,4,152458,1,8,1:0:0:0:
511,33,152597,6,0,B|343:-25|415:145|260:95,1,275.999991577149,2|0,3:1|0:0,0:0:0:0:
185,74,153014,1,8,3:1:0:0:
225,0,153152,1,8,3:1:0:0:
90,42,153291,1,2,3:1:0:0:
90,42,153361,1,8,1:0:0:0:
90,42,153430,1,0,0:0:0:0:
150,160,153569,1,10,1:0:0:0:
21,201,153708,1,12,3:0:0:0:
0,78,153847,6,0,P|122:123|262:83,1,275.999991577149,6|8,3:1|1:0,0:0:0:0:
224,193,154264,1,10,3:1:0:0:
70,315,154402,2,0,P|192:269|332:312,1,275.999991577149,0|8,3:1|1:0,0:0:0:0:
487,384,154819,5,2,3:1:0:0:
512,289,154958,1,6,3:1:0:0:
381,185,155097,1,0,0:0:0:0:
406,280,155236,1,8,3:1:0:0:
476,131,155375,1,10,3:1:0:0:
326,3,155514,2,0,P|336:75|304:148,1,137.999995788574,0|8,3:1|3:0,0:0:0:0:
188,209,155791,1,10,1:0:0:0:
135,139,155930,1,4,3:0:0:0:
215,57,156069,6,0,L|253:335,1,275.999991577149,6|8,3:1|1:0,0:0:0:0:
19,274,156486,2,0,L|56:0,1,275.999991577149,10|8,3:1|3:0,0:0:0:0:
132,249,156902,2,0,P|141:314|125:392,1,137.999995788574,6|4,1:1|3:0,0:0:0:0:
232,190,157180,1,4,1:0:0:0:
324,264,157319,1,0,0:0:0:0:
396,157,157458,1,8,1:0:0:0:
481,265,157597,1,8,3:1:0:0:
236,162,157736,5,0,3:1:0:0:
70,306,157875,1,8,3:0:0:0:
70,306,157944,1,0,0:0:0:0:
70,306,158014,1,8,1:0:0:0:
0,131,158152,1,4,3:0:0:0:
103,209,158291,6,0,L|400:196,1,275.999991577149,6|8,3:1|1:0,0:0:0:0:
448,13,158708,2,0,P|316:4|240:112,1,275.999991577149,10|8,3:1|3:0,0:0:0:0:
288,340,159125,1,10,1:0:0:0:
339,278,159264,1,4,3:0:0:0:
298,210,159402,5,6,3:1:0:0:
109,128,159541,1,0,0:0:0:0:
109,128,159611,1,2,0:0:0:0:
109,128,159680,2,0,P|90:65|135:-19,1,137.999995788574,8|8,1:0|3:1,0:0:0:0:
385,69,159958,2,0,P|404:132|359:216,1,137.999995788574,2|8,3:1|3:0,0:0:0:0:
288,340,160236,2,0,L|426:359,1,137.999995788574,8|4,1:0|3:0,0:0:0:0:
99,384,160514,6,0,P|89:257|200:173,1,275.999991577149,6|8,3:1|1:0,0:0:0:0:
382,276,160930,1,8,3:1:0:0:
458,258,161069,2,0,P|486:229|488:129,1,137.999995788574,0|8,3:1|1:0,0:0:0:0:
363,46,161347,1,8,1:0:0:0:
297,89,161486,1,12,3:0:0:0:
113,13,161625,5,6,3:1:0:0:
216,91,161764,1,0,0:0:0:0:
401,152,161902,5,10,1:0:0:0:
263,246,162041,1,8,3:1:0:0:
90,256,162180,5,2,3:1:0:0:
90,256,162250,1,0,0:0:0:0:
250,384,162389,1,0,3:1:0:0:
250,384,162458,1,10,1:0:0:0:
409,310,162597,1,4,3:0:0:0:
409,310,162666,1,0,0:0:0:0:
409,310,162736,6,0,B|457:157|314:215|353:32,2,275.999991577149,6|8|0,3:1|1:0|3:1,0:0:0:0:
349,202,163430,1,8,3:0:0:0:
422,152,163569,1,8,1:0:0:0:
268,0,163708,5,4,3:1:0:0:
256,192,163743,12,2,164402,0:0:0:0:
352,120,164680,5,8,1:0:0:0:
352,120,164958,6,0,P|340:234|335:349,1,230,6|8,1:0|1:0,0:0:0:0:
238,292,165375,1,0,0:0:0:0:
136,222,165514,2,0,P|152:267|157:341,1,115,2|0,1:0|0:0,0:0:0:0:
259,184,165791,1,8,1:0:0:0:
412,290,165930,2,0,P|415:232|433:178,1,115,2|0,1:0|0:0,0:0:0:0:
235,68,166208,5,2,1:0:0:0:
73,165,166347,2,0,L|63:50,1,115,10|0,1:0|0:0,0:0:0:0:
185,245,166625,1,0,1:0:0:0:
367,181,166764,1,2,1:0:0:0:
177,230,166903,1,8,1:0:0:0:
350,295,167042,1,2,1:0:0:0:
69,250,167180,6,0,P|98:355|205:372,1,230,2|8,1:0|1:0,0:0:0:0:
256,309,167597,1,0,0:0:0:0:
442,250,167736,2,0,P|413:355|306:372,1,230,2|8,1:0|1:0,0:0:0:0:
127,191,168152,6,0,L|247:180,1,115,2|0,1:0|0:0,0:0:0:0:
444,126,168430,1,2,1:0:0:0:
379,177,168569,2,0,L|244:162,1,115,10|0,1:0|0:0,0:0:0:0:
124,25,168846,1,8,1:0:0:0:
124,25,168916,1,0,0:0:0:0:
258,66,169055,1,8,1:0:0:0:
258,66,169125,1,8,1:0:0:0:
377,7,169264,1,8,1:0:0:0:
510,87,169402,6,0,P|431:158|316:136,1,230.000004386902,6|8,1:0|1:0,0:0:0:0:
258,80,169819,1,0,0:0:0:0:
111,145,169958,2,0,P|88:219|96:269,1,115,2|0,1:0|0:0,0:0:0:0:
256,192,170236,1,8,1:0:0:0:
342,272,170375,2,0,P|397:288|442:325,1,115,2|0,1:0|0:0,0:0:0:0:
253,299,170652,5,2,1:0:0:0:
168,273,170791,2,0,P|114:289|70:325,1,115,10|0,1:0|0:0,0:0:0:0:
11,172,171069,1,0,1:0:0:0:
92,149,171208,1,2,1:0:0:0:
240,18,171347,1,8,1:0:0:0:
318,49,171486,1,2,1:0:0:0:
249,384,171625,6,0,L|277:140,1,230,2|8,1:0|1:0,0:0:0:0:
351,117,172041,1,0,0:0:0:0:
435,179,172180,2,0,L|417:308,1,115,2|0,1:0|0:0,0:0:0:0:
232,384,172458,1,8,1:0:0:0:
177,299,172597,2,0,L|161:185,1,115,2|0,1:0|0:0,0:0:0:0:
210,100,172875,1,2,1:0:0:0:
358,205,173014,2,0,L|331:338,1,115,10|0,1:0|0:0,0:0:0:0:
445,370,173291,5,4,1:2:0:0:
512,243,173430,1,0,3:0:0:0:
512,243,173500,1,8,1:0:0:0:
512,243,173569,1,8,1:0:0:0:
449,103,173708,1,8,1:0:0:0:
512,25,173847,6,0,B|392:-47|389:107|298:82,1,230,6|8,1:0|1:0,0:0:0:0:
251,18,174264,1,0,0:0:0:0:
157,129,174402,2,0,P|96:113|22:109,1,115,2|0,1:0|0:0,0:0:0:0:
262,215,174680,1,8,1:0:0:0:
349,153,174819,2,0,P|406:148|462:132,1,115,2|0,1:0|0:0,0:0:0:0:
242,111,175097,5,2,1:0:0:0:
145,212,175236,2,0,P|131:266|124:340,1,115,10|0,1:0|0:0,0:0:0:0:
278,384,175513,1,0,1:0:0:0:
230,317,175652,1,2,1:0:0:0:
422,298,175791,2,0,L|308:279,1,115,8|2,1:0|1:0,0:0:0:0:
459,384,176069,6,0,P|505:326|486:170,1,230,2|8,1:0|1:0,0:0:0:0:
459,104,176486,1,0,0:0:0:0:
296,185,176625,2,0,L|431:168,1,115,2|0,1:0|0:0,0:0:0:0:
213,20,176902,1,8,1:0:0:0:
292,83,177041,6,0,L|396:29,1,115,2|0,1:0|0:0,0:0:0:0:
180,157,177319,1,2,1:0:0:0:
347,310,177458,2,0,L|244:257,1,115,10|0,1:0|0:0,0:0:0:0:
92,384,177737,1,8,1:0:0:0:
0,271,177875,1,0,0:0:0:0:
0,271,177945,1,8,1:0:0:0:
0,271,178014,1,8,1:0:0:0:
63,111,178152,1,8,1:0:0:0:
0,25,178291,6,0,B|120:-47|123:107|214:82,1,230,6|8,1:0|1:0,0:0:0:0:
258,26,178708,1,0,0:0:0:0:
314,298,178847,2,0,P|318:180|333:35,1,230,2|8,1:0|1:0,0:0:0:0:
398,19,179264,6,0,L|516:37,1,115,2|0,1:0|0:0,0:0:0:0:
512,173,179541,1,2,1:0:0:0:
454,227,179680,2,0,L|497:338,1,115,10|0,1:0|0:0,0:0:0:0:
346,384,179958,1,0,1:0:0:0:
268,356,180097,1,2,1:0:0:0:
90,188,180236,1,8,1:0:0:0:
13,218,180375,1,2,1:0:0:0:
84,384,180514,5,6,3:1:0:0:
100,202,180652,1,0,3:0:0:0:
254,340,180791,5,12,1:0:0:0:
176,147,180929,1,0,3:0:0:0:
404,265,181069,5,6,3:1:0:0:
254,96,181207,1,0,3:0:0:0:
169,34,181347,5,8,1:0:0:0:
511,140,181485,1,4,3:2:0:0:
256,192,181555,12,0,183430,0:0:0:0:
357,279,183569,6,0,L|406:271,1,40,2|0,3:2|0:0,0:0:0:0:
360,292,183639,2,0,L|410:285,1,40,2|0,3:2|0:0,0:0:0:0:
362,306,183708,2,0,L|312:312,1,40,2|0,3:2|0:0,0:0:0:0:
364,318,183777,2,0,L|314:326,1,40,2|0,3:2|0:0,0:0:0:0:
367,332,183847,5,4,1:2:0:0:
147,206,184125,1,4,1:2:0:0:
