osu file format v14

[General]
AudioFilename: audio.mp3
AudioLeadIn: 0
PreviewTime: 18291
Countdown: 0
SampleSet: Soft
StackLeniency: 0.7
Mode: 0
LetterboxInBreaks: 0
WidescreenStoryboard: 1

[Editor]
Bookmarks: 71625,87180,98291
DistanceSpacing: 1.5
BeatDivisor: 8
GridSize: 4
TimelineZoom: 2.999999

[Metadata]
Title:Yuru Fuwa Jukai Girl
TitleUnicode:ゆるふわ樹海ガール
Artist:Lon
ArtistUnicode:ろん
Creator:Arsalan
Version:Collab Hard
Source:
Tags:石風呂 ishifuro vocaloid arrangement cover Japanese j j-pop pop Easy Going Forest Girl niconico pigeons Jonarwhal Jonawaga Armada Kumocha shirokumocha xytoper kyrian dahkjdas herestotheroc arkisol Jounzan EvilElvis Natteke desu
BeatmapID:4003620
BeatmapSetID:1776045

[Difficulty]
HPDrainRate:4
CircleSize:3
OverallDifficulty:7
ApproachRate:8
SliderMultiplier:1.4
SliderTickRate:1

[Events]
//Background and Video events
0,0,"daisuke.jpg",0,0
//Break Periods
2,18291,26002
2,131902,138225
//Storyboard Layer 0 (Background)
//Storyboard Layer 1 (Fail)
//Storyboard Layer 2 (Pass)
//Storyboard Layer 3 (Foreground)
//Storyboard Layer 4 (Overlay)
//Storyboard Sound Samples

[TimingPoints]
514,277.777777777778,4,2,1,30,1,0
514,-100,4,2,1,30,0,0
9402,-100,4,2,1,60,0,0
17180,-100,4,2,1,60,0,0
18291,-100,4,2,1,40,0,0
27180,-100,4,2,1,60,0,0
36069,-111.111111111111,4,2,1,60,0,0
36902,-100,4,2,1,40,0,0
37180,-111.111111111111,4,2,1,40,0,0
38014,-111.111111111111,4,2,1,40,0,0
38291,-111.111111111111,4,2,1,40,0,0
38986,-111.111111111111,4,2,1,40,0,0
39402,-111.111111111111,4,2,1,40,0,0
40514,-111.111111111111,4,2,1,40,0,0
42736,-111.111111111111,4,2,1,40,0,0
43847,-111.111111111111,4,2,1,60,0,0
44958,-90.9090909090909,4,2,1,60,0,1
61764,-100,4,2,1,60,0,0
62736,-100,4,2,1,60,0,0
89402,-111.111111111111,4,2,1,40,0,0
93847,-111.111111111111,4,2,1,40,0,0
95444,-111.111111111111,4,2,1,5,0,0
95514,-111.111111111111,4,2,1,40,0,0
96069,-111.111111111111,4,2,1,60,0,0
97180,-111.111111111111,4,2,1,60,0,0
98291,-90.9090909090909,4,2,1,60,0,1
115097,-100,4,2,1,60,0,0
116069,-100,4,2,1,60,0,1
124958,-100,4,2,1,60,0,0
129402,-100,4,2,1,40,0,1
130514,-100,4,2,1,60,0,1
131625,-111.111111111111,4,2,1,30,0,0
139125,-111.111111111111,4,2,1,60,0,0
140166,-111.111111111111,4,2,1,5,0,0
140236,-90.9090909090909,4,2,1,60,0,0
148430,-100,4,2,1,60,0,0
149402,-100,4,2,1,60,0,0
162736,-100,4,2,1,60,0,0
163708,-100,4,2,1,60,0,0
164958,-100,4,2,1,60,0,0
183430,-100,4,2,1,10,0,0
183569,-100,4,2,1,40,0,0
183847,-100,4,2,1,60,0,0

[Colours]
Combo1 : 240,181,128
Combo2 : 133,227,119

[HitObjects]
205,152,9402,6,0,B|287:145|254:100|343:90,1,140,6|8,1:0|1:0,0:0:0:0:
423,75,9819,1,0,0:0:0:0:
483,152,9958,2,0,P|467:220|457:289,1,140,2|8,1:0|1:0,0:0:0:0:
389,351,10375,2,0,P|354:343|320:338,1,70,2|0,1:0|0:0,0:0:0:0:
243,282,10652,2,0,P|207:287|169:298,1,70,0|10,1:0|1:0,0:0:0:0:
91,342,10930,1,0,0:0:0:0:
23,275,11069,2,0,P|31:240|36:206,1,70,0|2,1:0|1:0,0:0:0:0:
36,116,11347,1,8,1:0:0:0:
246,172,11625,6,0,P|314:156|383:146,1,140,2|8,1:0|1:0,0:0:0:0:
444,72,12041,1,0,0:0:0:0:
364,16,12180,2,0,P|295:31|226:41,1,140,2|8,1:0|1:0,0:0:0:0:
157,105,12597,2,0,P|122:97|88:92,1,70,2|0,1:0|0:0,0:0:0:0:
18,151,12875,2,0,B|-20:202|-20:202|25:292,1,140,2|0,1:0|0:0,0:0:0:0:
71,340,13291,1,8,1:0:0:0:
150,291,13430,1,0,0:0:0:0:
150,291,13500,1,8,1:0:0:0:
150,291,13569,2,0,P|185:299|219:304,1,70,8|8,1:0|1:0,0:0:0:0:
337,259,13847,6,0,B|346:207|346:207|334:181|334:181|344:123,1,140,6|8,1:0|1:0,0:0:0:0:
294,46,14264,1,0,0:0:0:0:
207,76,14402,2,0,P|142:39|64:60,1,140,2|8,1:0|1:0,0:0:0:0:
16,122,14819,2,0,P|24:157|29:191,1,70,2|0,1:0|0:0,0:0:0:0:
84,266,15097,2,0,B|165:273|141:223|230:228,1,140,2|0,1:0|0:0,0:0:0:0:
299,278,15514,2,0,P|334:286|368:291,1,70,0|2,1:0|1:0,0:0:0:0:
446,237,15791,1,8,1:0:0:0:
339,372,16069,6,0,P|304:365|270:360,1,70,6|0,3:1|3:0,0:0:0:0:
188,314,16347,1,12,1:0:0:0:
117,370,16486,1,0,3:0:0:0:
38,327,16625,2,0,P|11:264|39:201,1,140,6|8,3:1|1:0,0:0:0:0:
116,149,17041,1,0,3:0:0:0:
256,192,26902,5,4,1:3:0:0:
256,192,27180,6,0,B|315:200|315:200|333:215|333:215|389:222,1,140,4|10,1:3|1:0,0:0:0:0:
502,109,27736,2,0,P|495:75|488:41,1,70,8|8,3:0|3:0,0:0:0:0:
402,6,28014,2,0,P|367:3|336:18,1,70,10|0,3:1|0:0,0:0:0:0:
271,81,28291,2,0,P|236:85|205:70,1,70,4|0,1:3|0:0,0:0:0:0:
128,20,28569,2,0,P|56:24|23:103,2,140,10|8|10,1:0|3:0|3:1,0:0:0:0:
215,179,29402,6,0,P|250:185|284:193,1,70,4|0,1:3|0:0,0:0:0:0:
346,259,29680,2,0,P|381:251|415:244,1,70,10|0,1:0|0:0,0:0:0:0:
473,174,29958,2,0,P|494:127|454:41,1,140,8|10,3:0|3:1,0:0:0:0:
376,18,30375,1,10,3:1:0:0:
303,73,30514,2,0,P|269:65|235:58,1,70,4|0,1:3|0:0,0:0:0:0:
153,16,30791,2,0,P|118:23|84:31,1,70,10|0,1:0|0:0,0:0:0:0:
24,100,31069,2,0,P|22:138|44:179,1,70,10|8,3:0|0:1,0:0:0:0:
77,194,31277,1,8,0:1:0:0:
77,194,31347,2,0,P|78:232|56:273,1,70,10|10,3:1|3:1,0:0:0:0:
124,331,31625,6,0,P|191:314|266:302,1,140,4|10,1:3|1:0,0:0:0:0:
349,337,32041,1,2,1:0:0:0:
349,337,32180,2,0,P|386:278|379:209,1,140,8|10,3:0|3:1,0:0:0:0:
300,183,32597,1,0,0:0:0:0:
300,183,32736,2,0,P|266:190|232:197,1,70,4|0,1:3|0:0,0:0:0:0:
151,229,33014,1,10,1:0:0:0:
151,229,33152,1,2,1:0:0:0:
73,181,33291,2,0,P|84:141|83:110,1,70,8|0,3:0|0:0,0:0:0:0:
46,36,33569,1,10,3:1:0:0:
226,90,33847,6,0,B|286:82|286:82|304:67|304:67|360:60,1,140,4|10,1:3|1:0,0:0:0:0:
455,49,34264,1,2,1:0:0:0:
455,49,34402,2,0,P|440:120|428:204,1,140,8|10,3:0|3:1,0:0:0:0:
369,254,34819,1,2,3:1:0:0:
369,254,34958,2,0,B|287:261|320:306|231:316,1,140,4|10,1:2|1:0,0:0:0:0:
158,331,35375,1,2,0:1:0:0:
158,331,35514,2,0,L|168:384,3,35,8|0|8|0,3:0|0:0|3:0|0:0,0:0:0:0:
72,285,35791,2,0,P|71:249|57:216,1,70,8|8,3:1|3:1,0:0:0:0:
91,127,36069,6,0,B|137:94|188:110|188:110|217:146|268:137,1,188.999994232178,4|4,1:0|1:0,0:0:0:0:
331,74,36625,1,0,0:0:0:0:
463,201,36902,1,4,1:3:0:0:
463,201,37180,6,0,P|426:210|385:216,1,62.9999980773926,4|8,1:3|1:3,0:0:0:0:
329,263,37458,2,0,P|295:255|261:249,1,62.9999980773926,0|8,0:0|1:3,0:0:0:0:
206,189,37736,2,0,P|172:196|138:202,1,62.9999980773926,4|2,1:3|0:1,0:0:0:0:
63,216,38014,1,4,1:3:0:0:
78,359,38291,6,0,P|140:367|202:377,1,125.999996154785,4|0,1:0|0:0,0:0:0:0:
268,326,38708,1,4,1:0:0:0:
268,326,38847,2,0,P|303:321|337:313,1,62.9999980773926,0|2,0:0|0:1,0:0:0:0:
408,290,39125,1,4,1:3:0:0:
296,185,39402,6,0,P|302:151|310:117,1,62.9999980773926,4|0,1:3|0:0,0:0:0:0:
307,38,39680,2,0,P|256:21|180:73,1,125.999996154785,0|4,1:3|1:3,0:0:0:0:
119,99,40097,1,8,1:3:0:0:
119,99,40236,1,4,1:3:0:0:
133,187,40375,1,8,1:3:0:0:
133,187,40514,6,0,P|193:226|255:213,1,125.999996154785,4|2,1:0|0:1,0:0:0:0:
326,259,40930,1,8,3:0:0:0:
326,259,41069,2,0,P|320:292|312:328,1,62.9999980773926
380,384,41347,1,10,1:0:0:0:
153,307,41625,6,0,P|90:298|29:285,2,125.999996154785,4|2|0,3:2|0:1|0:0,0:0:0:0:
284,199,42458,1,10,1:0:0:0:
284,199,42736,6,0,P|270:131|258:62,1,125.999996154785,4|4,1:3|1:3,0:0:0:0:
190,21,43152,1,0,3:0:0:0:
126,80,43291,2,0,P|96:69|65:72,1,62.9999980773926,4|0,1:3|3:0,0:0:0:0:
10,141,43569,1,8,1:0:0:0:
10,141,43708,1,8,1:0:0:0:
58,214,43847,2,0,P|46:275|35:352,2,125.999996154785,4|2|8,1:3|0:2|0:0,0:0:0:0:
429,50,44958,6,0,P|480:101|441:187,1,154.000004699707,6|8,1:0|1:0,0:0:0:0:
412,253,45375,1,8,3:1:0:0:
319,247,45514,2,0,P|250:232|165:212,1,154.000004699707,2|8,1:1|1:0,0:0:0:0:
87,260,45930,1,4,3:0:0:0:
20,196,46069,2,0,P|14:158|7:120,1,77.0000023498536,6|2,3:1|1:0,0:0:0:0:
49,37,46347,1,10,1:0:0:0:
49,37,46486,2,0,P|122:54|198:71,1,154.000004699707,10|8,3:1|3:0,0:0:0:0:
272,134,46902,1,10,1:0:0:0:
338,70,47041,1,4,3:0:0:0:
338,70,47180,6,0,P|370:54|486:102,1,154.000004699707,6|8,3:1|1:0,0:0:0:0:
503,176,47597,1,8,3:1:0:0:
446,249,47736,2,0,P|414:265|308:224,1,154.000004699707,2|8,1:1|1:0,0:0:0:0:
272,134,48152,1,4,3:0:0:0:
179,140,48291,2,0,B|120:148|120:148|102:163|102:163|12:172,1,154.000004699707,6|10,3:1|1:0,0:0:0:0:
23,273,48708,2,0,P|61:277|99:283,1,77.0000023498536,8|0,3:1|3:1,0:0:0:0:
173,339,48986,1,8,1:0:0:0:
324,346,49264,5,4,3:0:0:0:
324,346,49402,2,0,P|388:332|479:317,1,154.000004699707,6|8,3:1|1:0,0:0:0:0:
502,228,49819,1,10,3:1:0:0:
470,141,49958,2,0,P|400:129|311:108,1,154.000004699707,0|8,3:1|1:0,0:0:0:0:
254,45,50375,1,4,3:0:0:0:
254,45,50514,2,0,P|219:53|166:63,1,77.0000023498536,6|2,3:1|1:0,0:0:0:0:
86,49,50791,1,10,1:0:0:0:
43,131,50930,2,0,B|81:182|81:182|36:279,1,154.000004699707,10|8,3:1|3:0,0:0:0:0:
81,348,51347,1,10,1:0:0:0:
171,314,51486,1,4,3:0:0:0:
171,314,51625,6,0,B|229:325|229:325|246:340|246:340|326:356,1,154.000004699707,6|8,3:1|1:0,0:0:0:0:
407,370,52041,1,10,3:1:0:0:
473,306,52180,2,0,P|504:242|462:160,1,154.000004699707,0|4,3:1|1:2,0:0:0:0:
392,125,52597,1,0,3:1:0:0:
329,192,52736,1,6,3:1:0:0:
329,192,52875,1,0,1:0:0:0:
81,80,53291,1,6,3:1:0:0:
81,80,53430,1,0,1:0:0:0:
359,41,53847,6,0,P|344:108|324:216,1,154.000004699707,6|8,1:0|1:0,0:0:0:0:
286,275,54264,1,10,3:1:0:0:
198,247,54402,2,0,P|153:278|53:255,1,154.000004699707,2|8,3:1|1:0,0:0:0:0:
0,195,54819,1,4,3:0:0:0:
0,195,54958,2,0,P|6:160|16:117,1,77.0000023498536,6|2,3:1|1:0,0:0:0:0:
78,54,55236,1,10,3:1:0:0:
150,105,55375,1,0,1:0:0:0:
218,38,55514,2,0,P|252:36|295:52,1,77.0000023498536,2|8,3:1|3:0,0:0:0:0:
345,126,55791,1,10,1:0:0:0:
512,56,56069,6,0,P|504:91|497:142,1,77.0000023498536,6|0,3:1|0:0,0:0:0:0:
423,189,56347,2,0,P|415:224|408:274,1,77.0000023498536,10|10,1:0|3:1,0:0:0:0:
362,346,56625,1,2,3:1:0:0:
362,346,56764,1,8,3:0:0:0:
270,306,56902,2,0,P|238:291|195:293,1,77.0000023498536,10|4,1:0|3:0,0:0:0:0:
126,350,57180,2,0,P|94:364|52:358,1,77.0000023498536,6|2,3:1|1:0,0:0:0:0:
0,284,57458,2,0,P|5:249|14:200,1,77.0000023498536,10|10,3:1|3:1,0:0:0:0:
93,161,57736,1,0,3:1:0:0:
93,161,57875,1,10,1:0:0:0:
182,175,58014,1,10,1:0:0:0:
182,175,58152,1,12,3:0:0:0:
223,258,58291,6,0,P|282:221|372:260,1,154.000004699707,6|8,3:1|1:0,0:0:0:0:
436,284,58708,1,10,3:1:0:0:
480,209,58847,2,0,B|511:136|511:136|456:71,1,154.000004699707,2|8,3:1|1:0,0:0:0:0:
395,20,59264,1,4,3:0:0:0:
326,72,59402,2,0,P|291:64|247:56,1,77.0000023498536,6|2,3:1|1:0,0:0:0:0:
178,114,59680,1,10,3:1:0:0:
178,114,59819,1,10,3:1:0:0:
223,194,59958,2,0,P|257:199|304:210,1,77.0000023498536,2|8,3:1|3:0,0:0:0:0:
365,272,60236,2,0,P|372:310|349:353,1,77.0000023498536,8|4,1:0|3:0,0:0:0:0:
267,368,60514,6,0,P|232:360|187:354,1,77.0000023498536,6|0,3:1|0:0,0:0:0:0:
114,303,60791,2,0,P|79:310|32:321,1,77.0000023498536,10|10,1:0|3:1,0:0:0:0:
21,231,61069,2,0,P|58:223|96:214,1,77.0000023498536,4|8,3:2|3:0,0:0:0:0:
158,150,61347,2,0,P|195:158|233:166,1,77.0000023498536,8|4,1:0|3:0,0:0:0:0:
320,134,61625,1,4,3:1:0:0:
320,134,61764,1,4,3:1:0:0:
145,47,62736,6,0,P|79:32|29:78,1,140,6|8,1:0|1:0,0:0:0:0:
0,167,63152,1,0,0:0:0:0:
58,239,63291,2,0,B|140:246|107:291|196:301,1,140,2|8,1:0|1:0,0:0:0:0:
270,266,63708,2,0,P|272:232|286:187,1,70,2|0,1:0|0:0,0:0:0:0:
373,152,63986,2,0,P|376:123|370:80,1,70,0|0,1:0|0:0,0:0:0:0:
314,8,64264,1,0,0:0:0:0:
221,26,64402,2,0,P|186:33|142:43,1,70,0|2,1:0|1:0,0:0:0:0:
67,7,64680,1,8,1:0:0:0:
158,138,64958,6,0,P|226:118|294:106,1,140,2|8,1:0|1:0,0:0:0:0:
381,78,65375,1,0,0:0:0:0:
457,123,65514,2,0,P|484:178|451:259,1,140,2|8,1:0|1:0,0:0:0:0:
406,326,65930,2,0,P|371:319|327:309,1,70,2|0,1:0|0:0,0:0:0:0:
279,233,66208,2,0,P|210:226|157:269,1,140,2|0,1:0|0:0,0:0:0:0:
96,336,66625,1,8,1:0:0:0:
17,283,66764,1,0,0:0:0:0:
17,283,66833,1,8,1:0:0:0:
17,283,66902,2,0,P|10:248|0:204,1,70,8|8,1:0|1:0,0:0:0:0:
76,166,67180,6,0,B|48:88|48:88|84:27,1,140,6|8,1:0|1:0,0:0:0:0:
160,0,67597,1,0,0:0:0:0:
245,44,67736,2,0,B|274:93|274:93|246:171,1,140,2|8,1:0|1:0,0:0:0:0:
164,217,68152,2,0,P|171:252|181:296,1,70,2|0,1:0|0:0,0:0:0:0:
254,347,68430,2,0,B|313:339|313:339|331:324|331:324|387:317,1,140,2|0,1:0|0:0,0:0:0:0:
450,245,68847,2,0,P|451:210|440:177,1,70,2|2,1:0|1:0,0:0:0:0:
375,113,69125,1,10,1:0:0:0:
222,42,69402,6,0,P|187:49|153:54,1,70,6|0,3:1|3:0,0:0:0:0:
77,105,69680,1,12,1:0:0:0:
77,105,69819,1,0,3:0:0:0:
152,165,69958,2,0,P|189:222|173:289,1,140,6|8,3:1|1:0,0:0:0:0:
96,342,70374,1,0,3:0:0:0:
0,0,71625,6,0,P|17:67|29:142,1,140,4|10,1:3|1:0,0:0:0:0:
135,236,72180,2,0,P|170:218|284:214,1,140,8|10,3:0|3:1,0:0:0:0:
370,132,72736,2,0,P|404:125|438:118,1,70,4|0,1:3|0:0,0:0:0:0:
512,159,73014,2,0,B|504:218|504:218|489:236|489:236|482:292,2,140,10|8|10,1:0|3:0|3:1,0:0:0:0:
367,23,73847,6,0,P|332:17|298:9,1,70,4|0,1:3|0:0,0:0:0:0:
226,53,74125,2,0,P|191:45|157:38,1,70,10|0,1:0|0:0,0:0:0:0:
93,89,74402,1,8,3:0:0:0:
93,89,74541,2,0,P|82:129|96:165,1,70,8|10,3:0|3:1,0:0:0:0:
145,219,74820,1,2,1:0:0:0:
219,179,74959,2,0,P|253:187|287:194,1,70,4|0,1:3|0:0,0:0:0:0:
349,250,75236,2,0,P|341:284|334:318,1,70,10|0,1:0|0:0,0:0:0:0:
262,363,75514,2,0,P|224:365|183:343,1,70,8|8,3:0|3:0,0:0:0:0:
177,320,75722,1,0,0:0:0:0:
177,320,75792,2,0,P|139:319|98:341,1,70,10|10,3:1|3:1,0:0:0:0:
34,292,76070,6,0,P|12:230|45:156,1,140,4|10,1:3|1:0,0:0:0:0:
178,123,76625,2,0,B|260:130|227:175|316:185,1,140,8|10,3:0|3:1,0:0:0:0:
392,191,77042,1,2,1:0:0:0:
392,191,77180,2,0,P|385:225|378:259,1,70,4|0,1:3|0:0,0:0:0:0:
339,342,77458,2,0,P|305:349|271:356,1,70,10|0,1:0|0:0,0:0:0:0:
207,299,77736,2,0,P|173:306|139:313,1,70,8|0,3:0|0:0,0:0:0:0:
77,371,78014,1,10,3:1:0:0:
14,227,78291,6,0,P|21:193|28:159,1,70,4|0,1:3|0:0,0:0:0:0:
97,109,78569,2,0,P|131:116|165:123,1,70,10|0,1:0|0:0,0:0:0:0:
220,192,78847,2,0,B|279:184|279:184|297:169|297:169|353:162,1,140,8|10,3:0|3:1,0:0:0:0:
441,184,79264,1,2,1:0:0:0:
441,184,79402,2,0,P|452:144|438:108,1,70,4|2,1:3|1:0,0:0:0:0:
395,37,79680,2,0,P|361:44|327:51,1,70,10|0,1:0|0:0,0:0:0:0:
251,81,79958,2,0,P|217:74|183:67,1,70,8|0,3:0|3:0,0:0:0:0:
154,42,80166,1,8,0:1:0:0:
154,42,80235,2,0,P|120:49|86:56,1,70,10|10,3:1|3:1,0:0:0:0:
38,125,80514,6,0,B|0:176|0:176|45:266,1,140,4|10,1:3|1:0,0:0:0:0:
118,287,80930,1,2,1:0:0:0:
118,287,81069,2,0,B|200:294|167:339|256:349,1,140,8|10,3:0|3:1,0:0:0:0:
317,294,81486,1,2,1:0:0:0:
317,294,81625,2,0,P|351:287|385:280,1,70,4|2,1:3|1:0,0:0:0:0:
442,208,81902,1,10,1:0:0:0:
442,208,82041,1,2,1:0:0:0:
377,140,82180,2,0,P|343:147|309:154,1,70,8|8,3:0|3:0,0:0:0:0:
246,98,82458,1,10,3:1:0:0:
83,120,82736,6,0,P|77:155|69:189,1,70,4|0,1:3|0:0,0:0:0:0:
15,251,83014,2,0,P|21:286|29:320,1,70,10|0,1:0|0:0,0:0:0:0:
106,361,83291,2,0,P|145:346|187:358,1,70,8|8,3:0|3:0,0:0:0:0:
247,384,83569,1,10,3:1:0:0:
408,311,83847,6,0,P|416:276|423:242,1,70,4|0,1:3|0:0,0:0:0:0:
376,178,84125,1,10,1:0:0:0:
376,178,84264,1,2,1:0:0:0:
302,218,84402,2,0,P|267:209|233:202,1,70,8|4,3:0|3:0,0:0:0:0:
207,175,84611,1,8,0:1:0:0:
207,175,84680,2,0,P|172:183|138:190,1,70,10|10,3:1|3:1,0:0:0:0:
54,175,84958,6,0,P|37:242|20:310,1,140,4|10,1:3|1:0,0:0:0:0:
86,367,85375,1,2,1:0:0:0:
166,333,85514,2,0,P|222:370|288:352,1,140,8|10,3:0|3:1,0:0:0:0:
351,289,85930,1,2,1:0:0:0:
351,289,86069,1,4,1:3:0:0:
512,372,86347,6,0,L|501:297,1,70,10|0,1:0|0:0,0:0:0:0:
448,232,86625,2,0,L|466:159,1,70,8|8,3:0|3:0,0:0:0:0:
503,83,86902,1,10,3:1:0:0:
503,83,87180,6,0,P|443:43|371:68,1,140,4|10,1:3|1:0,0:0:0:0:
329,126,87597,1,2,1:0:0:0:
329,126,87736,2,0,P|269:166|197:141,1,140,8|10,3:0|3:1,0:0:0:0:
136,95,88152,1,2,3:1:0:0:
136,95,88291,6,0,L|144:25,1,70,4|2,1:2|1:0,0:0:0:0:
48,66,88569,2,0,L|40:136,1,70,10|2,1:0|1:0,0:0:0:0:
0,211,88847,2,0,L|8:281,1,70,8|8,3:0|3:0,0:0:0:0:
49,323,89055,1,8,0:1:0:0:
49,323,89125,2,0,L|119:315,1,70,8|8,3:1|3:1,0:0:0:0:
170,241,89402,6,0,B|215:232|215:232|256:253|256:253|312:245,1,125.999996154785,4|0,1:0|0:0,0:0:0:0:
371,287,89819,2,0,L|385:353,1,62.9999980773926,4|0,1:0|0:0,0:0:0:0:
488,199,90236,1,4,1:3:0:0:
488,199,90514,6,0,L|495:136,1,62.9999980773926,4|8,1:3|1:3,0:0:0:0:
463,52,90791,1,0,0:0:0:0:
463,52,90930,2,0,P|424:31|346:59,1,125.999996154785,8|2,1:3|0:1,0:0:0:0:
350,54,91347,1,4,1:3:0:0:
234,161,91625,6,0,P|173:173|119:143,1,125.999996154785,4|0,1:0|0:0,0:0:0:0:
131,54,92041,1,4,1:0:0:0:
131,54,92180,2,0,P|166:38|244:66,1,125.999996154785,0|4,0:0|1:3,0:0:0:0:
419,204,92736,6,0,L|425:266,1,62.9999980773926,4|0,1:3|0:0,0:0:0:0:
512,260,93014,2,0,L|505:196,1,62.9999980773926,0|0,1:3|0:0,0:0:0:0:
410,123,93291,6,0,L|403:185,1,62.9999980773926,4|8,1:3|1:3,0:0:0:0:
319,172,93569,2,0,L|325:109,1,62.9999980773926,4|8,1:3|1:3,0:0:0:0:
253,42,93847,6,0,P|199:11|139:25,1,125.999996154785,4|2,1:0|0:1,0:0:0:0:
126,109,94264,1,8,3:0:0:0:
126,109,94402,2,0,P|179:141|239:129,1,125.999996154785,0|10,0:0|1:0,0:0:0:0:
377,256,94958,6,0,L|370:318,1,62.9999980773926,4|8,3:2|3:0,0:0:0:0:
455,330,95236,2,0,L|464:268,2,62.9999980773926,2|8|0,0:1|3:0|0:0,0:0:0:0:
287,363,95791,1,10,1:0:0:0:
287,363,96069,6,0,L|225:356,1,62.9999980773926,4|0,1:3|3:0,0:0:0:0:
274,273,96347,2,0,L|212:266,1,62.9999980773926,4|0,1:3|3:0,0:0:0:0:
122,280,96625,6,0,L|115:342,1,62.9999980773926,4|0,1:3|3:0,0:0:0:0:
36,272,96903,2,0,L|29:334,1,62.9999980773926,8|8,1:0|1:0,0:0:0:0:
0,193,97180,2,0,B|28:224|28:224|66:227|127:203,2,125.999996154785,4|2|8,1:3|0:2|0:0,0:0:0:0:
354,31,98291,6,0,P|432:28|474:93,1,154.000004699707,6|8,1:0|1:0,0:0:0:0:
491,171,98708,1,8,3:1:0:0:
426,227,98847,2,0,B|358:198|358:198|269:252,1,154.000004699707,2|8,1:1|1:0,0:0:0:0:
213,304,99263,1,4,3:0:0:0:
144,241,99402,2,0,P|138:203|142:161,1,77.0000023498536,6|2,3:1|1:0,0:0:0:0:
193,95,99680,1,10,1:0:0:0:
193,95,99819,2,0,P|125:113|32:130,1,154.000004699707,10|8,3:1|3:0,0:0:0:0:
0,206,100235,1,10,1:0:0:0:
0,206,100374,1,4,3:0:0:0:
68,267,100513,6,0,P|100:251|216:299,1,154.000004699707,6|8,3:1|1:0,0:0:0:0:
274,350,100930,1,8,3:1:0:0:
370,329,101069,2,0,P|354:297|395:191,1,154.000004699707,2|8,1:1|1:0,0:0:0:0:
479,165,101485,1,4,3:0:0:0:
422,98,101624,2,0,B|352:105|352:105|329:125|329:125|264:132,1,154.000004699707,6|10,3:1|1:0,0:0:0:0:
192,101,102041,2,0,P|188:139|182:177,1,77.0000023498536,8|0,3:1|0:0,0:0:0:0:
140,251,102319,1,8,1:0:0:0:
300,367,102597,5,4,3:0:0:0:
300,367,102735,2,0,P|364:353|455:338,1,154.000004699707,6|8,3:1|1:0,0:0:0:0:
512,268,103152,1,10,3:1:0:0:
465,187,103291,2,0,P|395:175|306:154,1,154.000004699707,0|8,3:1|1:0,0:0:0:0:
230,168,103708,1,4,3:0:0:0:
230,168,103847,2,0,P|222:133|212:80,1,77.0000023498536,6|2,3:1|1:0,0:0:0:0:
137,46,104124,1,10,1:0:0:0:
57,76,104263,2,0,P|19:122|50:224,1,154.000004699707,10|8,3:1|3:0,0:0:0:0:
97,285,104680,1,10,1:0:0:0:
97,285,104819,1,4,3:0:0:0:
179,245,104958,6,0,B|235:254|235:254|262:275|262:275|334:287,1,154.000004699707,6|8,3:1|1:0,0:0:0:0:
390,347,105374,1,10,3:1:0:0:
471,298,105513,2,0,B|508:239|508:239|469:152,1,154.000004699707,0|4,3:1|1:2,0:0:0:0:
370,23,106069,5,6,3:1:0:0:
370,23,106208,1,0,1:0:0:0:
248,116,106624,1,6,3:1:0:0:
248,116,106763,1,0,1:0:0:0:
370,16,107180,6,0,P|355:83|335:191,1,154.000004699707,6|8,1:0|1:0,0:0:0:0:
384,243,107597,1,10,3:1:0:0:
329,314,107735,2,0,B|255:284|255:284|192:325,1,154.000004699707,2|8,3:1|1:0,0:0:0:0:
117,371,108152,1,4,3:0:0:0:
117,371,108291,2,0,P|111:336|101:293,1,77.0000023498536,6|2,3:1|1:0,0:0:0:0:
52,222,108569,1,10,3:1:0:0:
52,222,108708,1,0,1:0:0:0:
104,149,108847,2,0,P|172:161|272:174,1,154.000004699707,2|10,3:1|1:0,0:0:0:0:
469,149,109402,6,0,P|489:84|430:22,2,154.000004699707,6|10|2,3:1|1:0|3:1,3:1:0:0:
367,270,110235,2,0,P|335:255|292:257,1,77.0000023498536,10|4,1:0|3:0,0:0:0:0:
235,332,110513,2,0,P|203:346|161:340,1,77.0000023498536,6|2,3:1|1:0,0:0:0:0:
85,287,110791,2,0,P|80:252|71:203,1,77.0000023498536,10|10,3:1|3:1,0:0:0:0:
24,137,111069,1,0,3:1:0:0:
24,137,111208,1,10,1:0:0:0:
82,68,111347,1,10,1:0:0:0:
82,68,111485,1,12,3:0:0:0:
166,106,111624,6,0,B|229:147|229:147|315:108,1,154.000004699707,6|8,3:1|1:0,0:0:0:0:
370,60,112041,1,10,3:1:0:0:
439,118,112180,2,0,P|474:184|443:275,1,154.000004699707,2|8,3:1|1:0,0:0:0:0:
383,308,112597,1,4,3:0:0:0:
303,345,112735,2,0,P|268:337|224:329,1,77.0000023498536,6|0,3:1|0:0,0:0:0:0:
170,267,113013,1,10,3:1:0:0:
170,267,113152,1,10,3:1:0:0:
242,202,113291,2,0,P|276:207|323:218,1,77.0000023498536,2|8,3:1|3:0,0:0:0:0:
398,174,113569,2,0,P|412:138|405:101,1,77.0000023498536,8|4,1:0|3:0,0:0:0:0:
343,38,113847,6,0,P|308:30|263:24,1,77.0000023498536,6|0,3:1|0:0,0:0:0:0:
185,62,114124,2,0,P|150:69|103:80,1,77.0000023498536,10|10,1:0|3:1,0:0:0:0:
39,133,114402,2,0,P|47:170|56:208,1,77.0000023498536,4|8,3:2|3:0,0:0:0:0:
126,271,114680,2,0,P|118:308|110:346,1,77.0000023498536,8|4,1:0|3:0,0:0:0:0:
23,384,114958,1,4,3:1:0:0:
23,384,115097,1,4,3:1:0:0:
509,15,116069,6,0,L|440:23,1,70,4|0,1:0|0:0,0:0:0:0:
385,92,116347,2,0,L|316:100,1,70,10|8,1:0|3:1,0:0:0:0:
245,52,116625,1,0,3:1:0:0:
245,52,116764,1,2,3:1:0:0:
152,58,116902,1,8,1:0:0:0:
10,164,117180,6,0,L|18:233,1,70,6|0,3:1|0:0,0:0:0:0:
91,292,117458,1,8,1:0:0:0:
171,250,117597,2,0,L|179:181,1,70,10|0,3:1|3:1,0:0:0:0:
250,131,117875,2,0,P|312:140|353:209,1,140,10|4,3:1|3:0,0:0:0:0:
446,228,118291,6,0,L|438:159,1,70,6|0,3:1|0:0,0:0:0:0:
352,201,118569,1,10,1:0:0:0:
352,201,118708,2,0,L|344:270,1,70,4|0,3:2|3:1,0:0:0:0:
263,314,118986,1,2,3:1:0:0:
263,314,119125,2,0,L|255:245,1,70,8|2,1:0|3:1,0:0:0:0:
174,206,119402,5,6,3:1:0:0:
174,206,119541,1,10,3:1:0:0:
90,252,119680,2,0,L|82:183,1,70,8|8,1:0|3:1,0:0:0:0:
139,116,119958,2,0,P|178:108|211:127,1,70,2|0,3:1|0:0,0:0:0:0:
241,145,120166,1,8,1:0:0:0:
241,145,120236,2,0,L|251:61,1,70,10|12,1:0|3:0,0:0:0:0:
304,8,120514,6,0,L|373:0,1,70,4|0,3:1|0:0,0:0:0:0:
442,65,120791,2,0,L|511:57,1,70,10|8,1:0|3:1,0:0:0:0:
379,144,121069,1,0,3:1:0:0:
379,144,121208,1,2,3:1:0:0:
379,144,121347,2,0,L|387:213,1,70,8|4,1:0|3:0,0:0:0:0:
320,273,121625,6,0,L|328:342,1,70,6|2,3:1|1:0,0:0:0:0:
247,384,121902,1,8,1:0:0:0:
247,384,122041,1,10,3:1:0:0:
182,232,122319,5,10,3:0:0:0:
182,232,122458,2,0,L|113:224,1,70,8|4,1:0|3:0,0:0:0:0:
27,277,122736,6,0,L|19:208,2,70,6|0|10,3:1|0:0|1:0,0:0:0:0:
92,358,123152,1,8,3:1:0:0:
92,358,123291,2,0,L|161:366,1,70,2|10,3:1|3:1,0:0:0:0:
225,300,123569,1,4,1:2:0:0:
300,367,123708,2,0,L|369:359,1,70,4|4,3:0|3:1,0:0:0:0:
432,302,123986,6,0,P|430:268|441:235,1,70,2|12,0:1|3:1,0:0:0:0:
504,175,124264,2,0,P|514:143|512:106,1,70,0|4,0:0|3:1,0:0:0:0:
446,44,124541,1,0,0:0:0:0:
446,44,124611,1,0,0:0:0:0:
446,44,124680,2,0,L|376:52,1,70,8|8,3:1|3:1,0:0:0:0:
287,36,124958,6,0,P|292:110|303:175,1,140,6|8,3:1|1:0,0:0:0:0:
160,147,125514,2,0,P|154:216|143:285,1,140,2|8,1:0|1:0,0:0:0:0:
69,378,126069,6,0,L|0:370,2,70,0|2|8,3:0|3:1|1:0,0:0:0:0:
221,342,126625,2,0,P|276:303|340:324,1,140,2|8,1:0|1:0,0:0:0:0:
512,384,127180,6,0,P|503:320|495:244,1,140,2|8,3:1|1:0,0:0:0:0:
417,199,127597,1,4,3:1:0:0:
327,221,127736,2,0,P|334:169|343:81,1,140,2|8,1:0|1:0,0:0:0:0:
274,26,128152,5,10,3:1:0:0:
198,74,128291,2,0,P|192:111|190:143,2,70,4|2|10,3:0|3:1|1:0,0:0:0:0:
118,37,128708,1,4,3:1:0:0:
118,37,128847,2,0,P|88:23|49:23,1,70,2|0,1:0|3:0,0:0:0:0:
19,55,129055,1,8,0:1:0:0:
19,55,129125,2,0,P|5:86|5:121,1,70,8|10,1:0|3:1,0:0:0:0:
1,212,129402,6,0,L|9:281,1,70,6|10,1:0|1:0,0:0:0:0:
85,211,129680,2,0,L|93:280,1,70,2|10,1:0|1:0,0:0:0:0:
170,338,129958,6,0,L|178:269,1,70,2|10,1:0|1:0,0:0:0:0:
254,348,130236,2,0,L|262:279,1,70,10|2,1:0|1:0,0:0:0:0:
339,241,130514,5,6,1:0:0:0:
339,241,130652,1,10,1:0:0:0:
426,252,130791,1,6,1:0:0:0:
426,252,130930,1,10,1:0:0:0:
504,208,131069,6,0,L|513:132,3,70,6|10|14|2,1:0|1:0|1:0|1:0,0:0:0:0:
441,84,131625,5,4,3:2:0:0:
0,52,139125,5,6,0:0:0:0:
0,52,139264,2,0,P|53:18|116:36,1,125.999996154785
180,98,139680,5,0,0:0:0:0:
180,98,139819,2,0,P|251:91|313:65,1,125.999996154785
301,71,140236,1,2,0:0:0:0:
488,10,140514,6,0,P|473:77|453:185,1,154.000004699707,6|8,1:0|1:0,0:0:0:0:
488,243,140931,1,10,3:1:0:0:
418,303,141069,2,0,B|365:294|365:294|326:312|326:312|261:301,1,154.000004699707,2|8,3:1|1:0,0:0:0:0:
185,343,141486,1,4,3:0:0:0:
185,343,141625,2,0,L|107:359,1,77.0000023498536,6|2,3:1|1:0,0:0:0:0:
38,304,141903,1,10,3:1:0:0:
38,304,142042,1,10,3:1:0:0:
101,236,142181,2,0,P|110:176|119:63,1,154.000004699707,2|10,3:1|1:0,0:0:0:0:
289,54,142736,6,0,B|362:77|362:77|444:32,2,154.000004699707,6|10|2,3:1|1:0|3:1,3:1:0:0:
218,0,143430,1,8,3:0:0:0:
131,10,143569,2,0,P|115:47|118:86,1,77.0000023498536,10|4,1:0|3:0,0:0:0:0:
181,150,143847,2,0,P|191:187|166:239,1,77.0000023498536,6|2,3:1|1:0,0:0:0:0:
97,269,144125,2,0,P|102:304|111:353,1,77.0000023498536,10|10,3:1|3:1,0:0:0:0:
197,375,144403,1,0,3:1:0:0:
197,375,144542,1,10,1:0:0:0:
274,327,144681,1,10,1:0:0:0:
274,327,144819,1,12,3:0:0:0:
349,368,144958,6,0,B|412:327|412:327|498:366,1,154.000004699707,6|8,3:1|1:0,0:0:0:0:
512,268,145375,1,10,3:1:0:0:
457,198,145514,2,0,P|383:180|316:215,1,154.000004699707,2|8,3:1|1:0,0:0:0:0:
230,242,145931,1,4,3:0:0:0:
151,196,146069,2,0,P|143:161|135:117,1,77.0000023498536,6|2,3:1|1:0,0:0:0:0:
80,48,146347,1,10,3:1:0:0:
80,48,146486,1,10,3:1:0:0:
153,0,146625,2,0,P|187:5|234:16,1,77.0000023498536,2|8,3:1|3:0,0:0:0:0:
293,78,146903,2,0,P|330:75|389:62,1,77.0000023498536,8|4,1:0|3:0,0:0:0:0:
463,37,147181,6,0,P|455:72|449:117,1,77.0000023498536,6|0,3:1|0:0,0:0:0:0:
378,169,147458,2,0,P|385:204|396:251,1,77.0000023498536,10|8,1:0|3:1,0:0:0:0:
340,319,147736,2,0,P|301:319|265:336,1,77.0000023498536,4|8,3:2|3:0,0:0:0:0:
183,367,148014,2,0,P|145:367|108:351,1,77.0000023498536,4|4,1:2|3:0,0:0:0:0:
37,303,148292,1,4,3:1:0:0:
37,303,148431,1,4,3:1:0:0:
121,40,149402,6,0,P|59:27|1:80,2,140,6|8|0,1:0|1:0|3:1,0:0:0:0:
197,102,150097,1,8,3:0:0:0:
197,102,150236,1,8,1:0:0:0:
281,78,150375,2,0,P|338:98|438:116,1,140,2|0,3:1|0:0,0:0:0:0:
481,180,150791,2,0,P|469:216|457:275,1,70,8|10,3:1|3:1,0:0:0:0:
399,317,151069,2,0,P|335:325|239:347,1,140,2|8,3:1|1:0,0:0:0:0:
181,384,151486,5,4,3:0:0:0:
104,325,151625,2,0,B|62:269|62:269|98:190,2,140,6|8|0,3:1|1:0|3:1,0:0:0:0:
185,278,152319,1,8,3:0:0:0:
185,278,152458,1,8,1:0:0:0:
261,340,152597,6,0,P|290:295|276:202,1,140,2|0,3:1|0:0,0:0:0:0:
227,140,153014,1,8,3:1:0:0:
227,140,153152,1,8,3:1:0:0:
286,62,153291,2,0,P|337:39|432:80,1,140,2|10,3:1|1:0,0:0:0:0:
488,146,153708,1,12,3:0:0:0:
488,146,153777,1,0,0:0:0:0:
488,146,153847,6,0,P|470:225|460:302,1,140,6|8,3:1|1:0,0:0:0:0:
390,348,154264,1,10,3:1:0:0:
313,293,154402,2,0,P|302:223|286:155,1,140,0|8,3:1|1:0,0:0:0:0:
208,115,154819,1,2,3:1:0:0:
136,176,154958,2,0,P|103:183|61:192,1,70,6|0,3:1|0:0,0:0:0:0:
1,130,155236,1,8,3:1:0:0:
1,130,155375,2,0,P|42:160|41:247,1,140,10|8,3:1|3:0,0:0:0:0:
3,326,155791,1,10,1:0:0:0:
3,326,155930,1,4,3:0:0:0:
79,376,156069,6,0,P|150:367|170:292,1,140,6|8,3:1|1:0,0:0:0:0:
233,237,156486,2,0,P|304:246|324:321,1,140,10|8,3:1|3:0,0:0:0:0:
406,384,156902,2,0,P|412:319|435:223,2,140,6|4|8,1:1|1:0|1:0,0:0:0:0:
480,170,157736,6,0,L|516:180,2,35,0|0|8,3:1|0:0|3:0,0:0:0:0:
409,117,158014,2,0,P|370:127|323:136,1,70,8|4,1:0|3:0,0:0:0:0:
276,63,158291,2,0,P|238:29|150:38,1,140,6|8,3:1|1:0,0:0:0:0:
69,70,158708,2,0,P|58:119|110:191,1,140,10|8,3:1|3:0,0:0:0:0:
173,247,159125,2,0,P|208:239|253:234,1,70,10|4,1:0|3:0,0:0:0:0:
331,215,159402,5,6,3:1:0:0:
331,215,159541,1,0,0:0:0:0:
412,264,159680,1,8,1:0:0:0:
412,264,159819,1,8,3:1:0:0:
506,231,159958,2,0,L|491:318,2,70,2|8|8,3:1|3:0|1:0,0:0:0:0:
445,25,160514,6,0,P|384:49|298:54,2,140,6|8|0,3:1|1:0|3:1,0:0:0:0:
512,86,161208,1,8,1:0:0:0:
452,149,161347,1,8,1:0:0:0:
452,149,161486,1,12,3:0:0:0:
506,231,161625,6,0,L|491:318,1,70,6|0,3:1|0:0,0:0:0:0:
417,236,161902,2,0,L|402:323,1,70,10|8,1:0|3:1,0:0:0:0:
324,357,162180,6,0,L|312:288,1,70,2|8,3:1|3:0,0:0:0:0:
278,264,162389,1,0,0:0:0:0:
278,264,162458,2,0,L|289:195,1,70,10|4,1:0|3:0,0:0:0:0:
228,125,162736,6,0,B|160:149|160:149|95:101,2,140,6|8|0,3:1|1:0|3:1,0:0:0:0:
296,66,163430,1,8,3:0:0:0:
238,2,163569,1,8,1:0:0:0:
238,2,163708,5,4,3:1:0:0:
0,309,164958,6,0,P|60:334|146:352,1,140,6|8,1:0|1:0,0:0:0:0:
214,315,165375,1,0,0:0:0:0:
282,383,165514,2,0,P|311:321|285:259,1,140,2|8,1:0|1:0,0:0:0:0:
215,206,165931,2,0,P|180:198|146:193,1,70,2|0,1:0|0:0,0:0:0:0:
60,209,166208,2,0,B|22:147|22:147|58:78,1,140,2|0,1:0|0:0,0:0:0:0:
131,36,166625,2,0,P|166:44|200:49,1,70,0|2,1:0|1:0,0:0:0:0:
285,24,166903,1,8,1:0:0:0:
511,147,167181,6,0,P|495:215|485:284,1,140,2|8,1:0|1:0,0:0:0:0:
424,346,167597,1,0,0:0:0:0:
335,330,167736,2,0,P|261:334|180:365,1,140,2|8,1:0|1:0,0:0:0:0:
132,298,168153,2,0,P|140:263|145:229,1,70,2|0,1:0|0:0,0:0:0:0:
217,176,168431,2,0,B|282:212|282:212|363:184,1,140,2|0,1:0|0:0,0:0:0:0:
413,131,168847,1,8,1:0:0:0:
358,59,168986,1,0,0:0:0:0:
358,59,169056,1,8,1:0:0:0:
358,59,169125,2,0,P|323:67|289:72,1,70,8|8,1:0|1:0,0:0:0:0:
201,33,169403,6,0,B|118:12|149:73|51:65,1,140,6|8,1:0|1:0,0:0:0:0:
10,134,169820,1,0,0:0:0:0:
82,197,169958,2,0,P|91:265|55:323,1,140,2|8,1:0|1:0,0:0:0:0:
128,380,170375,2,0,P|162:374|199:365,1,70,2|0,1:0|0:0,0:0:0:0:
261,300,170653,2,0,B|342:293|318:343|407:338,1,140,2|0,1:0|0:0,0:0:0:0:
472,291,171070,2,0,P|477:256|484:222,1,70,0|2,1:0|1:0,0:0:0:0:
430,145,171347,1,8,1:0:0:0:
237,181,171625,6,0,P|229:115|262:28,1,140,2|8,1:0|1:0,0:0:0:0:
334,2,172041,1,0,0:0:0:0:
418,33,172180,2,0,B|466:95|466:95|419:160,1,140,2|8,1:0|1:0,0:0:0:0:
371,217,172597,2,0,L|384:304,1,70,2|0,1:0|0:0,0:0:0:0:
313,348,172875,2,0,B|257:344|257:344|229:358|229:358|165:353,1,140,2|0,1:0|0:0,0:0:0:0:
111,292,173291,1,4,1:2:0:0:
17,318,173430,1,0,3:0:0:0:
17,318,173500,1,8,1:0:0:0:
17,318,173569,2,0,L|36:224,1,70,8|8,1:0|1:0,0:0:0:0:
0,168,173847,6,0,P|62:149|127:189,1,140,6|8,1:0|1:0,0:0:0:0:
198,234,174264,1,0,0:0:0:0:
266,177,174402,2,0,P|276:132|289:20,1,140,2|8,1:0|1:0,0:0:0:0:
363,0,174819,2,0,P|420:10|454:9,1,70,2|0,1:0|0:0,0:0:0:0:
491,72,175097,2,0,P|517:137|465:198,1,140,2|0,1:0|0:0,0:0:0:0:
402,226,175514,2,0,P|394:265|387:322,1,70,0|2,1:0|1:0,0:0:0:0:
446,362,175791,1,8,1:0:0:0:
304,273,176069,6,0,B|239:301|239:301|178:268,1,140,2|8,1:0|1:0,0:0:0:0:
116,204,176486,1,0,0:0:0:0:
35,234,176625,2,0,P|10:169|30:103,1,140,2|8,1:0|1:0,0:0:0:0:
98,48,177041,2,0,P|130:61|189:69,1,70,2|0,1:0|0:0,0:0:0:0:
257,38,177319,2,0,P|243:112|236:192,1,140,2|0,1:0|0:0,0:0:0:0:
307,235,177736,1,8,1:0:0:0:
398,204,177875,1,0,0:0:0:0:
398,204,177944,1,8,1:0:0:0:
398,204,178014,2,0,L|414:123,1,70,8|8,1:0|1:0,0:0:0:0:
377,43,178291,6,0,B|312:75|312:75|241:27,1,140,6|8,1:0|1:0,0:0:0:0:
173,73,178708,1,0,0:0:0:0:
90,31,178847,2,0,P|67:102|56:181,1,140,2|8,1:0|1:0,0:0:0:0:
112,238,179264,2,0,P|152:238|203:228,1,70,2|0,1:0|0:0,0:0:0:0:
251,177,179541,2,0,P|315:184|366:254,1,140,2|0,1:0|0:0,0:0:0:0:
330,319,179958,2,0,P|281:338|242:350,1,70,0|2,1:0|1:0,0:0:0:0:
179,347,180236,1,8,1:0:0:0:
14,278,180514,6,0,L|26:196,1,70,6|0,3:1|3:0,0:0:0:0:
98,289,180791,2,0,L|110:207,1,70,12|0,1:0|3:0,0:0:0:0:
197,214,181069,6,0,L|186:144,1,70,6|0,3:1|3:0,0:0:0:0:
251,84,181347,1,8,1:0:0:0:
251,84,181486,1,4,3:2:0:0:
256,192,181625,12,2,183569,0:1:0:0:
427,181,183847,5,4,1:2:0:0:
394,263,184125,1,4,1:2:0:0:
