osu file format v14

[General]
AudioFilename: audio.mp3
AudioLeadIn: 0
PreviewTime: 43381
Countdown: 0
SampleSet: Normal
StackLeniency: 0.7
Mode: 0
LetterboxInBreaks: 0
WidescreenStoryboard: 0

[Editor]
DistanceSpacing: 1.6
BeatDivisor: 4
GridSize: 8
TimelineZoom: 1

[Metadata]
Title:Yuru Fuwa Jukai Girl
TitleUnicode:Yuru Fuwa Jukai Girl
Artist:Lon
ArtistUnicode:Lon
Creator:-GriM-
Version:Extreme
Source:
Tags:
BeatmapID:1734380
BeatmapSetID:827730

[Difficulty]
HPDrainRate:6
CircleSize:3.8
OverallDifficulty:9.3
ApproachRate:9.5
SliderMultiplier:1.7
SliderTickRate:1

[Events]
//Background and Video events
0,0,"untitled_by_ebichii-d92mrie.jpg",0,0
//Break Periods
//Storyboard Layer 0 (Background)
//Storyboard Layer 1 (Fail)
//Storyboard Layer 2 (Pass)
//Storyboard Layer 3 (Foreground)
//Storyboard Sound Samples

[TimingPoints]
1159,277.777777777778,4,1,0,100,1,0
10047,-80,4,1,0,40,0,0
18936,-133.333333333333,4,1,0,40,0,0
27825,-90.9090909090909,4,1,0,40,0,0
45603,-90.9090909090909,4,1,0,40,0,1
63381,-90.9090909090909,4,1,0,40,0,0

[HitObjects]
202,52,10047,6,0,P|156:82|197:246,1,212.5
264,380,10464,1,0,0:0:0:0:
393,238,10603,2,0,P|407:164|393:115,1,106.25
202,52,10881,2,0,L|308:47,1,106.25
441,155,11159,5,0,0:0:0:0:
366,306,11297,1,0,0:0:0:0:
214,227,11436,2,0,B|199:273|199:273|217:299|217:299|199:332|210:387,1,159.375
128,345,11714,1,0,0:0:0:0:
354,284,11853,1,0,0:0:0:0:
183,229,11992,1,0,0:0:0:0:
295,196,12131,1,0,0:0:0:0:
139,126,12270,6,0,P|90:186|116:328,1,212.5
224,193,12686,1,0,0:0:0:0:
142,43,12825,2,0,P|73:44|28:64,1,106.25
242,111,13103,2,0,P|311:112|356:132,1,106.25
422,278,13381,6,0,L|409:385,1,106.25
249,321,13659,1,0,0:0:0:0:
447,282,13797,1,0,0:0:0:0:
284,232,13936,1,0,0:0:0:0:
445,178,14075,1,0,0:0:0:0:
445,178,14145,1,0,0:0:0:0:
445,178,14214,1,0,0:0:0:0:
331,379,14353,1,0,0:0:0:0:
160,245,14492,6,0,B|143:103|143:103|175:36,1,212.5
316,134,14909,1,0,0:0:0:0:
135,252,15047,2,0,L|22:258,1,106.25
172,350,15325,1,0,0:0:0:0:
262,206,15464,1,0,0:0:0:0:
144,65,15603,6,0,P|100:53|39:73,1,106.25
262,206,15881,2,0,B|362:240|362:240|427:215,1,159.375
495,192,16159,1,0,0:0:0:0:
372,341,16297,1,0,0:0:0:0:
333,88,16436,1,0,0:0:0:0:
190,263,16575,1,0,0:0:0:0:
368,206,16714,5,0,0:0:0:0:
368,206,16853,1,0,0:0:0:0:
218,71,16992,2,0,L|228:191,1,106.25
241,347,17270,5,0,0:0:0:0:
241,347,17409,1,0,0:0:0:0:
91,212,17547,2,0,L|101:332,1,106.25
74,342,18936,2,0,P|52:291|85:233,1,127.500004863739
166,200,19353,1,0,0:0:0:0:
210,133,19492,1,0,0:0:0:0:
176,64,19631,1,0,0:0:0:0:
101,47,19770,2,0,L|23:53,1,63.7500024318696
176,64,20047,5,0,0:0:0:0:
248,39,20186,1,0,0:0:0:0:
318,69,20325,2,0,P|340:106|338:134,1,63.7500024318696
286,181,20603,2,0,L|295:249,1,63.7500024318696
378,227,20881,2,0,L|375:301,1,63.7500024318696
333,355,21159,6,0,P|281:370|203:355,1,127.500004863739
154,304,21575,1,0,0:0:0:0:
219,264,21714,1,0,0:0:0:0:
159,215,21853,1,0,0:0:0:0:
159,215,21992,1,0,0:0:0:0:
225,176,22131,1,0,0:0:0:0:
225,176,22270,2,0,L|232:102,1,63.7500024318696
159,85,22547,2,0,L|153:16,1,63.7500024318696
230,30,22825,1,0,0:0:0:0:
306,29,22964,1,0,0:0:0:0:
366,76,23103,2,0,P|371:131|361:161,1,63.7500024318696
317,196,23381,6,0,L|326:329,1,127.500004863739
285,384,23797,1,0,0:0:0:0:
213,356,23936,2,0,L|84:357,1,127.500004863739
38,296,24353,1,0,0:0:0:0:
101,252,24492,5,0,0:0:0:0:
74,180,24631,1,0,0:0:0:0:
150,174,24770,1,0,0:0:0:0:
154,97,24909,1,0,0:0:0:0:
221,130,25047,2,0,B|308:120|308:120|296:167,1,127.500004863739
264,228,25464,1,0,0:0:0:0:
238,300,25603,6,0,P|235:339|241:368,1,63.7500024318696
316,372,25881,2,0,L|385:372,1,63.7500024318696
462,297,26159,2,0,L|398:297,1,63.7500024318696
351,236,26436,1,0,0:0:0:0:
351,236,26575,1,0,0:0:0:0:
403,179,26714,5,0,0:0:0:0:
291,165,26853,1,0,0:0:0:0:
439,105,26992,1,0,0:0:0:0:
242,110,27131,1,0,0:0:0:0:
353,310,27270,1,0,0:0:0:0:
353,310,27547,1,0,0:0:0:0:
70,359,27825,6,0,B|44:266|44:266|73:155,1,187.000005706787
205,119,28242,1,0,0:0:0:0:
285,245,28381,2,0,L|280:354,1,93.5000028533936
455,286,28659,2,0,L|450:177,1,93.5000028533936
343,57,28936,5,0,0:0:0:0:
299,200,29075,1,0,0:0:0:0:
246,15,29214,1,0,0:0:0:0:
401,129,29353,1,0,0:0:0:0:
218,213,29492,2,0,L|112:209,1,93.5000028533936
252,341,29770,2,0,L|363:336,1,93.5000028533936
138,306,30047,6,0,B|75:308|50:338|50:338|50:338|60:291|47:240,1,187.000005706787
81,100,30464,1,0,0:0:0:0:
221,152,30603,2,0,P|236:207|228:252,1,93.5000028533936
158,374,30881,1,0,0:0:0:0:
124,228,31020,1,0,0:0:0:0:
296,329,31159,5,0,0:0:0:0:
334,138,31297,1,0,0:0:0:0:
391,379,31436,5,0,0:0:0:0:
264,227,31575,1,0,0:0:0:0:
475,260,31714,5,0,0:0:0:0:
266,339,31853,1,0,0:0:0:0:
266,339,31922,1,0,0:0:0:0:
266,339,31992,1,0,0:0:0:0:
358,114,32131,1,0,0:0:0:0:
132,29,32270,6,0,B|108:83|108:83|132:213,1,187.000005706787
223,91,32686,1,0,0:0:0:0:
328,197,32825,2,0,P|289:223|243:226,1,93.5000028533936
480,153,33103,2,0,L|470:280,1,93.5000028533936
375,293,33381,5,0,0:0:0:0:
335,116,33520,1,0,0:0:0:0:
219,271,33659,1,0,0:0:0:0:
338,89,33797,1,0,0:0:0:0:
412,291,33936,2,0,L|418:384,1,93.5000028533936
453,180,34214,2,0,B|460:122|460:122|451:69,1,93.5000028533936
248,39,34492,6,0,P|184:52|145:83,1,93.5000028533936
84,207,34770,2,0,P|79:274|85:336,1,93.5000028533936
335,116,35047,6,0,P|307:175|310:225,1,93.5000028533936
370,349,35325,2,0,P|441:369|471:369,1,93.5000028533936
309,282,35603,5,0,0:0:0:0:
173,364,35742,1,0,0:0:0:0:
124,171,35881,1,0,0:0:0:0:
324,293,36020,1,0,0:0:0:0:
85,362,36159,1,0,0:0:0:0:
207,133,36297,1,0,0:0:0:0:
207,133,36367,1,0,0:0:0:0:
207,133,36436,1,0,0:0:0:0:
351,313,36575,1,0,0:0:0:0:
60,257,36714,5,0,0:0:0:0:
32,29,37131,1,0,0:0:0:0:
281,67,37547,1,0,0:0:0:0:
281,67,37825,5,0,0:0:0:0:
281,67,37964,1,0,0:0:0:0:
174,338,38242,1,0,0:0:0:0:
60,142,38520,1,0,0:0:0:0:
21,296,38659,1,0,0:0:0:0:
225,207,38936,5,0,0:0:0:0:
411,357,39353,1,0,0:0:0:0:
339,57,39770,1,0,0:0:0:0:
226,237,40047,6,0,L|236:348,1,93.5000028533936
151,103,40325,2,0,L|124:222,1,93.5000028533936
304,317,40603,1,0,0:0:0:0:
393,103,40742,1,0,0:0:0:0:
223,184,40881,1,0,0:0:0:0:
449,242,41020,1,0,0:0:0:0:
281,335,41159,6,0,P|206:340|168:330,1,93.5000028533936
44,232,41575,1,0,0:0:0:0:
44,232,41714,2,0,P|33:162|39:120,1,93.5000028533936
138,17,41992,2,0,B|150:67|150:67|142:147,1,93.5000028533936
132,268,42270,6,0,L|243:273,1,93.5000028533936
343,145,42686,1,0,0:0:0:0:
343,145,42825,2,0,L|347:243,1,93.5000028533936
236,31,43103,2,0,L|225:153,1,93.5000028533936
72,17,43381,5,0,0:0:0:0:
24,118,43659,1,0,0:0:0:0:
63,222,43936,1,0,0:0:0:0:
167,263,44214,1,0,0:0:0:0:
268,214,44492,5,0,0:0:0:0:
268,214,45047,1,0,0:0:0:0:
93,23,45603,6,0,B|68:74|68:74|80:215,1,187.000005706787
226,105,46020,1,0,0:0:0:0:
182,316,46159,1,0,0:0:0:0:
349,178,46297,1,0,0:0:0:0:
404,373,46436,2,0,P|424:314|420:277,1,93.5000028533936
236,195,46714,6,0,P|221:137|234:84,1,93.5000028533936
374,9,46992,1,0,0:0:0:0:
373,219,47131,1,0,0:0:0:0:
251,26,47270,1,0,0:0:0:0:
477,122,47409,1,0,0:0:0:0:
477,122,47478,1,0,0:0:0:0:
477,122,47547,2,0,L|384:123,1,93.5000028533936
213,201,47825,6,0,B|148:185|148:185|148:185|23:199,1,187.000005706787
105,44,48242,1,0,0:0:0:0:
278,116,48381,1,0,0:0:0:0:
83,38,48520,1,0,0:0:0:0:
32,291,48659,2,0,L|28:198,1,93.5000028533936
201,365,48936,5,0,0:0:0:0:
336,206,49075,1,0,0:0:0:0:
362,381,49214,1,0,0:0:0:0:
196,255,49353,1,0,0:0:0:0:
444,191,49492,2,0,P|451:125|442:100,1,93.5000028533936
194,164,49770,2,0,P|187:230|196:255,1,93.5000028533936
376,358,50047,6,0,B|393:256|393:256|358:285|305:304,1,187.000005706787
133,353,50464,1,0,0:0:0:0:
79,143,50603,1,0,0:0:0:0:
284,194,50742,1,0,0:0:0:0:
60,131,50881,1,0,0:0:0:0:
290,41,51020,1,0,0:0:0:0:
290,41,51089,1,0,0:0:0:0:
290,41,51159,5,0,0:0:0:0:
156,231,51297,1,0,0:0:0:0:
400,140,51436,1,0,0:0:0:0:
148,68,51575,1,0,0:0:0:0:
339,279,51714,2,0,L|347:377,1,93.5000028533936
494,180,51992,2,0,L|502:82,1,93.5000028533936
254,19,52270,5,0,0:0:0:0:
231,239,52409,1,0,0:0:0:0:
117,78,52547,5,0,0:0:0:0:
341,137,52686,1,0,0:0:0:0:
136,320,52825,5,0,0:0:0:0:
11,126,52964,1,0,0:0:0:0:
261,236,53103,5,0,0:0:0:0:
4,369,53242,1,0,0:0:0:0:
140,56,53381,5,0,0:0:0:0:
239,358,53520,1,0,0:0:0:0:
446,135,53936,5,0,0:0:0:0:
128,209,54075,1,0,0:0:0:0:
398,265,54492,6,0,L|408:369,1,93.5000028533936
281,121,54770,2,0,L|271:225,1,93.5000028533936
483,60,55047,2,0,L|373:49,1,93.5000028533936
187,130,55325,2,0,L|297:119,1,93.5000028533936
476,194,55603,5,0,0:0:0:0:
265,206,55742,1,0,0:0:0:0:
462,312,55881,5,0,0:0:0:0:
369,115,56020,1,0,0:0:0:0:
328,344,56159,2,0,P|341:299|337:253,1,93.5000028533936
183,102,56436,2,0,P|237:92|285:107,1,93.5000028533936
211,353,56714,6,0,B|225:296|225:296|211:262|211:262|233:210|230:142,1,187.000005706787
118,34,57131,1,0,0:0:0:0:
21,181,57270,1,0,0:0:0:0:
219,96,57409,1,0,0:0:0:0:
15,36,57547,1,0,0:0:0:0:
111,255,57686,1,0,0:0:0:0:
239,65,57825,6,0,B|295:65|295:65|338:86,1,93.5000028533936
425,211,58103,2,0,L|414:314,1,93.5000028533936
240,377,58381,1,0,0:0:0:0:
328,184,58520,1,0,0:0:0:0:
151,281,58659,1,0,0:0:0:0:
123,71,58797,1,0,0:0:0:0:
26,327,58936,6,0,B|17:258|17:258|33:139,1,187.000005706787
185,19,59353,1,0,0:0:0:0:
303,146,59492,2,0,P|323:197|295:259,1,93.5000028533936
139,343,59770,2,0,P|119:292|147:230,1,93.5000028533936
324,127,60047,5,0,0:0:0:0:
123,155,60186,1,0,0:0:0:0:
388,204,60325,5,0,0:0:0:0:
226,18,60464,1,0,0:0:0:0:
133,249,60603,2,0,L|139:358,1,93.5000028533936
404,116,60881,2,0,B|352:112|352:112|297:125,1,93.5000028533936
133,249,61159,6,0,L|123:147,1,93.5000028533936
335,373,61436,2,0,L|348:274,1,93.5000028533936
396,79,61714,5,0,0:0:0:0:
195,280,61853,1,0,0:0:0:0:
117,16,61992,1,0,0:0:0:0:
414,80,62131,1,0,0:0:0:0:
148,368,62270,5,0,0:0:0:0:
117,16,62409,1,0,0:0:0:0:
460,273,63381,6,0,P|496:189|438:77,1,187.000005706787
342,186,63797,1,0,0:0:0:0:
308,332,63936,2,0,P|238:338|206:333,1,93.5000028533936
154,116,64214,2,0,P|224:110|256:115,1,93.5000028533936
111,254,64492,5,0,0:0:0:0:
71,47,64631,1,0,0:0:0:0:
4,194,64770,2,0,L|11:303,1,93.5000028533936
189,290,65047,2,0,L|182:399,1,93.5000028533936
314,242,65325,1,0,0:0:0:0:
217,95,65464,1,0,0:0:0:0:
391,16,65603,6,0,P|413:93|402:122,1,93.5000028533936
236,182,65881,2,0,P|214:104|225:75,1,93.5000028533936
397,207,66159,2,0,L|392:321,1,93.5000028533936
266,380,66436,1,0,0:0:0:0:
236,182,66575,1,0,0:0:0:0:
123,271,66714,6,0,P|119:317|131:362,1,93.5000028533936
320,67,66992,2,0,L|319:165,1,93.5000028533936
320,238,67200,1,0,0:0:0:0:
320,238,67270,1,0,0:0:0:0:
173,141,67409,1,0,0:0:0:0:
173,141,67478,1,0,0:0:0:0:
173,141,67547,1,0,0:0:0:0:
447,194,67686,1,0,0:0:0:0:
202,291,67825,6,0,B|271:358|271:358|321:324|380:333,1,187.000005706787
500,375,68242,1,0,0:0:0:0:
463,121,68381,1,0,0:0:0:0:
257,210,68520,1,0,0:0:0:0:
257,210,68589,1,0,0:0:0:0:
257,210,68659,2,0,P|267:145|258:94,1,93.5000028533936
63,118,68936,6,0,P|54:178|80:265,1,140.25000428009
110,319,69214,1,0,0:0:0:0:
339,238,69353,1,0,0:0:0:0:
174,166,69492,5,0,0:0:0:0:
286,379,69631,1,0,0:0:0:0:
466,234,69770,2,0,L|461:126,1,93.5000028533936
330,17,70047,5,0,0:0:0:0:
174,166,70186,1,0,0:0:0:0:
378,268,70325,1,0,0:0:0:0:
248,83,70464,5,0,0:0:0:0:
294,314,70603,1,0,0:0:0:0:
246,68,70742,5,0,0:0:0:0:
186,344,70881,1,0,0:0:0:0:
246,50,71020,5,0,0:0:0:0:
