osu file format v14

[General]
AudioFilename: audio.mp3
AudioLeadIn: 0
PreviewTime: 22595
Countdown: 0
SampleSet: Soft
StackLeniency: 0.7
Mode: 2
LetterboxInBreaks: 0
WidescreenStoryboard: 0

[Editor]
DistanceSpacing: 1
BeatDivisor: 4
GridSize: 8
TimelineZoom: 1

[Metadata]
Title:Ochame Kinou
TitleUnicode:おちゃめ機能
Artist:Lon
ArtistUnicode:ろん
Creator:Weber
Version:Cup
Source:
Tags:vocaloid, ゴジマジP, GojimajiP , 重音テト, Kasane Teto, Utaite
BeatmapID:1155266
BeatmapSetID:545262

[Difficulty]
HPDrainRate:3
CircleSize:3
OverallDifficulty:6
ApproachRate:6
SliderMultiplier:1.3
SliderTickRate:1

[Events]
//Background and Video events
0,0,"a61faf7c3e956504159eaea5e7ebe41753530b8a_s2_n1 (1).png",0,0
//Break Periods
//Storyboard Layer 0 (Background)
//Storyboard Layer 1 (Fail)
//Storyboard Layer 2 (Pass)
//Storyboard Layer 3 (Foreground)
//Storyboard Sound Samples

[TimingPoints]
195.127551356186,400,4,2,0,100,1,0
6595,-100,4,2,0,100,0,1
19395,-100,4,2,0,100,0,0
60995,-100,4,2,0,100,0,1
73795,-100,4,2,0,100,0,0

[HitObjects]
80,192,195,6,0,P|160:176|320:64,1,260
496,264,1795,6,0,P|416:248|264:152,1,260
64,312,3395,6,0,L|280:144,1,260
96,344,4995,2,0,L|-8:312,2,97.5
400,232,6595,2,0,P|272:160|168:80,1,260
0,256,8195,2,0,P|120:184|232:104,1,260
96,344,9795,6,0,L|-8:248,2,130
296,176,11395,6,0,L|408:64,3,130
504,136,12995,2,0,P|416:280|320:328,1,260
112,192,14595,2,0,P|169:306|276:378,1,260
128,168,16195,2,0,L|0:96,2,130
304,360,17795,2,0,L|400:272,3,130
512,200,19395,1,0,0:0:0:0:
80,192,22595,5,0,0:0:0:0:
296,48,23395,1,0,0:0:0:0:
104,224,24195,2,0,L|0:144,2,130
360,192,25795,5,0,0:0:0:0:
144,48,26595,1,0,0:0:0:0:
336,224,27394,2,0,L|439:144,2,130
144,48,28995,5,0,0:0:0:0:
384,144,29795,1,0,0:0:0:0:
144,240,30595,2,0,L|0:280,2,130
400,176,32195,1,0,0:0:0:0:
152,112,32995,1,0,0:0:0:0:
384,232,33795,2,0,L|496:136,1,130
360,104,34595,2,0,L|248:8,1,130
128,24,35395,2,0,L|392:96,1,260
496,296,36995,2,0,L|245:364,1,260
16,240,38595,2,0,L|266:171,1,260
456,344,40195,6,0,L|344:256,3,130
224,264,41795,6,0,P|120:184|32:80,1,260
280,0,43395,2,0,P|364:98|467:177,1,260
240,312,44995,2,0,P|152:256|256:208,1,260
408,144,46595,2,0,P|496:88|392:40,1,260
272,64,47795,1,0,0:0:0:0:
144,88,48195,1,0,0:0:0:0:
64,192,48595,2,0,L|-56:264,2,130
176,120,49795,1,0,0:0:0:0:
288,56,50195,2,0,L|408:8,2,130
168,104,51395,6,0,L|32:64,1,130
136,160,52195,6,0,L|260:123,1,130
368,192,52995,6,0,L|232:152,1,130
336,248,53795,6,0,L|460:211,1,130
360,128,54595,1,0,0:0:0:0:
232,120,54995,1,0,0:0:0:0:
104,128,55395,1,0,0:0:0:0:
232,144,55795,1,0,0:0:0:0:
360,144,56195,1,0,0:0:0:0:
488,176,56595,1,0,0:0:0:0:
400,272,56995,1,0,0:0:0:0:
272,296,57395,1,0,0:0:0:0:
152,256,57795,6,0,L|16:216,3,130
120,128,59395,2,0,L|224:88,2,97.5
416,272,60995,2,0,L|272:312,1,130
176,248,61795,2,0,L|301:213,1,130
376,104,62595,2,0,L|232:144,1,130
136,80,63395,2,0,L|261:45,1,130
368,120,64195,6,0,L|496:208,2,130
248,72,65395,1,0,0:0:0:0:
128,120,65795,2,0,L|20:193,2,130
248,72,66995,1,0,0:0:0:0:
368,128,67395,6,0,L|488:208,1,130
360,248,68195,6,0,L|251:320,1,130
144,248,68995,6,0,L|24:168,1,130
152,128,69795,6,0,L|260:55,1,130
368,128,70595,2,0,L|512:104,2,130
264,208,71795,1,0,0:0:0:0:
168,296,72195,2,0,L|24:320,4,130
384,152,74595,6,0,L|248:96,1,130
136,104,75395,2,0,L|15:153,4,130
416,376,78195,1,0,0:0:0:0:
288,352,78595,2,0,L|128:336,1,130
56,256,79395,2,0,L|216:240,1,130
304,184,80195,2,0,L|176:152,1,130
432,80,81395,5,0,0:0:0:0:
304,96,81795,2,0,L|160:120,1,130
88,216,82595,2,0,L|-40:256,3,130
208,336,84595,1,0,0:0:0:0:
336,296,84995,2,0,L|464:248,1,130
344,192,85795,2,0,L|200:144,1,130
112,80,86595,6,0,L|-24:112,2,130
240,80,87795,1,0,0:0:0:0:
368,80,88195,2,0,L|504:112,2,130
328,24,89195,2,0,L|296:-48,1,65
