osu file format v14

[General]
AudioFilename: function.mp3
AudioLeadIn: 0
PreviewTime: 5970
Countdown: 0
SampleSet: Normal
StackLeniency: 0.4
Mode: 1
LetterboxInBreaks: 0
WidescreenStoryboard: 1

[Editor]
DistanceSpacing: 0.5
BeatDivisor: 4
GridSize: 4
TimelineZoom: 1

[Metadata]
Title:Ochame Kinou
TitleUnicode:おちゃめ機能
Artist:Lon
ArtistUnicode:ろん
Creator:Jounzan
Version:taiko
Source:
Tags:AgeSheRi Mirash Akitoshi gojimaji-p kasane teto utau utaite ron fukkireta lamaze-p
BeatmapID:1118989
BeatmapSetID:527414

[Difficulty]
HPDrainRate:5
CircleSize:4
OverallDifficulty:5
ApproachRate:10
SliderMultiplier:1.4
SliderTickRate:1

[Events]
//Background and Video events
0,0,"function.jpg",0,0
//Break Periods
//Storyboard Layer 0 (Background)
//Storyboard Layer 1 (Fail)
//Storyboard Layer 2 (Pass)
//Storyboard Layer 3 (Foreground)
//Storyboard Sound Samples

[TimingPoints]
170,400,4,1,0,100,1,0
6570,-100,4,1,0,100,0,1
19370,-100,4,1,0,100,0,0
60970,-100,4,1,0,100,0,1
73770,-100,4,1,0,100,0,1
86570,-100,4,1,0,100,0,0

[Colours]
Combo1 : 225,225,225
Combo2 : 255,77,255
Combo3 : 0,0,162

[HitObjects]
256,192,170,5,0,0:0:0:0:
256,192,370,5,0,0:0:0:0:
256,192,570,5,8,0:0:0:0:
256,192,770,5,0,0:0:0:0:
256,192,870,5,8,0:0:0:0:
256,192,1070,5,8,0:0:0:0:
256,192,1170,5,8,0:0:0:0:
256,192,1370,5,8,0:0:0:0:
256,192,1570,5,0,0:0:0:0:
256,192,1770,5,0,0:0:0:0:
256,192,1970,5,0,0:0:0:0:
256,192,2170,5,8,0:0:0:0:
256,192,2370,5,0,0:0:0:0:
256,192,2470,5,8,0:0:0:0:
256,192,2670,5,8,0:0:0:0:
256,192,2770,5,8,0:0:0:0:
256,192,2970,5,8,0:0:0:0:
256,192,3170,5,0,0:0:0:0:
256,192,3370,5,0,0:0:0:0:
256,192,3570,5,0,0:0:0:0:
256,192,3770,5,8,0:0:0:0:
256,192,3970,5,0,0:0:0:0:
256,192,4070,5,8,0:0:0:0:
256,192,4270,5,8,0:0:0:0:
256,192,4370,5,8,0:0:0:0:
256,192,4570,5,8,0:0:0:0:
256,192,4670,5,8,0:0:0:0:
256,192,4770,5,0,0:0:0:0:
256,192,4970,5,4,0:0:0:0:
256,192,5270,5,4,0:0:0:0:
256,192,5570,5,4,0:0:0:0:
256,192,6570,5,4,0:0:0:0:
256,192,6770,5,0,0:0:0:0:
256,192,6870,5,0,0:0:0:0:
256,192,6970,5,8,0:0:0:0:
256,192,7170,5,0,0:0:0:0:
256,192,7370,5,0,0:0:0:0:
256,192,7570,5,0,0:0:0:0:
256,192,7670,5,0,0:0:0:0:
256,192,7770,5,8,0:0:0:0:
256,192,7970,5,8,0:0:0:0:
256,192,8170,5,4,0:0:0:0:
256,192,8370,5,0,0:0:0:0:
256,192,8470,5,0,0:0:0:0:
256,192,8570,5,8,0:0:0:0:
256,192,8770,5,0,0:0:0:0:
256,192,8870,5,8,0:0:0:0:
256,192,9070,5,0,0:0:0:0:
256,192,9170,5,8,0:0:0:0:
256,192,9370,5,8,0:0:0:0:
256,192,9570,5,0,0:0:0:0:
256,192,9770,5,4,0:0:0:0:
256,192,9970,5,0,0:0:0:0:
256,192,10070,5,0,0:0:0:0:
256,192,10170,5,8,0:0:0:0:
256,192,10370,5,8,0:0:0:0:
256,192,10570,5,0,0:0:0:0:
256,192,10770,5,0,0:0:0:0:
256,192,10870,5,0,0:0:0:0:
256,192,10970,5,8,0:0:0:0:
256,192,11170,5,8,0:0:0:0:
256,192,11370,5,4,0:0:0:0:
256,192,11570,5,0,0:0:0:0:
256,192,11670,5,0,0:0:0:0:
256,192,11770,5,8,0:0:0:0:
256,192,11970,5,0,0:0:0:0:
256,192,12070,5,8,0:0:0:0:
256,192,12170,5,0,0:0:0:0:
256,192,12270,5,0,0:0:0:0:
256,192,12370,5,8,0:0:0:0:
256,192,12470,5,0,0:0:0:0:
256,192,12570,5,8,0:0:0:0:
256,192,12670,5,0,0:0:0:0:
256,192,12770,5,8,0:0:0:0:
256,192,12970,5,4,0:0:0:0:
256,192,13170,5,0,0:0:0:0:
256,192,13270,5,0,0:0:0:0:
256,192,13370,5,8,0:0:0:0:
256,192,13570,5,0,0:0:0:0:
256,192,13770,5,0,0:0:0:0:
256,192,13970,5,0,0:0:0:0:
256,192,14070,5,0,0:0:0:0:
256,192,14170,5,8,0:0:0:0:
256,192,14370,5,8,0:0:0:0:
256,192,14570,5,4,0:0:0:0:
256,192,14770,5,0,0:0:0:0:
256,192,14870,5,0,0:0:0:0:
256,192,14970,5,8,0:0:0:0:
256,192,15170,5,0,0:0:0:0:
256,192,15270,5,8,0:0:0:0:
256,192,15470,5,0,0:0:0:0:
256,192,15570,5,8,0:0:0:0:
256,192,15770,5,8,0:0:0:0:
256,192,15970,5,0,0:0:0:0:
256,192,16170,5,4,0:0:0:0:
256,192,16370,5,0,0:0:0:0:
256,192,16470,5,0,0:0:0:0:
256,192,16570,5,8,0:0:0:0:
256,192,16770,5,8,0:0:0:0:
256,192,16970,5,0,0:0:0:0:
256,192,17170,5,0,0:0:0:0:
256,192,17270,5,0,0:0:0:0:
256,192,17370,5,8,0:0:0:0:
256,192,17570,5,8,0:0:0:0:
256,192,17770,5,4,0:0:0:0:
256,192,17970,5,0,0:0:0:0:
256,192,18070,5,0,0:0:0:0:
256,192,18170,5,8,0:0:0:0:
256,192,18370,5,0,0:0:0:0:
256,192,18470,5,8,0:0:0:0:
256,192,18570,5,0,0:0:0:0:
256,192,18670,5,0,0:0:0:0:
256,192,18770,5,8,0:0:0:0:
256,192,18870,5,0,0:0:0:0:
256,192,18970,5,8,0:0:0:0:
256,192,19070,5,0,0:0:0:0:
256,192,19170,5,8,0:0:0:0:
256,192,19270,5,8,0:0:0:0:
256,192,19370,5,0,0:0:0:0:
256,192,19570,5,0,0:0:0:0:
256,192,19770,5,8,0:0:0:0:
256,192,19970,5,0,0:0:0:0:
256,192,20070,5,8,0:0:0:0:
256,192,20270,5,8,0:0:0:0:
256,192,20370,5,0,0:0:0:0:
256,192,20470,5,0,0:0:0:0:
256,192,20570,5,8,0:0:0:0:
256,192,20770,5,0,0:0:0:0:
256,192,20870,5,0,0:0:0:0:
256,192,20970,5,0,0:0:0:0:
256,192,21170,5,0,0:0:0:0:
256,192,21370,5,8,0:0:0:0:
256,192,21570,5,0,0:0:0:0:
256,192,21670,5,8,0:0:0:0:
256,192,21870,5,0,0:0:0:0:
256,192,21970,5,8,0:0:0:0:
256,192,22170,5,12,0:0:0:0:
256,192,22570,5,4,0:0:0:0:
256,192,22970,5,8,0:0:0:0:
256,192,23170,5,0,0:0:0:0:
256,192,23370,5,0,0:0:0:0:
256,192,23770,5,8,0:0:0:0:
256,192,23970,5,8,0:0:0:0:
256,192,24170,5,0,0:0:0:0:
256,192,24370,5,0,0:0:0:0:
256,192,24470,5,0,0:0:0:0:
256,192,24570,5,8,0:0:0:0:
256,192,24770,5,0,0:0:0:0:
256,192,24970,5,8,0:0:0:0:
256,192,25370,5,12,0:0:0:0:
256,192,25770,5,0,0:0:0:0:
256,192,26170,5,8,0:0:0:0:
256,192,26370,5,0,0:0:0:0:
256,192,26570,5,0,0:0:0:0:
256,192,26970,5,8,0:0:0:0:
256,192,27170,5,8,0:0:0:0:
256,192,27370,5,0,0:0:0:0:
256,192,27570,5,0,0:0:0:0:
256,192,27670,5,0,0:0:0:0:
256,192,27770,5,8,0:0:0:0:
256,192,27970,5,0,0:0:0:0:
256,192,28170,5,8,0:0:0:0:
256,192,28370,5,0,0:0:0:0:
256,192,28470,5,0,0:0:0:0:
256,192,28570,5,8,0:0:0:0:
256,192,28770,5,8,0:0:0:0:
256,192,28970,5,0,0:0:0:0:
256,192,29370,5,8,0:0:0:0:
256,192,29570,5,0,0:0:0:0:
256,192,29770,5,0,0:0:0:0:
256,192,30170,5,8,0:0:0:0:
256,192,30370,5,8,0:0:0:0:
256,192,30570,5,0,0:0:0:0:
256,192,30770,5,0,0:0:0:0:
256,192,30870,5,0,0:0:0:0:
256,192,30970,5,8,0:0:0:0:
256,192,31170,5,0,0:0:0:0:
256,192,31370,5,8,0:0:0:0:
256,192,31470,5,8,0:0:0:0:
256,192,31570,5,0,0:0:0:0:
256,192,31670,5,8,0:0:0:0:
256,192,31770,5,8,0:0:0:0:
256,192,32170,5,0,0:0:0:0:
256,192,32570,5,8,0:0:0:0:
256,192,32770,5,0,0:0:0:0:
256,192,32970,5,0,0:0:0:0:
256,192,33370,5,8,0:0:0:0:
256,192,33570,5,8,0:0:0:0:
256,192,33770,5,0,0:0:0:0:
256,192,33970,5,0,0:0:0:0:
256,192,34070,5,0,0:0:0:0:
256,192,34170,5,8,0:0:0:0:
256,192,34370,5,8,0:0:0:0:
256,192,34570,5,0,0:0:0:0:
256,192,34670,5,8,0:0:0:0:
256,192,34770,5,0,0:0:0:0:
256,192,34870,5,0,0:0:0:0:
256,192,34970,5,8,0:0:0:0:
256,192,35070,5,0,0:0:0:0:
256,192,35170,5,8,0:0:0:0:
256,192,35370,5,4,0:0:0:0:
256,192,35770,5,8,0:0:0:0:
256,192,35970,5,0,0:0:0:0:
256,192,36170,5,0,0:0:0:0:
256,192,36570,5,8,0:0:0:0:
256,192,36770,5,8,0:0:0:0:
256,192,36970,5,0,0:0:0:0:
256,192,37170,5,0,0:0:0:0:
256,192,37270,5,0,0:0:0:0:
256,192,37370,5,8,0:0:0:0:
256,192,37570,5,0,0:0:0:0:
256,192,37770,5,8,0:0:0:0:
256,192,38170,5,12,0:0:0:0:
256,192,38570,5,0,0:0:0:0:
256,192,38970,5,8,0:0:0:0:
256,192,39170,5,0,0:0:0:0:
256,192,39370,5,0,0:0:0:0:
256,192,39770,5,8,0:0:0:0:
256,192,39970,5,8,0:0:0:0:
256,192,40170,5,0,0:0:0:0:
256,192,40370,5,0,0:0:0:0:
256,192,40470,5,0,0:0:0:0:
256,192,40570,5,8,0:0:0:0:
256,192,40770,5,0,0:0:0:0:
256,192,40970,5,8,0:0:0:0:
256,192,41170,5,0,0:0:0:0:
256,192,41270,5,0,0:0:0:0:
256,192,41370,5,8,0:0:0:0:
256,192,41570,5,8,0:0:0:0:
256,192,41770,5,0,0:0:0:0:
256,192,42170,5,8,0:0:0:0:
256,192,42370,5,0,0:0:0:0:
256,192,42570,5,0,0:0:0:0:
256,192,42970,5,8,0:0:0:0:
256,192,43170,5,8,0:0:0:0:
256,192,43370,5,0,0:0:0:0:
256,192,43570,5,0,0:0:0:0:
256,192,43670,5,0,0:0:0:0:
256,192,43770,5,8,0:0:0:0:
256,192,43970,5,0,0:0:0:0:
256,192,44170,5,8,0:0:0:0:
256,192,44270,5,8,0:0:0:0:
256,192,44370,5,0,0:0:0:0:
256,192,44470,5,8,0:0:0:0:
256,192,44570,5,8,0:0:0:0:
256,192,44970,5,0,0:0:0:0:
256,192,45370,5,8,0:0:0:0:
256,192,45570,5,0,0:0:0:0:
256,192,45770,5,0,0:0:0:0:
256,192,46170,5,8,0:0:0:0:
256,192,46370,5,8,0:0:0:0:
256,192,46570,5,0,0:0:0:0:
256,192,46770,5,0,0:0:0:0:
256,192,46870,5,0,0:0:0:0:
256,192,46970,5,8,0:0:0:0:
256,192,47170,5,8,0:0:0:0:
256,192,47370,5,0,0:0:0:0:
256,192,47470,5,8,0:0:0:0:
256,192,47570,5,0,0:0:0:0:
256,192,47670,5,0,0:0:0:0:
256,192,47770,5,8,0:0:0:0:
256,192,47870,5,0,0:0:0:0:
256,192,47970,5,8,0:0:0:0:
256,192,48170,5,12,0:0:0:0:
256,192,48570,5,8,0:0:0:0:
256,192,48970,5,8,0:0:0:0:
256,192,49070,5,0,0:0:0:0:
256,192,49170,5,8,0:0:0:0:
256,192,49570,5,8,0:0:0:0:
256,192,49670,5,0,0:0:0:0:
256,192,49770,5,8,0:0:0:0:
256,192,50170,5,8,0:0:0:0:
256,192,50570,5,8,0:0:0:0:
256,192,50670,5,0,0:0:0:0:
256,192,50770,5,8,0:0:0:0:
256,192,51170,5,0,0:0:0:0:
256,192,51270,5,0,0:0:0:0:
256,192,51370,5,8,0:0:0:0:
256,192,51770,5,8,0:0:0:0:
256,192,52170,5,8,0:0:0:0:
256,192,52270,5,8,0:0:0:0:
256,192,52370,5,8,0:0:0:0:
256,192,52570,5,0,0:0:0:0:
256,192,52770,5,8,0:0:0:0:
256,192,52870,5,0,0:0:0:0:
256,192,52970,5,8,0:0:0:0:
256,192,53170,5,8,0:0:0:0:
256,192,53270,5,8,0:0:0:0:
256,192,53370,5,0,0:0:0:0:
256,192,53470,5,8,0:0:0:0:
256,192,53570,5,8,0:0:0:0:
256,192,53770,5,8,0:0:0:0:
256,192,53970,5,8,0:0:0:0:
256,192,54070,5,8,0:0:0:0:
256,192,54170,5,0,0:0:0:0:
256,192,54270,5,8,0:0:0:0:
256,192,54370,5,8,0:0:0:0:
256,192,54470,5,8,0:0:0:0:
256,192,54570,5,8,0:0:0:0:
256,192,54970,5,8,0:0:0:0:
256,192,55370,5,8,0:0:0:0:
256,192,55470,5,0,0:0:0:0:
256,192,55570,5,8,0:0:0:0:
256,192,55970,5,8,0:0:0:0:
256,192,56070,5,0,0:0:0:0:
256,192,56170,5,8,0:0:0:0:
256,192,56570,5,8,0:0:0:0:
256,192,56970,5,8,0:0:0:0:
256,192,57070,5,0,0:0:0:0:
256,192,57170,5,8,0:0:0:0:
256,192,57570,5,0,0:0:0:0:
256,192,57670,5,0,0:0:0:0:
256,192,57770,5,8,0:0:0:0:
256,192,58170,5,8,0:0:0:0:
256,192,58570,5,8,0:0:0:0:
256,192,58670,5,8,0:0:0:0:
256,192,58770,5,8,0:0:0:0:
256,192,59170,5,0,0:0:0:0:
256,192,59370,5,4,0:0:0:0:
256,192,59670,5,4,0:0:0:0:
256,192,59970,5,4,0:0:0:0:
256,192,60970,5,4,0:0:0:0:
256,192,61170,5,0,0:0:0:0:
256,192,61270,5,0,0:0:0:0:
256,192,61370,5,8,0:0:0:0:
256,192,61570,5,0,0:0:0:0:
256,192,61770,5,0,0:0:0:0:
256,192,61970,5,0,0:0:0:0:
256,192,62070,5,0,0:0:0:0:
256,192,62170,5,8,0:0:0:0:
256,192,62370,5,8,0:0:0:0:
256,192,62570,5,4,0:0:0:0:
256,192,62770,5,0,0:0:0:0:
256,192,62870,5,0,0:0:0:0:
256,192,62970,5,8,0:0:0:0:
256,192,63170,5,0,0:0:0:0:
256,192,63270,5,8,0:0:0:0:
256,192,63470,5,0,0:0:0:0:
256,192,63570,5,8,0:0:0:0:
256,192,63770,5,8,0:0:0:0:
256,192,63970,5,0,0:0:0:0:
256,192,64170,5,4,0:0:0:0:
256,192,64370,5,0,0:0:0:0:
256,192,64470,5,0,0:0:0:0:
256,192,64570,5,8,0:0:0:0:
256,192,64770,5,8,0:0:0:0:
256,192,64970,5,0,0:0:0:0:
256,192,65170,5,0,0:0:0:0:
256,192,65270,5,0,0:0:0:0:
256,192,65370,5,8,0:0:0:0:
256,192,65570,5,8,0:0:0:0:
256,192,65770,5,4,0:0:0:0:
256,192,65970,5,0,0:0:0:0:
256,192,66070,5,0,0:0:0:0:
256,192,66170,5,8,0:0:0:0:
256,192,66370,5,0,0:0:0:0:
256,192,66470,5,8,0:0:0:0:
256,192,66570,5,0,0:0:0:0:
256,192,66670,5,0,0:0:0:0:
256,192,66770,5,8,0:0:0:0:
256,192,66870,5,0,0:0:0:0:
256,192,66970,5,8,0:0:0:0:
256,192,67070,5,0,0:0:0:0:
256,192,67170,5,8,0:0:0:0:
256,192,67370,5,4,0:0:0:0:
256,192,67570,5,0,0:0:0:0:
256,192,67670,5,0,0:0:0:0:
256,192,67770,5,8,0:0:0:0:
256,192,67970,5,0,0:0:0:0:
256,192,68170,5,0,0:0:0:0:
256,192,68370,5,0,0:0:0:0:
256,192,68470,5,0,0:0:0:0:
256,192,68570,5,8,0:0:0:0:
256,192,68770,5,8,0:0:0:0:
256,192,68970,5,4,0:0:0:0:
256,192,69170,5,0,0:0:0:0:
256,192,69270,5,0,0:0:0:0:
256,192,69370,5,8,0:0:0:0:
256,192,69570,5,0,0:0:0:0:
256,192,69670,5,8,0:0:0:0:
256,192,69870,5,0,0:0:0:0:
256,192,69970,5,8,0:0:0:0:
256,192,70170,5,8,0:0:0:0:
256,192,70370,5,0,0:0:0:0:
256,192,70570,5,4,0:0:0:0:
256,192,70770,5,0,0:0:0:0:
256,192,70870,5,0,0:0:0:0:
256,192,70970,5,8,0:0:0:0:
256,192,71170,5,8,0:0:0:0:
256,192,71370,5,0,0:0:0:0:
256,192,71570,5,0,0:0:0:0:
256,192,71670,5,0,0:0:0:0:
256,192,71770,5,8,0:0:0:0:
256,192,71970,5,8,0:0:0:0:
256,192,72170,5,4,0:0:0:0:
256,192,72370,5,0,0:0:0:0:
256,192,72470,5,0,0:0:0:0:
256,192,72570,5,8,0:0:0:0:
256,192,72770,5,0,0:0:0:0:
256,192,72870,5,8,0:0:0:0:
256,192,72970,5,0,0:0:0:0:
256,192,73070,5,0,0:0:0:0:
256,192,73170,5,8,0:0:0:0:
256,192,73270,5,0,0:0:0:0:
256,192,73370,5,8,0:0:0:0:
256,192,73470,5,0,0:0:0:0:
256,192,73570,5,8,0:0:0:0:
256,192,73770,5,4,0:0:0:0:
256,192,74170,5,8,0:0:0:0:
256,192,74370,5,0,0:0:0:0:
256,192,74470,5,0,0:0:0:0:
256,192,74570,5,8,0:0:0:0:
256,192,74770,5,8,0:0:0:0:
256,192,74970,5,8,0:0:0:0:
256,192,75070,5,0,0:0:0:0:
256,192,75170,5,0,0:0:0:0:
256,192,75370,5,4,0:0:0:0:
256,192,75570,5,0,0:0:0:0:
256,192,75670,5,0,0:0:0:0:
256,192,75770,5,8,0:0:0:0:
256,192,75970,5,0,0:0:0:0:
256,192,76070,5,0,0:0:0:0:
256,192,76170,5,8,0:0:0:0:
256,192,76370,5,8,0:0:0:0:
256,192,76570,5,8,0:0:0:0:
256,192,76670,5,0,0:0:0:0:
256,192,76770,5,0,0:0:0:0:
256,192,76970,5,4,0:0:0:0:
256,192,77370,5,4,0:0:0:0:
256,192,77770,5,4,0:0:0:0:
256,192,77970,5,4,0:0:0:0:
256,192,78370,5,8,0:0:0:0:
256,192,78570,5,4,0:0:0:0:
256,192,78770,5,0,0:0:0:0:
256,192,78870,5,0,0:0:0:0:
256,192,78970,5,8,0:0:0:0:
256,192,79170,5,0,0:0:0:0:
256,192,79370,5,8,0:0:0:0:
256,192,79470,5,0,0:0:0:0:
256,192,79570,5,0,0:0:0:0:
256,192,79670,5,8,0:0:0:0:
256,192,79770,5,8,0:0:0:0:
256,192,79870,5,0,0:0:0:0:
256,192,79970,5,0,0:0:0:0:
256,192,80170,5,4,0:0:0:0:
256,192,80370,5,0,0:0:0:0:
256,192,80570,5,8,0:0:0:0:
256,192,80770,5,0,0:0:0:0:
256,192,80870,5,0,0:0:0:0:
256,192,80970,5,8,0:0:0:0:
256,192,81170,5,8,0:0:0:0:
256,192,81370,5,0,0:0:0:0:
256,192,81470,5,0,0:0:0:0:
256,192,81570,5,8,0:0:0:0:
256,192,81770,5,4,0:0:0:0:
256,192,81970,5,0,0:0:0:0:
256,192,82070,5,0,0:0:0:0:
256,192,82170,5,8,0:0:0:0:
256,192,82370,5,0,0:0:0:0:
256,192,82570,5,8,0:0:0:0:
256,192,82770,5,8,0:0:0:0:
256,192,82870,5,0,0:0:0:0:
256,192,82970,5,8,0:0:0:0:
256,192,83170,5,0,0:0:0:0:
256,192,83370,5,4,0:0:0:0:
256,192,83570,5,0,0:0:0:0:
256,192,83670,5,0,0:0:0:0:
256,192,83770,5,8,0:0:0:0:
256,192,83970,5,0,0:0:0:0:
256,192,84170,5,8,0:0:0:0:
256,192,84270,5,8,0:0:0:0:
256,192,84370,5,8,0:0:0:0:
256,192,84470,5,0,0:0:0:0:
256,192,84570,5,8,0:0:0:0:
256,192,84770,5,8,0:0:0:0:
256,192,84970,5,4,0:0:0:0:
256,192,85170,5,0,0:0:0:0:
256,192,85270,5,0,0:0:0:0:
256,192,85370,5,8,0:0:0:0:
256,192,85570,5,8,0:0:0:0:
256,192,85770,5,8,0:0:0:0:
256,192,85870,5,0,0:0:0:0:
256,192,85970,5,0,0:0:0:0:
256,192,86070,5,8,0:0:0:0:
256,192,86170,5,8,0:0:0:0:
256,192,86270,5,0,0:0:0:0:
256,192,86370,5,8,0:0:0:0:
256,192,86470,5,0,0:0:0:0:
256,192,86570,5,0,0:0:0:0:
256,192,86770,5,0,0:0:0:0:
256,192,86970,5,8,0:0:0:0:
256,192,87170,5,0,0:0:0:0:
256,192,87270,5,8,0:0:0:0:
256,192,87470,5,8,0:0:0:0:
256,192,87570,5,0,0:0:0:0:
256,192,87670,5,0,0:0:0:0:
256,192,87770,5,8,0:0:0:0:
256,192,87970,5,0,0:0:0:0:
256,192,88070,5,0,0:0:0:0:
256,192,88170,5,0,0:0:0:0:
256,192,88370,5,0,0:0:0:0:
256,192,88570,5,8,0:0:0:0:
256,192,88770,5,0,0:0:0:0:
256,192,88870,5,8,0:0:0:0:
256,192,89070,5,0,0:0:0:0:
256,192,89170,5,8,0:0:0:0:
256,192,89370,5,4,0:0:0:0:
