osu file format v14

[General]
AudioFilename: function.mp3
AudioLeadIn: 0
PreviewTime: 5970
Countdown: 0
SampleSet: Soft
StackLeniency: 0.4
Mode: 0
LetterboxInBreaks: 0
WidescreenStoryboard: 1

[Editor]
DistanceSpacing: 0.5
BeatDivisor: 4
GridSize: 4
TimelineZoom: 1.9

[Metadata]
Title:Ochame Kinou
TitleUnicode:おちゃめ機能
Artist:Lon
ArtistUnicode:ろん
Creator:Jounzan
Version:not a taiko
Source:
Tags:AgeSheRi Xinely Lasse Mirash Akitoshi gojimaji-p kasane teto utau utaite ron fukkireta lamaze-p
BeatmapID:1118988
BeatmapSetID:527414

[Difficulty]
HPDrainRate:7
CircleSize:4
OverallDifficulty:8
ApproachRate:9.3
SliderMultiplier:2
SliderTickRate:1

[Events]
//Background and Video events
0,0,"function.jpg",0,0
//Break Periods
//Storyboard Layer 0 (Background)
//Storyboard Layer 1 (Fail)
//Storyboard Layer 2 (Pass)
//Storyboard Layer 3 (Foreground)
//Storyboard Sound Samples

[TimingPoints]
170,400,4,2,1,50,1,0
870,-100,4,2,1,20,0,0
1170,-100,4,2,1,50,0,0
1570,-100,4,2,1,20,0,0
1770,-100,4,2,1,50,0,0
2470,-100,4,2,1,20,0,0
2770,-100,4,2,1,50,0,0
3170,-100,4,2,1,20,0,0
3370,-100,4,2,1,50,0,0
4070,-100,4,2,1,20,0,0
4370,-100,4,2,1,50,0,0
4570,-50,4,2,1,80,0,0
4970,-100,4,2,1,80,0,0
6570,-71.4285714285714,4,2,1,80,0,1
12170,-50,4,2,1,80,0,1
12370,-50,4,2,1,100,0,1
12470,-50,4,2,1,80,0,1
12670,-50,4,2,1,100,0,1
12770,-50,4,2,1,80,0,1
12970,-71.4285714285714,4,2,1,80,0,1
19370,-71.4285714285714,4,2,1,60,0,0
20070,-71.4285714285714,4,2,1,40,0,0
20170,-71.4285714285714,4,2,1,60,0,0
20370,-71.4285714285714,4,2,1,40,0,0
20470,-71.4285714285714,4,2,1,60,0,0
22170,-200,4,2,1,80,0,0
22570,-83.3333333333333,4,2,1,60,0,0
25370,-50,4,2,1,80,0,0
25770,-83.3333333333333,4,2,1,60,0,0
28170,-200,4,2,1,60,0,0
28570,-200,4,2,1,80,0,0
28970,-83.3333333333333,4,2,1,60,0,0
31370,-83.3333333333333,4,2,0,40,0,0
31570,-83.3333333333333,4,2,1,20,0,0
31670,-83.3333333333333,4,2,0,40,0,0
31770,-83.3333333333333,4,2,1,60,0,0
38170,-50,4,2,1,80,0,0
38570,-83.3333333333333,4,2,1,60,0,0
40970,-200,4,2,1,60,0,0
41370,-200,4,2,1,80,0,0
41770,-83.3333333333333,4,2,1,60,0,0
44170,-83.3333333333333,4,2,0,40,0,0
44370,-83.3333333333333,4,2,1,20,0,0
44470,-83.3333333333333,4,2,0,40,0,0
44570,-83.3333333333333,4,2,1,60,0,0
48170,-83.3333333333333,4,2,1,70,0,0
59670,-71.4285714285714,4,2,1,70,0,0
59970,-62.5,4,2,1,80,0,0
60970,-62.5,4,2,1,80,0,1
66370,-50,4,2,1,80,0,1
66770,-50,4,2,1,100,0,1
66870,-50,4,2,1,80,0,1
67070,-50,4,2,1,100,0,1
67170,-50,4,2,1,80,0,1
67370,-62.5,4,2,1,80,0,1
72970,-50,4,2,1,80,0,0
73770,-58.8235294117647,4,2,1,80,0,1
79470,-58.8235294117647,4,2,1,30,0,1
79570,-58.8235294117647,4,2,1,80,0,1
79670,-58.8235294117647,4,2,1,30,0,1
79770,-58.8235294117647,4,2,1,80,0,1
85870,-58.8235294117647,4,2,1,30,0,1
85970,-58.8235294117647,4,2,1,80,0,1
86070,-58.8235294117647,4,2,1,30,0,1
86170,-58.8235294117647,4,2,1,80,0,1
86570,-58.8235294117647,4,2,1,80,0,0
86670,-58.8235294117647,4,2,1,60,0,0
89170,-50,4,2,1,80,0,1
89470,-50,4,2,1,80,0,0

[Colours]
Combo1 : 255,0,128
Combo2 : 255,102,179
Combo3 : 255,55,55
SliderBorder : 17,254,176
SliderTrackOverride : 173,255,95

[HitObjects]
40,40,170,5,0,1:0:0:0:
102,89,370,1,0,3:0:0:0:
168,29,570,1,8,1:2:0:0:
233,110,770,1,0,3:0:0:0:
248,116,870,1,0,1:0:0:0:
327,43,1070,1,0,1:0:0:0:
342,36,1170,1,0,3:0:0:0:
430,108,1370,1,8,1:2:0:0:
430,108,1570,1,0,1:0:0:0:
377,215,1770,5,0,1:0:0:0:
401,311,1970,1,0,3:0:0:0:
498,286,2170,1,8,1:2:0:0:
470,189,2370,1,0,3:0:0:0:
453,194,2470,1,0,1:0:0:0:
314,286,2670,1,0,1:0:0:0:
297,281,2770,1,0,3:0:0:0:
163,221,2970,1,8,1:2:0:0:
85,282,3170,1,0,1:0:0:0:
77,190,3370,5,0,1:0:0:0:
172,319,3570,1,0,3:0:0:0:
232,173,3770,1,8,1:2:0:0:
157,56,3970,5,0,3:0:0:0:
155,80,4070,1,0,1:0:0:0:
329,54,4270,1,0,1:0:0:0:
333,78,4370,1,0,3:0:0:0:
239,21,4570,6,2,B|274:136|194:116|242:259,1,200,2|8,1:0|1:2,1:0:0:0:
230,216,4870,1,8,1:2:0:0:
237,223,4970,6,0,P|282:223|307:272,1,100,4|0,1:2|0:0,0:0:0:0:
200,297,5270,6,4,P|197:249|237:222,1,100,4|0,1:2|0:2,1:2:0:0:
267,327,5570,5,4,1:2:0:0:
267,327,6570,6,0,B|159:301|188:418|59:367,1,209.999993591309,6|0,1:0|0:0,0:0:0:0:
111,305,6970,2,0,P|107:271|114:232,1,69.9999978637696,8|0,1:0|0:0,0:0:0:0:
68,176,7170,1,0,1:0:0:0:
68,176,7270,2,0,L|47:29,1,139.999995727539,0|0,1:3|0:0,0:0:0:0:
248,36,7570,6,0,L|260:111,1,69.9999978637696,2|0,1:0|0:0,0:0:0:0:
322,129,7770,2,0,B|295:108|295:108|254:103,1,69.9999978637696,10|0,1:0|3:0,0:0:0:0:
209,148,7970,2,0,B|228:119|228:119|265:102,1,69.9999978637696,0|0,3:0|0:0,0:0:0:0:
376,295,8170,6,0,P|291:355|193:304,1,209.999993591309,6|0,1:0|0:0,1:0:0:0:
348,210,8570,2,0,L|435:212,1,69.9999978637696,8|0,1:0|0:0,0:0:0:0:
319,222,8770,1,0,1:0:0:0:
319,222,8870,2,0,L|485:227,1,139.999995727539,2|0,1:0|0:3,0:0:0:0:
246,255,9170,6,0,P|239:220|244:185,1,69.9999978637696,2|0,1:0|0:0,1:0:0:0:
409,83,9370,2,0,P|416:118|411:153,1,69.9999978637696,8|0,1:0|3:0,0:0:0:0:
316,120,9570,2,0,L|318:41,1,69.9999978637696,2|0,1:0|3:0,0:0:0:0:
200,70,9770,6,0,B|88:58|126:148|2:125,1,209.999993591309,6|0,1:0|0:0,0:0:0:0:
107,227,10170,2,0,P|111:262|108:305,1,69.9999978637696,8|0,1:0|0:0,0:0:0:0:
250,210,10370,1,0,1:0:0:0:
250,210,10470,2,0,P|245:300|253:376,1,139.999995727539,0|0,1:0|0:0,0:0:0:0:
173,194,10770,6,0,B|169:163|169:163|174:125,1,69.9999978637696,2|0,1:0|0:0,0:0:0:0:
329,132,10970,2,0,B|334:170|334:170|330:201,1,69.9999978637696,10|0,1:0|0:0,0:0:0:0:
250,90,11170,2,0,L|253:15,1,69.9999978637696,0|0,3:0|3:0,0:0:0:0:
382,71,11370,6,0,P|455:98|452:231,1,209.999993591309,4|0,1:2|0:0,0:0:0:0:
480,93,11770,2,0,P|495:128|495:181,1,69.9999978637696,8|0,1:0|0:0,0:0:0:0:
446,318,11970,5,4,1:2:0:0:
411,341,12070,1,0,0:0:0:0:
366,348,12170,2,0,P|313:348|256:313,1,100,2|0,1:0|3:0,0:0:0:0:
183,110,12370,6,0,P|196:148|202:220,1,100,8|0,2:3|0:0,0:0:0:0:
49,360,12570,6,0,P|97:328|148:321,1,100,10|8,1:0|0:3,0:0:0:0:
337,137,12770,5,0,1:0:0:0:
378,217,12870,5,0,3:0:0:0:
298,261,12970,6,0,L|314:44,1,209.999993591309,6|0,1:0|0:0,0:0:0:0:
244,50,13370,2,0,B|277:57|277:57|328:49,1,69.9999978637696,8|0,1:0|0:0,0:0:0:0:
132,103,13570,1,0,1:0:0:0:
132,103,13670,2,0,P|206:121|222:186,1,139.999995727539,0|0,1:0|0:0,0:0:0:0:
54,71,13970,6,0,B|48:109|48:109|57:144,1,69.9999978637696,2|0,1:0|0:0,0:0:0:0:
146,257,14170,2,0,B|153:222|153:222|146:172,1,69.9999978637696,10|0,1:0|0:0,0:0:0:0:
0,228,14370,2,0,L|76:227,1,69.9999978637696,0|0,3:0|3:0,0:0:0:0:
376,332,14570,6,0,P|278:345|232:259,1,209.999993591309,6|0,1:0|0:0,0:0:0:0:
407,189,14970,2,0,P|418:224|411:257,1,69.9999978637696,8|0,1:0|0:0,0:0:0:0:
317,218,15170,1,0,1:0:0:0:
317,218,15270,2,0,B|324:73,1,139.999995727539,2|0,1:0|0:0,0:0:0:0:
188,33,15570,6,0,L|104:47,1,69.9999978637696,2|0,1:0|0:0,0:0:0:0:
221,166,15770,2,0,L|247:93,1,69.9999978637696,8|0,1:0|3:0,0:0:0:0:
83,124,15970,2,0,L|131:181,1,69.9999978637696,2|0,1:0|3:0,0:0:0:0:
317,218,16170,6,0,P|385:228|389:355,1,209.999993591309,6|0,1:0|0:0,0:0:0:0:
277,354,16570,2,0,P|271:309|277:279,1,69.9999978637696,8|0,1:0|0:0,0:0:0:0:
176,324,16770,1,0,1:0:0:0:
176,324,16870,2,0,L|162:169,1,139.999995727539,0|0,1:0|0:0,0:0:0:0:
74,211,17170,6,0,B|67:179|67:179|71:140,1,69.9999978637696,2|0,1:0|0:0,0:0:0:0:
253,114,17370,2,0,B|260:146|260:146|256:183,1,69.9999978637696,10|0,1:0|0:0,0:0:0:0:
161,110,17570,2,0,L|168:26,1,69.9999978637696,0|0,3:0|3:0,0:0:0:0:
332,169,17770,6,0,B|444:158|397:259|535:229,1,209.999993591309,4|0,1:2|0:0,0:0:0:0:
335,249,18170,2,0,P|318:244|260:252,1,69.9999978637696,8|0,1:0|0:0,0:0:0:0:
403,298,18370,2,0,P|424:317|438:365,1,69.9999978637696,4|0,1:2|0:0,0:0:0:0:
206,191,18570,5,2,1:0:0:0:
137,203,18670,5,0,1:0:0:0:
105,265,18770,5,0,1:0:0:0:
127,334,18870,5,0,3:0:0:0:
271,150,18970,6,0,B|278:83|278:83|257:10,1,139.999995727539,10|0,1:0|1:0,0:0:0:0:
237,16,19270,1,0,1:0:0:0:
219,30,19370,5,4,1:0:0:0:
353,97,19570,1,0,1:0:0:0:
372,104,19670,1,0,3:0:0:0:
385,120,19770,1,8,1:2:0:0:
183,154,19970,1,0,3:0:0:0:
162,156,20070,1,4,3:0:0:0:
142,164,20170,1,0,3:0:0:0:
126,178,20270,1,0,1:0:0:0:
118,197,20370,1,4,3:0:0:0:
117,217,20470,1,0,1:0:0:0:
120,237,20570,1,8,1:0:0:0:
369,245,20770,5,0,1:0:0:0:
387,254,20870,1,0,3:0:0:0:
394,273,20970,1,0,1:0:0:0:
202,274,21170,1,0,1:0:0:0:
193,293,21270,1,0,3:0:0:0:
194,313,21370,1,8,1:2:0:0:
285,267,21570,1,0,3:0:0:0:
294,248,21670,1,4,3:0:0:0:
286,228,21770,1,0,3:0:0:0:
294,208,21870,1,4,3:0:0:0:
294,208,21970,6,0,B|297:173|297:173|285:121,1,69.9999978637696,2|0,1:0|3:0,0:0:0:0:
20,28,22170,6,0,L|29:120,1,75,4|0,1:2|0:0,0:0:0:0:
20,28,22570,6,0,P|95:35|107:134,1,179.999994506836,0|0,1:0|0:0,0:0:0:0:
141,115,22970,2,0,P|122:145|140:231,1,119.999996337891,0|0,1:3|3:0,0:0:0:0:
199,180,23370,1,0,1:0:0:0:
134,224,23570,2,0,P|184:263|279:183,1,179.999994506836,0|0,1:0|0:0,0:0:0:0:
297,240,23970,1,0,1:3:0:0:
360,144,24170,6,0,P|296:120|229:154,1,119.999996337891,0|0,1:0|0:0,0:0:0:0:
250,336,24570,2,0,P|314:360|381:326,1,119.999996337891,0|0,1:0|3:0,0:0:0:0:
297,240,24970,2,0,B|191:255|217:192|106:203,1,179.999994506836,0|0,1:0|0:0,0:0:0:0:
14,92,25370,6,0,B|113:122|113:122|201:24,1,200,2|0,1:0|0:0,0:0:0:0:
27,193,25770,6,0,P|19:274|107:305,1,179.999994506836,0|0,1:0|0:0,0:0:0:0:
101,333,26170,2,0,P|165:315|184:252,1,119.999996337891,0|0,1:0|3:0,0:0:0:0:
222,200,26570,1,0,1:0:0:0:
274,142,26770,2,0,P|276:60|365:44,1,179.999994506836,0|0,1:0|0:0,0:0:0:0:
377,22,27170,1,0,1:3:0:0:
446,61,27370,1,0,1:0:0:0:
451,140,27570,1,0,3:0:0:0:
451,140,27670,1,0,3:0:0:0:
451,140,27770,2,0,P|421:192|364:199,1,119.999996337891,0|0,1:0|0:0,0:0:0:0:
24,81,28170,6,0,B|21:57|21:57|26:19,1,50,4|0,1:2|0:0,0:0:0:0:
488,303,28570,6,0,B|490:326|490:326|486:365,1,50,4|0,1:2|0:0,0:0:0:0:
289,269,28970,6,0,P|223:240|224:131,1,179.999994506836,0|0,1:0|0:0,0:0:0:0:
191,143,29370,2,0,P|212:86|173:20,1,119.999996337891,0|0,1:0|3:0,0:0:0:0:
135,88,29770,1,0,1:0:0:0:
98,18,29970,2,0,P|60:92|139:177,1,179.999994506836,0|0,1:0|0:0,0:0:0:0:
77,184,30370,1,0,1:3:0:0:
331,338,30570,6,0,P|348:280|326:217,1,119.999996337891,0|0,1:0|0:0,0:0:0:0:
158,222,30970,2,0,P|141:278|158:335,1,119.999996337891,0|0,1:0|3:0,0:0:0:0:
255,205,31370,1,0,1:0:0:0:
262,183,31470,1,8,0:0:0:0:
246,131,31570,1,4,0:3:0:0:
252,103,31670,1,8,0:0:0:0:
233,63,31770,5,0,1:0:0:0:
233,63,31970,1,0,1:0:0:0:
333,27,32170,6,0,P|395:103|478:96,1,179.999994506836,0|0,1:0|0:0,0:0:0:0:
491,79,32570,2,0,P|516:144|486:212,1,119.999996337891,0|0,1:0|3:0,0:0:0:0:
452,249,32970,1,0,1:0:0:0:
382,276,33170,2,0,P|299:261|251:350,1,179.999994506836,0|0,1:0|0:0,0:0:0:0:
213,344,33570,1,0,1:3:0:0:
212,223,33770,5,0,1:0:0:0:
192,212,33970,1,2,1:0:0:0:
173,228,34170,1,0,1:0:0:0:
191,236,34370,1,2,1:0:0:0:
245,143,34570,5,8,1:2:0:0:
216,136,34670,1,8,1:2:0:0:
187,138,34770,1,8,1:0:0:0:
117,164,34970,1,8,1:0:0:0:
202,50,35170,1,8,1:2:0:0:
235,40,35270,1,8,1:2:0:0:
265,45,35370,6,0,P|332:84|326:192,1,179.999994506836,4|0,1:2|0:0,0:0:0:0:
374,187,35770,2,0,P|344:241|368:316,1,119.999996337891,0|0,1:0|3:0,0:0:0:0:
117,359,36170,1,0,1:0:0:0:
117,359,36370,2,0,P|162:289|268:294,1,179.999994506836,0|0,1:0|0:0,0:0:0:0:
276,314,36770,1,0,1:3:0:0:
467,342,36970,6,0,P|480:279|456:221,1,119.999996337891,0|0,1:0|0:0,0:0:0:0:
275,91,37370,2,0,P|256:147|269:204,1,119.999996337891,0|0,1:0|3:0,0:0:0:0:
376,176,37770,2,0,B|351:81|422:109|384:-12,1,179.999994506836,0|0,1:0|0:0,0:0:0:0:
234,24,38170,6,0,B|147:66|147:66|40:28,1,200,2|0,1:0|3:0,0:0:0:0:
178,157,38570,6,0,P|83:170|53:267,1,179.999994506836,0|0,1:0|0:0,0:0:0:0:
17,270,38970,2,0,P|82:262|138:309,1,119.999996337891,0|0,1:0|3:0,0:0:0:0:
277,354,39370,1,0,1:0:0:0:
277,354,39570,2,0,P|369:368|425:282,1,179.999994506836,0|0,1:0|0:0,0:0:0:0:
455,303,39970,1,0,1:3:0:0:
321,143,40170,5,0,1:0:0:0:
247,173,40370,1,0,0:0:0:0:
412,192,40570,5,0,1:0:0:0:
480,225,40770,1,0,3:0:0:0:
482,35,40970,6,0,B|454:30|454:30|414:37,1,50,4|0,1:2|0:0,0:0:0:0:
30,349,41370,6,0,B|58:354|58:354|98:347,1,50,4|0,1:2|0:0,0:0:0:0:
282,194,41770,6,0,P|239:243|116:202,1,179.999994506836,0|0,1:0|0:0,0:0:0:0:
105,250,42170,2,0,P|119:187|95:118,1,119.999996337891,0|0,1:0|3:0,0:0:0:0:
316,29,42570,1,0,1:0:0:0:
316,29,42770,2,0,P|371:111|459:105,1,179.999994506836,0|0,1:0|0:0,0:0:0:0:
460,144,43170,1,0,1:3:0:0:
199,146,43370,6,0,P|190:214|206:269,1,119.999996337891,0|0,1:0|0:0,0:0:0:0:
439,354,43770,2,0,P|452:295|443:237,1,119.999996337891,0|0,1:0|3:0,0:0:0:0:
312,342,44170,1,0,1:0:0:0:
290,332,44270,1,8,0:0:0:0:
237,343,44370,1,4,3:3:0:0:
210,334,44470,1,8,0:0:0:0:
168,349,44570,5,0,1:0:0:0:
168,349,44770,1,0,1:0:0:0:
42,211,44970,6,0,P|119:256|207:214,1,179.999994506836,0|0,1:0|0:0,0:0:0:0:
220,251,45370,2,0,P|241:184|214:125,1,119.999996337891,0|0,1:0|3:0,0:0:0:0:
449,204,45770,1,0,1:0:0:0:
449,204,45970,2,0,P|374:206|333:119,1,179.999994506836,0|0,1:0|0:0,0:0:0:0:
304,92,46370,1,0,1:3:0:0:
436,34,46570,5,0,1:0:0:0:
459,31,46770,1,2,1:0:0:0:
512,113,46970,5,0,1:0:0:0:
489,110,47170,1,2,1:0:0:0:
254,179,47370,5,0,1:2:0:0:
243,213,47470,1,0,1:2:0:0:
249,248,47570,1,8,1:0:0:0:
326,213,47770,1,8,1:0:0:0:
166,254,47970,1,8,1:2:0:0:
166,254,48070,1,8,1:2:0:0:
166,254,48170,6,0,L|211:324,1,59.9999981689454,6|0,1:0|0:0,0:0:0:0:
258,300,48570,6,0,L|190:304,1,59.9999981689454,2|0,1:0|0:0,0:0:0:0:
180,349,48970,5,2,1:0:0:0:
189,326,49070,1,0,3:0:0:0:
198,303,49170,1,2,1:0:0:0:
480,55,49570,5,2,1:0:0:0:
480,55,49770,2,0,L|410:49,1,59.9999981689454,2|0,1:0|0:0,0:0:0:0:
420,49,50170,6,0,L|353:54,1,59.9999981689454,2|0,1:0|0:0,0:0:0:0:
360,53,50570,5,2,1:0:0:0:
336,51,50670,1,0,3:0:0:0:
312,48,50770,1,2,1:0:0:0:
19,275,51170,5,2,1:0:0:0:
19,275,51270,1,0,3:0:0:0:
19,275,51370,2,0,L|53:332,1,59.9999981689454,2|0,1:0|0:0,0:0:0:0:
107,226,51770,6,0,L|134:301,1,59.9999981689454,2|0,1:0|0:0,0:0:0:0:
205,208,52170,6,0,L|211:270,1,59.9999981689454,2|0,1:0|3:0,0:0:0:0:
222,269,52370,2,0,L|219:208,1,59.9999981689454,2|0,1:0|3:0,0:0:0:0:
488,31,52770,5,2,1:0:0:0:
488,31,52970,2,0,P|426:61|343:19,1,119.999996337891,2|4,1:0|0:0,0:0:0:0:
352,34,53270,1,0,3:0:0:0:
330,54,53370,1,2,1:0:0:0:
301,44,53470,1,0,3:0:0:0:
284,51,53570,1,2,0:1:0:0:
272,47,53670,1,0,3:0:0:0:
272,47,53770,6,0,B|235:97|235:97|251:154,1,119.999996337891,4|0,1:2|3:0,0:0:0:0:
413,260,54070,6,0,B|376:208|376:208|283:214,1,119.999996337891,4|0,0:2|3:0,0:0:0:0:
196,278,54370,6,0,B|210:250|210:250|256:233,1,59.9999981689454,2|0,1:0|3:0,0:0:0:0:
409,131,54570,6,0,L|487:140,1,59.9999981689454,4|0,1:2|0:0,0:0:0:0:
410,110,54970,6,0,L|488:118,1,59.9999981689454,2|0,1:0|0:0,0:0:0:0:
410,88,55370,5,2,1:0:0:0:
439,93,55470,1,0,3:0:0:0:
468,95,55570,1,2,1:0:0:0:
100,203,55970,5,2,1:0:0:0:
100,203,56170,2,0,L|22:194,1,59.9999981689454,2|0,1:0|0:0,0:0:0:0:
159,196,56570,6,0,L|100:203,1,59.9999981689454,2|0,1:0|0:0,0:0:0:0:
218,204,56970,5,2,1:0:0:0:
188,201,57070,1,0,3:0:0:0:
159,196,57170,1,2,1:0:0:0:
462,286,57570,5,2,1:0:0:0:
462,286,57670,1,0,3:0:0:0:
462,286,57770,2,0,L|431:220,1,59.9999981689454,2|0,1:0|3:0,0:0:0:0:
353,349,58170,6,0,L|414:360,1,59.9999981689454,2|0,1:0|0:0,0:0:0:0:
343,224,58570,6,0,L|310:275,1,59.9999981689454,2|0,1:0|3:0,0:0:0:0:
297,265,58770,2,0,L|331:208,1,59.9999981689454,2|0,1:0|0:0,0:0:0:0:
162,30,59170,5,8,1:2:0:0:
162,30,59270,1,8,1:2:0:0:
162,30,59370,2,0,P|89:49|85:96,1,119.999996337891,4|0,1:2|0:0,0:0:0:0:
340,111,59670,6,0,P|419:143|415:197,1,139.999995727539,4|0,1:2|0:0,0:0:0:0:
146,231,59970,5,4,1:2:0:0:
146,231,60970,6,0,B|263:291|258:150|374:201,1,240,6|0,1:0|0:0,0:0:0:0:
170,325,61370,2,0,P|134:313|90:322,1,80,8|0,1:0|0:0,0:0:0:0:
204,367,61570,1,0,1:0:0:0:
204,367,61670,2,0,P|114:331|49:369,1,160,0|0,1:0|0:0,0:0:0:0:
22,179,61970,6,0,P|14:219|21:261,1,80,2|0,1:0|0:0,0:0:0:0:
289,337,62170,2,0,P|294:297|286:258,1,80,10|0,1:0|0:0,0:0:0:0:
376,293,62370,2,0,B|413:285|413:285|464:298,1,80,0|0,3:0|3:0,0:0:0:0:
370,96,62570,6,0,P|319:36|164:86,1,240,6|0,1:0|0:0,0:0:0:0:
257,131,62970,2,0,B|265:171|265:171|257:212,1,80,8|0,1:0|0:0,0:0:0:0:
165,150,63170,1,0,1:0:0:0:
165,150,63270,2,0,P|186:73|266:49,1,160,2|0,1:0|0:0,0:0:0:0:
450,187,63570,6,0,P|410:178|347:190,1,80,2|0,1:0|0:0,0:0:0:0:
446,347,63770,2,0,P|406:350|367:341,1,80,8|0,1:0|3:0,0:0:0:0:
496,263,63970,2,0,L|406:265,1,80,2|0,1:0|3:0,0:0:0:0:
143,268,64170,6,0,P|233:333|325:265,1,240,6|0,1:0|0:0,0:0:0:0:
124,182,64570,2,0,B|114:140|114:140|127:89,1,80,8|0,1:0|0:0,0:0:0:0:
224,49,64770,1,0,1:0:0:0:
224,49,64870,2,0,L|231:240,1,160,0|0,1:0|0:0,0:0:0:0:
320,99,65170,6,0,B|330:62|330:62|320:21,1,80,2|0,1:0|0:0,0:0:0:0:
122,26,65370,2,0,B|112:66|112:66|122:103,1,80,10|0,1:0|0:0,0:0:0:0:
310,178,65570,2,0,L|393:174,1,80,0|0,3:0|3:0,0:0:0:0:
147,250,65770,6,0,P|40:262|28:382,1,240,4|0,1:2|0:0,0:0:0:0:
147,250,66170,2,0,L|141:352,1,80,8|0,1:0|0:0,0:0:0:0:
77,128,66370,5,4,1:2:0:0:
102,79,66470,1,0,0:0:0:0:
154,66,66570,6,0,P|201:64|265:108,1,100,2|0,1:0|3:0,0:0:0:0:
491,144,66770,6,0,P|421:175|395:213,1,100,8|0,1:3|3:0,0:0:0:0:
284,344,66970,6,0,P|278:280|242:235,1,100,10|8,1:0|1:3,0:0:0:0:
338,34,67170,5,0,1:0:0:0:
389,99,67270,5,0,3:0:0:0:
329,163,67370,6,0,P|225:159|181:294,1,240,6|0,1:0|0:0,0:0:0:0:
379,303,67770,2,0,P|389:261|374:208,1,80,8|0,1:0|0:0,0:0:0:0:
194,352,67970,1,0,1:0:0:0:
194,352,68070,2,0,B|272:332|272:332|355:375,1,160,0|0,1:0|0:0,0:0:0:0:
61,319,68370,6,0,L|96:223,1,80,2|0,1:0|0:0,0:0:0:0:
102,125,68570,2,0,L|149:190,1,80,10|0,1:0|0:0,0:0:0:0:
243,247,68770,2,0,L|149:276,1,80,0|0,3:0|3:0,0:0:0:0:
273,96,68970,6,0,B|396:88|349:189|509:162,1,240,6|0,1:0|0:0,0:0:0:0:
451,13,69370,2,0,B|438:54|438:54|449:95,1,80,8|0,1:0|0:0,0:0:0:0:
296,189,69570,1,0,1:0:0:0:
296,189,69670,2,0,P|359:246|356:323,1,160,2|0,1:0|0:0,0:0:0:0:
129,253,69970,6,0,P|119:294|130:337,1,80,2|0,1:0|0:0,0:0:0:0:
207,290,70170,2,0,B|246:284|246:284|294:294,1,80,8|0,1:0|3:0,0:0:0:0:
84,188,70370,2,0,B|45:182|45:182|-3:192,1,80,2|0,1:0|3:0,0:0:0:0:
252,47,70570,6,0,P|199:113|57:61,1,240,6|0,1:0|0:0,0:0:0:0:
307,117,70970,2,0,P|313:144|305:201,1,80,8|0,1:0|0:0,0:0:0:0:
487,203,71170,1,0,1:0:0:0:
487,203,71270,2,0,P|384:215|369:287,1,160,0|0,1:0|0:0,0:0:0:0:
272,279,71570,6,0,B|267:318|267:318|274:361,1,80,2|0,1:0|0:0,0:0:0:0:
453,360,71770,2,0,B|459:319|459:319|454:280,1,80,10|0,1:0|0:0,0:0:0:0:
244,198,71970,2,0,L|159:208,1,80,0|0,3:0|3:0,0:0:0:0:
274,41,72170,6,0,P|217:120|86:71,1,240,4|0,1:2|0:0,0:0:0:0:
7,180,72570,2,0,L|92:178,1,80,8|0,1:0|0:0,0:0:0:0:
392,243,72770,1,4,1:2:0:0:
435,216,72870,1,0,0:0:0:0:
443,163,72970,6,0,P|418:119|375:95,1,100,2|0,1:0|0:0,0:0:0:0:
338,354,73170,2,0,P|387:350|427:321,1,100,0|0,1:0|1:0,0:0:0:0:
209,174,73370,2,0,P|200:227|233:295,1,100,8|0,1:0|0:0,0:0:0:0:
268,84,73570,5,0,1:0:0:0:
188,52,73670,5,0,3:0:0:0:
103,75,73770,6,0,B|57:213|159:180|127:332,1,255.000004863739,6|0,1:0|0:0,0:0:0:0:
42,359,74170,2,0,B|33:321|33:321|43:270,1,85.0000016212464,10|0,1:0|0:0,0:0:0:0:
200,350,74370,1,0,3:0:0:0:
274,368,74470,1,0,3:0:0:0:
335,319,74570,2,0,B|344:281|344:281|335:235,1,85.0000016212464,0|0,1:0|0:0,0:0:0:0:
509,291,74770,2,0,L|424:281,1,85.0000016212464,2|0,1:0|0:0,0:0:0:0:
468,127,74970,1,10,1:0:0:0:
504,150,75070,1,0,0:0:0:0:
504,189,75170,2,0,L|402:202,1,85.0000016212464,0|0,3:0|3:0,0:0:0:0:
281,21,75370,6,0,P|362:41|391:117,1,170.000003242493,6|0,1:0|3:0,0:0:0:0:
211,99,75670,1,0,3:0:0:0:
211,99,75770,2,0,L|111:97,1,85.0000016212464,8|0,1:0|0:0,0:0:0:0:
47,176,75970,2,0,B|90:186|90:186|144:177,1,85.0000016212464,2|0,1:0|0:0,0:0:0:0:
124,21,76170,2,0,B|83:14|83:14|40:24,1,85.0000016212464,2|0,1:0|0:0,0:0:0:0:
211,99,76370,2,0,L|296:98,1,85.0000016212464,0|0,3:0|3:0,0:0:0:0:
468,127,76570,2,0,L|383:126,1,85.0000016212464,10|0,1:0|0:0,0:0:0:0:
309,179,76770,2,0,P|302:222|315:276,1,85.0000016212464,2|0,1:0|3:0,0:0:0:0:
446,369,76970,6,0,P|377:294|221:336,1,255.000004863739,4|0,1:2|0:0,0:0:0:0:
211,216,77370,2,0,P|129:127|8:161,1,255.000004863739,4|0,1:2|0:0,0:0:0:0:
82,154,77770,2,0,P|124:155|160:178,1,85.0000016212464,4|0,1:2|0:0,0:0:0:0:
33,310,77970,2,0,P|15:272|20:231,1,85.0000016212464,2|0,1:0|0:0,0:0:0:0:
191,284,78170,2,0,P|170:320|123:345,1,85.0000016212464,10|0,1:0|0:0,0:0:0:0:
4,152,78370,6,0,L|0:59,1,85.0000016212464,4|0,1:2|3:0,0:0:0:0:
167,24,78570,2,0,B|123:32|123:32|68:23,1,85.0000016212464,6|0,1:0|0:0,0:0:0:0:
292,99,78770,2,0,B|248:91|248:91|208:97,1,85.0000016212464,2|0,1:0|0:0,0:0:0:0:
421,31,78970,2,0,B|377:39|377:39|337:32,1,85.0000016212464,8|0,1:0|0:0,0:0:0:0:
507,104,79170,2,0,B|463:96|463:96|423:103,1,85.0000016212464,2|0,1:0|3:0,0:0:0:0:
372,230,79370,5,4,1:2:0:0:
304,202,79470,5,4,3:3:0:0:
211,242,79570,5,10,1:0:0:0:
116,211,79670,5,4,3:0:0:0:
1,281,79770,6,0,B|93:271|68:321|178:309,1,170.000003242493,4|0,1:2|1:0,0:0:0:0:
264,365,80070,5,0,1:0:0:0:
355,309,80170,6,0,B|397:304|397:304|445:317,1,85.0000016212464,6|0,1:0|0:0,0:0:0:0:
433,109,80370,2,0,B|391:120|391:120|347:111,1,85.0000016212464,2|0,1:0|3:0,0:0:0:0:
249,214,80570,2,0,L|504:211,1,255.000004863739,10|0,1:0|0:0,0:0:0:0:
271,130,80970,6,0,P|216:124|181:133,1,85.0000016212464,0|0,1:0|0:0,0:0:0:0:
200,293,81170,2,0,P|241:300|283:293,1,85.0000016212464,0|0,3:0|3:0,0:0:0:0:
145,214,81370,2,0,P|71:243|85:346,1,170.000003242493,10|0,1:0|3:0,0:0:0:0:
92,131,81670,5,0,3:0:0:0:
92,131,81770,2,0,P|83:89|97:30,1,85.0000016212464,6|0,1:0|0:0,0:0:0:0:
268,46,81970,2,0,P|277:88|263:147,1,85.0000016212464,0|0,3:0|3:0,0:0:0:0:
174,91,82170,2,0,L|178:3,1,85.0000016212464,10|0,1:0|0:0,0:0:0:0:
321,228,82370,2,0,L|224:194,1,85.0000016212464,2|0,1:0|0:0,0:0:0:0:
90,229,82570,2,0,B|180:206|180:206|253:229,1,170.000003242493,0|0,1:0|3:0,0:0:0:0:
389,172,82870,5,0,3:0:0:0:
389,172,82970,2,0,B|431:183|431:183|486:169,1,85.0000016212464,10|0,1:0|0:0,0:0:0:0:
467,51,83170,2,0,B|425:40|425:40|370:54,1,85.0000016212464,0|0,3:0|3:0,0:0:0:0:
280,62,83370,6,0,B|232:208|358:174|324:334,1,255.000004863739,6|0,1:0|0:0,0:0:0:0:
239,361,83770,2,0,P|232:317|241:271,1,85.0000016212464,10|0,1:0|0:0,0:0:0:0:
417,273,83970,2,0,P|423:314|416:356,1,85.0000016212464,2|0,1:0|0:0,0:0:0:0:
390,179,84170,6,0,P|437:177|510:276,1,170.000003242493,2|0,1:0|3:0,0:0:0:0:
424,97,84470,1,2,1:0:0:0:
424,97,84570,2,0,L|428:12,1,85.0000016212464,8|0,1:0|0:0,0:0:0:0:
320,104,84770,6,0,P|276:108|234:104,1,85.0000016212464,2|0,1:0|3:0,0:0:0:0:
239,302,84970,2,0,P|283:298|325:302,1,85.0000016212464,2|0,1:0|0:0,0:0:0:0:
330,206,85170,1,2,1:0:0:0:
263,184,85270,1,0,3:0:0:0:
192,211,85370,2,0,B|149:204|149:204|81:212,1,85.0000016212464,10|0,1:0|0:0,0:0:0:0:
34,121,85570,2,0,B|77:128|77:128|145:120,1,85.0000016212464,2|0,1:0|0:0,0:0:0:0:
156,302,85770,5,4,1:2:0:0:
93,363,85870,5,4,3:0:0:0:
14,325,85970,6,0,P|7:284|16:238,1,85.0000016212464,2|4,1:0|3:0,0:0:0:0:
212,87,86170,6,0,L|320:88,1,85.0000016212464,8|0,1:0|0:0,0:0:0:0:
497,241,86370,6,0,P|504:283|498:325,1,85.0000016212464,4|0,1:2|1:0,0:0:0:0:
428,356,86570,5,4,1:0:0:0:
355,322,86770,1,0,1:0:0:0:
340,313,86870,1,0,0:0:0:0:
324,305,86970,1,8,1:2:0:0:
257,262,87170,1,0,1:0:0:0:
242,253,87270,1,4,3:0:0:0:
180,207,87470,1,0,1:0:0:0:
165,198,87570,1,4,3:0:0:0:
150,188,87670,1,0,3:0:0:0:
134,180,87770,1,8,1:2:0:0:
433,89,87970,5,0,1:0:0:0:
433,89,88070,1,0,1:0:0:0:
433,89,88170,1,0,1:0:0:0:
360,123,88370,1,0,1:0:0:0:
345,132,88470,1,0,0:0:0:0:
329,140,88570,1,0,1:0:0:0:
262,183,88770,1,0,1:0:0:0:
247,192,88870,1,4,3:0:0:0:
185,238,89070,1,0,1:0:0:0:
171,249,89170,6,0,B|122:236|122:236|58:255,1,100,4|0,1:2|0:0,0:0:0:0:
247,64,89370,5,4,1:0:0:0:
