osu file format v14

[General]
AudioFilename: function.mp3
AudioLeadIn: 0
PreviewTime: 5970
Countdown: 0
SampleSet: None
StackLeniency: 0.7
Mode: 0
LetterboxInBreaks: 0
WidescreenStoryboard: 0

[Editor]
DistanceSpacing: 0.2
BeatDivisor: 4
GridSize: 8
TimelineZoom: 1

[Metadata]
Title:Ochame Kinou
TitleUnicode:
Artist:Lon
ArtistUnicode:
Creator:Jounzan
Version:dab
Source:
Tags:AgeSheRi Xinely Lasse Mirash Akitoshi gojimaji-p kasane teto utau utaite ron fukkireta lamaze-p
BeatmapID:1398211
BeatmapSetID:527414

[Difficulty]
HPDrainRate:7
CircleSize:4
OverallDifficulty:8
ApproachRate:8
SliderMultiplier:1.6
SliderTickRate:1

[Events]
//Background and Video events
0,0,"function.jpg",0,0
//Break Periods
2,19570,21820
//Storyboard Layer 0 (Background)
//Storyboard Layer 1 (Fail)
//Storyboard Layer 2 (Pass)
//Storyboard Layer 3 (Foreground)
//Storyboard Sound Samples

[TimingPoints]
170,400,4,2,1,50,1,0
59370,-50,4,2,1,50,0,0
60970,-100,4,2,1,50,0,0

[Colours]
Combo1 : 255,0,128
Combo2 : 255,102,179
Combo3 : 255,55,55
SliderBorder : 17,254,176
SliderTrackOverride : 173,255,95

[HitObjects]
176,344,170,6,0,B|219:340|280:336,1,80
255,337,470,1,0,0:0:0:0:
255,337,570,1,0,0:0:0:0:
256,192,770,1,0,0:0:0:0:
256,192,870,1,0,0:0:0:0:
256,48,1070,1,0,0:0:0:0:
256,48,1170,1,0,0:0:0:0:
192,88,1370,1,0,0:0:0:0:
256,120,1570,1,0,0:0:0:0:
320,88,1770,5,0,0:0:0:0:
400,192,1970,1,0,0:0:0:0:
400,192,2070,1,0,0:0:0:0:
400,192,2170,1,0,0:0:0:0:
320,296,2370,1,0,0:0:0:0:
312,304,2470,1,0,0:0:0:0:
256,248,2670,1,0,0:0:0:0:
248,240,2770,1,0,0:0:0:0:
192,296,2970,1,0,0:0:0:0:
144,192,3170,1,0,0:0:0:0:
192,88,3370,6,0,B|96:104,1,80
113,101,3670,1,0,0:0:0:0:
113,101,3770,1,0,0:0:0:0:
280,96,3970,2,0,B|304:32,1,40
216,280,4270,2,0,B|192:344,1,40
208,168,4570,5,0,0:0:0:0:
304,232,4770,1,0,0:0:0:0:
304,232,4870,1,0,0:0:0:0:
304,232,4970,1,0,0:0:0:0:
280,96,5270,1,0,0:0:0:0:
160,176,5570,1,0,0:0:0:0:
160,176,6570,6,0,B|224:168|264:176,1,80
352,208,6970,2,0,B|288:216|248:208,1,80
80,88,7370,2,0,B|144:104|208:72,1,120
208,64,7770,2,0,B|248:48|312:48,1,80
376,64,8170,5,0,0:0:0:0:
456,104,8370,1,0,0:0:0:0:
416,184,8570,1,0,0:0:0:0:
336,144,8770,1,0,0:0:0:0:
288,216,8970,2,0,B|264:288|304:352,1,120
320,352,9370,2,0,B|232:368,1,80
168,320,9770,5,0,0:0:0:0:
184,192,9970,1,0,0:0:0:0:
112,240,10170,1,0,0:0:0:0:
128,112,10370,1,0,0:0:0:0:
216,88,10570,2,0,B|296:112|352:104,1,120
368,96,10970,1,0,0:0:0:0:
408,24,11170,1,0,0:0:0:0:
328,176,11370,5,0,0:0:0:0:
400,232,11570,1,0,0:0:0:0:
400,232,11670,1,0,0:0:0:0:
400,232,11770,1,0,0:0:0:0:
256,304,11970,1,0,0:0:0:0:
208,144,12170,1,0,0:0:0:0:
208,144,12270,1,0,0:0:0:0:
208,144,12370,1,0,0:0:0:0:
144,216,12570,5,0,0:0:0:0:
328,256,12770,1,0,0:0:0:0:
272,64,12970,2,0,B|224:56|184:56,1,80
128,136,13370,2,0,B|176:144|216:144,1,80
296,160,13770,2,0,B|328:128|376:120|424:152,1,120
406,142,14170,1,0,0:0:0:0:
448,216,14370,1,0,0:0:0:0:
328,256,14570,6,0,B|288:272|240:272,1,80
192,80,14970,2,0,B|232:64|296:64,1,80
256,176,15370,2,0,B|192:168|136:144,1,120
256,176,15770,2,0,B|320:184|360:200,1,80
408,256,16170,6,0,B|424:152,1,80
192,344,16570,2,0,B|296:360,1,80
120,120,16970,2,0,B|104:240,2,120
184,56,17770,6,0,B|240:40|280:56,1,80
280,56,18070,1,0,0:0:0:0:
296,64,18170,1,0,0:0:0:0:
248,216,18370,1,0,0:0:0:0:
248,216,18670,5,0,0:0:0:0:
248,216,18770,1,0,0:0:0:0:
208,144,18970,5,0,0:0:0:0:
288,288,19170,1,0,0:0:0:0:
288,288,19270,1,0,0:0:0:0:
288,288,19370,1,0,0:0:0:0:
128,328,22570,6,0,B|120:256|128:160,1,160
200,208,23170,1,0,0:0:0:0:
280,240,23370,2,0,B|360:232|448:232,1,160
400,312,23970,1,0,0:0:0:0:
352,144,24170,6,0,B|336:32,1,80
176,152,24570,2,0,B|81:130,1,80
248,32,24970,2,0,B|264:136,1,80
96,256,25370,2,0,B|190:234,1,80
416,216,25770,6,0,B|360:208|272:208,1,120
296,208,26170,1,0,0:0:0:0:
288,296,26370,1,0,0:0:0:0:
184,160,26570,2,0,B|200:88|192:16,1,120
194,40,26970,2,0,B|240:48|288:48,1,80
368,112,27370,5,0,0:0:0:0:
440,168,27570,1,0,0:0:0:0:
384,240,27770,1,0,0:0:0:0:
312,184,27970,1,0,0:0:0:0:
368,112,28170,2,0,B|416:112|456:104,1,80
144,272,28570,2,0,B|96:272|56:280,1,80
208,160,28970,6,0,B|232:88|208:16,1,120
215,41,29370,2,0,B|304:56,1,80
400,144,29770,2,0,B|352:128|296:160,1,80
321,147,30070,1,0,0:0:0:0:
321,147,30170,1,0,0:0:0:0:
280,224,30370,1,0,0:0:0:0:
312,312,30570,1,0,0:0:0:0:
280,224,30770,5,0,0:0:0:0:
160,296,30970,1,0,0:0:0:0:
128,144,31170,1,0,0:0:0:0:
384,248,31370,5,0,0:0:0:0:
336,56,31570,1,0,0:0:0:0:
336,56,31670,1,0,0:0:0:0:
336,56,31770,1,0,0:0:0:0:
312,216,31970,5,0,0:0:0:0:
312,216,32070,1,0,0:0:0:0:
312,216,32170,2,0,B|256:224|208:216,1,80
222,225,32470,1,0,0:0:0:0:
211,229,32570,1,0,0:0:0:0:
184,136,32770,1,0,0:0:0:0:
184,136,32870,1,0,0:0:0:0:
184,136,32970,2,0,B|288:128,1,80
273,137,33270,1,0,0:0:0:0:
282,143,33370,1,0,0:0:0:0:
240,320,33570,5,0,0:0:0:0:
128,224,33770,1,0,0:0:0:0:
248,64,33970,5,0,0:0:0:0:
304,256,34170,1,0,0:0:0:0:
352,96,34370,1,0,0:0:0:0:
208,232,34570,1,0,0:0:0:0:
368,192,34770,1,0,0:0:0:0:
184,136,34970,1,0,0:0:0:0:
272,160,35170,5,0,0:0:0:0:
272,160,35270,1,0,0:0:0:0:
272,160,35370,2,0,B|328:200|400:176|408:112,1,160
328,72,35970,1,0,0:0:0:0:
232,240,36170,2,0,B|176:280|104:256|96:192,1,160
184,136,36770,1,0,0:0:0:0:
320,280,36970,5,0,0:0:0:0:
208,344,37170,1,0,0:0:0:0:
320,360,37370,1,0,0:0:0:0:
232,176,37570,1,0,0:0:0:0:
240,272,37770,1,0,0:0:0:0:
384,216,37970,1,0,0:0:0:0:
384,216,38070,1,0,0:0:0:0:
384,216,38170,1,0,0:0:0:0:
232,176,38370,1,0,0:0:0:0:
304,56,38570,6,0,B|312:224,1,160
240,272,39170,1,0,0:0:0:0:
224,16,39370,2,0,B|232:184,1,160
136,256,39970,1,0,0:0:0:0:
72,192,40170,1,0,0:0:0:0:
232,176,40370,1,0,0:0:0:0:
160,128,40570,1,0,0:0:0:0:
184,344,40770,1,0,0:0:0:0:
368,256,40970,6,0,B|424:256|464:264,1,80
136,256,41370,2,0,B|80:256|40:248,1,80,0|0,0:0|0:0,0:0:0:0:
304,328,41770,5,0,0:0:0:0:
216,272,41970,1,0,0:0:0:0:
216,272,42070,1,0,0:0:0:0:
216,272,42170,1,0,0:0:0:0:
296,216,42370,1,0,0:0:0:0:
160,88,42570,5,0,0:0:0:0:
192,192,42770,1,0,0:0:0:0:
192,192,42870,1,0,0:0:0:0:
192,192,42970,1,0,0:0:0:0:
80,168,43170,1,0,0:0:0:0:
256,112,43370,6,0,B|320:120|360:136,1,80
416,128,43770,1,0,0:0:0:0:
392,48,43970,1,0,0:0:0:0:
328,208,44170,2,0,B|328:256|336:304,1,80
333,287,44470,1,0,0:0:0:0:
333,287,44570,2,0,B|240:296,1,80
112,224,44970,6,0,B|176:208|248:216,1,120
231,214,45370,1,0,0:0:0:0:
231,214,45570,1,0,0:0:0:0:
400,128,45770,2,0,B|336:112|264:120,1,120
280,118,46170,1,0,0:0:0:0:
280,118,46370,1,0,0:0:0:0:
216,48,46570,5,0,0:0:0:0:
328,216,46770,1,0,0:0:0:0:
200,144,46970,1,0,0:0:0:0:
304,32,47170,5,0,0:0:0:0:
232,224,47370,1,0,0:0:0:0:
144,88,47570,1,0,0:0:0:0:
280,118,47770,1,0,0:0:0:0:
416,144,47970,1,0,0:0:0:0:
416,144,48070,1,0,0:0:0:0:
416,144,48170,1,0,0:0:0:0:
384,64,48370,5,0,0:0:0:0:
336,184,48570,1,0,0:0:0:0:
336,184,48670,1,0,0:0:0:0:
336,184,48770,1,0,0:0:0:0:
464,240,48970,1,0,0:0:0:0:
464,240,49070,1,0,0:0:0:0:
464,240,49170,2,0,B|496:168,1,80
376,280,49570,1,0,0:0:0:0:
376,280,49670,1,0,0:0:0:0:
272,240,49870,5,0,0:0:0:0:
272,240,49970,1,0,0:0:0:0:
272,240,50070,1,0,0:0:0:0:
272,240,50170,2,0,B|224:224|176:232,1,80
112,264,50570,2,0,B|48:264|24:256,2,80
216,128,51170,5,0,0:0:0:0:
216,128,51270,1,0,0:0:0:0:
216,128,51370,1,0,0:0:0:0:
128,88,51570,1,0,0:0:0:0:
136,176,51770,1,0,0:0:0:0:
216,216,51970,1,0,0:0:0:0:
296,168,52170,1,0,0:0:0:0:
328,160,52270,1,0,0:0:0:0:
360,160,52370,1,0,0:0:0:0:
416,232,52570,5,0,0:0:0:0:
416,232,52670,1,0,0:0:0:0:
416,232,52770,1,0,0:0:0:0:
416,232,52870,1,0,0:0:0:0:
416,232,52970,2,0,B|400:320,1,80
401,310,53270,1,0,0:0:0:0:
401,310,53370,1,0,0:0:0:0:
376,296,53470,1,0,0:0:0:0:
344,296,53570,1,0,0:0:0:0:
312,304,53670,1,0,0:0:0:0:
288,328,53770,1,0,0:0:0:0:
128,240,53970,1,0,0:0:0:0:
240,112,54170,1,0,0:0:0:0:
248,224,54370,5,0,0:0:0:0:
248,224,54470,1,0,0:0:0:0:
248,224,54570,1,0,0:0:0:0:
280,216,54670,1,0,0:0:0:0:
312,224,54770,1,0,0:0:0:0:
344,216,54870,1,0,0:0:0:0:
376,224,54970,1,0,0:0:0:0:
464,200,55170,1,0,0:0:0:0:
464,200,55270,1,0,0:0:0:0:
464,200,55370,1,0,0:0:0:0:
464,200,55470,1,0,0:0:0:0:
464,200,55570,1,0,0:0:0:0:
448,112,55770,1,0,0:0:0:0:
368,64,55970,5,0,0:0:0:0:
360,80,56070,1,0,0:0:0:0:
352,96,56170,2,0,B|312:64|256:64,2,80
368,128,56670,1,0,0:0:0:0:
376,160,56770,1,0,0:0:0:0:
368,192,56870,1,0,0:0:0:0:
352,216,56970,1,0,0:0:0:0:
320,232,57070,1,0,0:0:0:0:
288,232,57170,1,0,0:0:0:0:
208,176,57370,1,0,0:0:0:0:
264,96,57570,5,0,0:0:0:0:
249,88,57670,1,0,0:0:0:0:
262,79,57770,1,0,0:0:0:0:
247,72,57870,1,0,0:0:0:0:
260,63,57970,1,0,0:0:0:0:
245,56,58070,1,0,0:0:0:0:
259,48,58170,1,0,0:0:0:0:
152,40,58370,5,0,0:0:0:0:
152,72,58470,1,0,0:0:0:0:
152,104,58570,1,0,0:0:0:0:
152,136,58670,1,0,0:0:0:0:
152,168,58770,1,0,0:0:0:0:
152,200,58870,1,0,0:0:0:0:
152,232,58970,1,0,0:0:0:0:
152,264,59070,1,0,0:0:0:0:
152,296,59170,1,0,0:0:0:0:
152,328,59270,1,0,0:0:0:0:
152,360,59370,2,0,B|424:360,2,240
320,104,60970,6,0,B|280:80|216:72,1,80
152,176,61370,2,0,B|192:200|256:208,1,80
226,203,61670,2,0,B|288:184|352:224,1,120
360,296,62170,1,0,0:0:0:0:
280,280,62370,1,0,0:0:0:0:
456,144,62570,5,0,0:0:0:0:
456,256,62770,1,0,0:0:0:0:
360,104,62970,1,0,0:0:0:0:
360,296,63170,1,0,0:0:0:0:
360,296,63270,1,0,0:0:0:0:
360,296,63370,1,0,0:0:0:0:
256,64,63570,5,0,0:0:0:0:
256,336,63770,1,0,0:0:0:0:
256,64,63970,1,0,0:0:0:0:
256,192,64170,5,0,0:0:0:0:
256,192,64370,1,0,0:0:0:0:
256,192,64570,2,0,B|320:192|360:184,1,80
352,176,64870,2,0,B|432:160|464:224,1,120
312,272,65370,1,0,0:0:0:0:
272,104,65570,1,0,0:0:0:0:
184,144,65770,5,0,0:0:0:0:
112,184,65970,1,0,0:0:0:0:
112,184,66070,1,0,0:0:0:0:
112,184,66170,2,0,B|48:192|24:160,1,80
272,272,66570,5,0,0:0:0:0:
272,272,66670,1,0,0:0:0:0:
272,272,66770,1,0,0:0:0:0:
184,144,66970,1,0,0:0:0:0:
384,128,67170,1,0,0:0:0:0:
384,128,67270,1,0,0:0:0:0:
384,128,67370,2,0,B|432:136|472:160,1,80
376,280,67770,5,0,0:0:0:0:
336,208,67970,1,0,0:0:0:0:
336,208,68070,2,0,B|299:179|256:183|256:183|232:160,1,120
312,112,68570,1,0,0:0:0:0:
272,264,68770,1,0,0:0:0:0:
192,232,68970,6,0,B|144:224|112:240,1,80
56,304,69370,1,0,0:0:0:0:
16,224,69570,1,0,0:0:0:0:
16,224,69670,1,0,0:0:0:0:
16,224,69770,1,0,0:0:0:0:
160,304,69970,1,0,0:0:0:0:
136,160,70170,1,0,0:0:0:0:
280,208,70370,1,0,0:0:0:0:
368,184,70570,6,0,B|448:176,1,80
304,112,70970,1,0,0:0:0:0:
256,296,71170,1,0,0:0:0:0:
256,296,71270,2,0,B|192:312|144:272,1,120
200,112,71770,1,0,0:0:0:0:
280,208,71970,1,0,0:0:0:0:
80,240,72170,5,0,0:0:0:0:
160,192,72370,1,0,0:0:0:0:
160,192,72470,1,0,0:0:0:0:
160,192,72570,1,0,0:0:0:0:
80,144,72770,1,0,0:0:0:0:
80,144,72870,2,0,B|64:96|96:48,1,80
96,56,73170,5,0,0:0:0:0:
200,112,73370,1,0,0:0:0:0:
296,40,73570,1,0,0:0:0:0:
296,40,73670,1,0,0:0:0:0:
296,40,73770,2,0,B|304:128,1,80
320,296,74170,1,0,0:0:0:0:
190,190,74370,5,0,0:0:0:0:
196,194,74470,1,0,0:0:0:0:
202,198,74570,2,0,B|243:193|299:193,1,80
224,304,74970,1,0,0:0:0:0:
192,312,75070,1,0,0:0:0:0:
160,320,75170,1,0,0:0:0:0:
104,224,75370,5,0,0:0:0:0:
64,344,75570,1,0,0:0:0:0:
32,144,75770,1,0,0:0:0:0:
32,144,75870,1,0,0:0:0:0:
32,144,75970,1,0,0:0:0:0:
104,224,76170,5,0,0:0:0:0:
128,48,76370,1,0,0:0:0:0:
200,152,76570,1,0,0:0:0:0:
200,152,76670,1,0,0:0:0:0:
200,152,76770,1,0,0:0:0:0:
248,80,76970,6,0,B|296:56|344:80,1,80
352,88,77270,1,0,0:0:0:0:
352,88,77370,2,0,B|416:104|416:104|456:56|520:72,2,160
272,176,78370,1,0,0:0:0:0:
304,288,78570,1,0,0:0:0:0:
368,208,78770,1,0,0:0:0:0:
208,256,78970,1,0,0:0:0:0:
240,384,79170,5,0,0:0:0:0:
120,232,79370,1,0,0:0:0:0:
120,232,79470,1,0,0:0:0:0:
120,232,79570,1,0,0:0:0:0:
272,96,79770,1,0,0:0:0:0:
40,200,79970,5,0,0:0:0:0:
40,200,80070,1,0,0:0:0:0:
40,200,80170,2,0,B|16:136|24:96,2,80
208,136,80770,1,0,0:0:0:0:
120,160,80970,2,0,B|120:120|144:56,1,80
264,200,81370,5,0,0:0:0:0:
344,168,81570,1,0,0:0:0:0:
424,224,81770,2,0,B|440:320,1,80
320,344,82170,1,0,0:0:0:0:
248,296,82370,2,0,B|152:264|80:336,1,160
97,320,82970,1,0,0:0:0:0:
208,200,83170,6,0,B|312:184,1,80
360,128,83570,1,0,0:0:0:0:
360,128,83670,1,0,0:0:0:0:
360,128,83770,2,0,B|392:80|456:72|504:112,2,160
320,304,84770,5,0,0:0:0:0:
320,304,84870,1,0,0:0:0:0:
320,304,84970,1,0,0:0:0:0:
392,248,85170,1,0,0:0:0:0:
312,208,85370,1,0,0:0:0:0:
240,264,85570,2,0,B|192:240|176:176,1,80
184,176,85870,1,0,0:0:0:0:
184,176,85970,1,0,0:0:0:0:
256,32,86170,5,0,0:0:0:0:
256,352,86370,1,0,0:0:0:0:
256,352,86470,1,0,0:0:0:0:
256,352,86570,1,0,0:0:0:0:
256,192,86770,12,0,89170,0:0:0:0:
144,256,89370,5,0,0:0:0:0:
