osu file format v14

[General]
AudioFilename: audio.mp3
AudioLeadIn: 0
PreviewTime: 60400
Countdown: 1
SampleSet: Normal
StackLeniency: 0.7
Mode: 0
LetterboxInBreaks: 0
WidescreenStoryboard: 1

[Editor]
DistanceSpacing: 1.3
BeatDivisor: 4
GridSize: 8
TimelineZoom: 1

[Metadata]
Title:Mischievous Function
TitleUnicode:Mischievous Function
Artist:Lon
ArtistUnicode:Lon
Creator:Cthaere
Version:Extra (WIP)
Source:
Tags:
BeatmapID:1898318
BeatmapSetID:909648

[Difficulty]
HPDrainRate:6
CircleSize:4.5
OverallDifficulty:7.2
ApproachRate:8.1
SliderMultiplier:2
SliderTickRate:1

[Events]
//Background and Video events
//Break Periods
//Storyboard Layer 0 (Background)
//Storyboard Layer 1 (Fail)
//Storyboard Layer 2 (Pass)
//Storyboard Layer 3 (Foreground)
//Storyboard Sound Samples

[TimingPoints]
200,400,4,1,0,100,1,0
200,-100,4,1,0,25,0,0
4600,-75.0000000000019,4,1,0,25,0,0
5000,-75.0000000000019,4,1,0,50,0,0
5200,-75.0000000000019,4,1,0,5,0,0
5300,-75.0000000000019,4,1,0,50,0,0
5500,-75.0000000000019,4,1,0,5,0,0
5600,-75.0000000000019,4,1,0,50,0,0
5800,-75.0000000000019,4,1,0,5,0,0
6600,-75.0000000000019,4,1,0,50,0,1
19400,-100,4,1,0,33,0,0
48200,-85.7142857147755,4,1,0,33,0,0
61000,-66.6666666666667,4,1,0,50,0,1
86400,-100,4,1,0,33,0,0

[HitObjects]
104,0,200,5,0,0:0:0:0:
231,11,400,1,0,0:0:0:0:
231,11,500,1,0,0:0:0:0:
231,11,600,1,0,0:0:0:0:
148,165,800,2,0,L|196:133,1,50
245,94,1000,1,0,0:0:0:0:
189,137,1100,2,0,L|147:164,2,50
307,44,1400,1,0,0:0:0:0:
290,194,1600,1,0,0:0:0:0:
219,86,1800,5,0,0:0:0:0:
208,213,2000,1,0,0:0:0:0:
208,213,2100,1,0,0:0:0:0:
208,213,2200,1,0,0:0:0:0:
92,138,2400,2,0,L|103:194,1,50
108,254,2600,1,0,0:0:0:0:
100,185,2700,2,0,L|89:136,2,50
118,334,3000,1,0,0:0:0:0:
208,213,3200,1,0,0:0:0:0:
230,363,3400,5,0,0:0:0:0:
334,289,3600,1,0,0:0:0:0:
334,289,3700,1,0,0:0:0:0:
334,289,3800,1,0,0:0:0:0:
208,213,4000,2,0,L|255:181,1,50
301,142,4200,1,0,0:0:0:0:
246,185,4300,2,0,L|203:211,2,50
427,42,4600,1,0,0:0:0:0:
301,142,4800,1,0,0:0:0:0:
113,288,5000,6,0,L|241:208,1,133.333333333333
399,288,5300,2,0,L|271:208,1,133.333333333333
256,32,5600,2,0,L|256:168,1,133.333333333333
48,96,6600,5,0,0:0:0:0:
259,113,6800,1,0,0:0:0:0:
259,113,6900,1,0,0:0:0:0:
259,113,7000,1,0,0:0:0:0:
76,222,7200,2,0,L|112:160,1,66.6666666666667
232,0,7400,2,0,L|246:68,1,66.6666666666667
279,206,7600,1,0,0:0:0:0:
304,0,7800,1,0,0:0:0:0:
424,175,8000,1,0,0:0:0:0:
170,82,8200,5,0,0:0:0:0:
260,273,8400,1,0,0:0:0:0:
260,273,8500,1,0,0:0:0:0:
260,273,8600,1,0,0:0:0:0:
332,75,8800,2,0,L|296:137,1,66.6666666666667
176,297,9000,2,0,L|242:277,1,66.6666666666667
377,232,9200,1,0,0:0:0:0:
182,216,9400,1,0,0:0:0:0:
368,144,9600,1,0,0:0:0:0:
232,377,9800,5,0,0:0:0:0:
248,165,10000,1,0,0:0:0:0:
248,165,10100,1,0,0:0:0:0:
248,165,10200,1,0,0:0:0:0:
343,309,10400,2,0,L|273:290,1,66.6666666666667
76,262,10600,2,0,L|133:223,1,66.6666666666667
248,165,10800,1,0,0:0:0:0:
133,349,11000,1,0,0:0:0:0:
178,144,11200,1,0,0:0:0:0:
360,192,11400,5,0,0:0:0:0:
360,192,11700,1,0,0:0:0:0:
360,192,11800,1,0,0:0:0:0:
360,192,12000,1,0,0:0:0:0:
112,280,12200,1,0,0:0:0:0:
330,127,12400,1,0,0:0:0:0:
90,15,12600,1,0,0:0:0:0:
290,312,13000,5,0,0:0:0:0:
82,348,13200,2,0,L|144:304,1,66.6666666666667
254,225,13400,1,0,0:0:0:0:
81,209,13600,2,0,L|145:177,1,66.6666666666667
323,87,13800,2,0,L|259:119,1,66.6666666666667
140,179,14000,1,0,0:0:0:0:
335,258,14200,1,0,0:0:0:0:
187,106,14400,1,0,0:0:0:0:
279,360,14600,5,0,0:0:0:0:
384,176,14800,2,0,L|304:200,1,66.6666666666667
191,237,15000,1,0,0:0:0:0:
360,112,15200,2,0,L|289:97,1,66.6666666666667
94,56,15400,2,0,L|164:70,1,66.6666666666667
294,98,15600,1,0,0:0:0:0:
86,127,15800,1,0,0:0:0:0:
268,235,16000,1,0,0:0:0:0:
129,0,16200,5,0,0:0:0:0:
148,210,16400,2,0,L|174:138,1,66.6666666666667
222,12,16600,1,0,0:0:0:0:
317,190,16800,2,0,L|263:237,1,66.6666666666667
114,370,17000,2,0,L|167:322,1,66.6666666666667
266,233,17200,1,0,0:0:0:0:
58,204,17400,1,0,0:0:0:0:
252,123,17600,1,0,0:0:0:0:
223,331,17800,5,0,0:0:0:0:
223,331,18100,1,0,0:0:0:0:
223,331,18200,1,0,0:0:0:0:
223,331,18400,1,0,0:0:0:0:
172,61,18600,5,0,0:0:0:0:
439,10,18800,1,0,0:0:0:0:
490,280,19000,1,0,0:0:0:0:
327,174,19200,1,0,0:0:0:0:
327,174,19300,1,0,0:0:0:0:
327,174,19400,5,0,0:0:0:0:
