osu file format v14

[General]
AudioFilename: audio.mp3
AudioLeadIn: 0
PreviewTime: 127063
Countdown: 0
SampleSet: Soft
StackLeniency: 0.7
Mode: 0
LetterboxInBreaks: 0
WidescreenStoryboard: 1

[Editor]
Bookmarks: 800,38382,72668,106953,138602,180799,216404
DistanceSpacing: 1.3
BeatDivisor: 4
GridSize: 4
TimelineZoom: 2.3

[Metadata]
Title:Triple Sweetness
TitleUnicode:δΈ‰εˆ†η”œ
Artist:Lolly Talk
ArtistUnicode:Lolly Talk
Creator:KennethBBG
Version:Mana x Yae's Insane
Source:
Tags:Aurorance BlackBN blackbq Sayumana Niizuma Yae Yayoi Takatsuki Cantopop Cantonese Chinese Pop Rock
BeatmapID:4520950
BeatmapSetID:2146320

[Difficulty]
HPDrainRate:5
CircleSize:3.8
OverallDifficulty:8
ApproachRate:9
SliderMultiplier:1.62
SliderTickRate:1

[Events]
//Background and Video events
0,0,"292637332_161557643080574_4383934291168767068_n.jpg",0,0
//Break Periods
2,117703,122013
2,170449,180199
//Storyboard Layer 0 (Background)
//Storyboard Layer 1 (Fail)
//Storyboard Layer 2 (Pass)
//Storyboard Layer 3 (Foreground)
//Storyboard Layer 4 (Overlay)
//Storyboard Sound Samples

[TimingPoints]
800,329.67032967033,4,2,1,30,1,0
800,-125,4,2,1,30,0,0
6404,-333.333333333333,4,2,1,30,0,0
6734,329.67032967033,4,2,1,65,1,0
6734,-90.9090909090909,4,2,1,65,0,0
12008,-90.9090909090909,4,2,1,60,0,0
15964,-90.9090909090909,4,2,1,70,0,0
17283,-111.111111111111,4,2,1,70,0,0
17365,-111.111111111111,4,2,1,60,0,0
26514,-111.111111111111,4,2,1,50,0,0
27832,-100,4,2,1,65,0,0
35085,-100,4,2,1,70,0,0
38382,-111.111111111111,4,2,1,70,0,0
38464,-111.111111111111,4,2,1,65,0,0
54206,-100,4,2,1,65,0,0
56843,-100,4,2,1,70,0,0
61129,-100,4,2,1,50,0,0
61788,-166.666666666667,4,2,1,70,0,0
62118,-90.9090909090909,4,2,1,80,0,0
77942,-90.9090909090909,4,2,1,75,0,0
80580,-90.9090909090909,4,2,1,80,0,0
82887,-90.9090909090909,4,2,1,60,0,0
83382,-90.9090909090909,4,2,1,75,0,0
85360,-90.9090909090909,4,2,1,70,0,0
85854,-111.111111111111,4,2,1,70,0,0
85937,-111.111111111111,4,2,1,65,0,0
96404,-100,4,2,1,65,0,0
106953,-111.111111111111,4,2,1,70,0,0
117503,-125,4,2,1,50,0,0
122118,-125,4,2,1,65,0,0
122777,-100,4,2,1,60,0,0
125415,-100,4,2,1,65,0,0
127063,-100,4,2,1,55,0,0
127723,-166.666666666667,4,2,1,70,0,0
128052,-90.9090909090909,4,2,1,80,0,0
148986,-100,4,2,1,80,0,0
149151,-100,4,2,1,60,0,0
149481,-125,4,2,1,60,0,0
151624,-100,4,2,1,60,0,0
152118,-125,4,2,1,60,0,0
154261,-100,4,2,1,65,0,0
158382,-100,4,2,1,70,0,0
159536,-90.9090909090909,4,2,1,75,0,0
169096,-90.9090909090909,4,2,1,65,0,0
170250,-125,4,2,1,60,0,0
180799,-200,4,2,1,60,0,0
186074,-125,4,2,1,60,0,0
188712,-100,4,2,1,60,0,0
191349,-90.9090909090909,4,2,1,60,0,0
215744,-1000,4,2,1,60,0,0
216404,-90.9090909090909,4,2,1,60,0,0

[Colours]
Combo1 : 232,75,23
Combo2 : 122,232,23
Combo3 : 183,250,133
Combo4 : 252,131,131

[HitObjects]
349,29,6074,6,0,P|393:-3|441:3,1,97.2
496,59,6404,6,0,P|488:77|486:96,1,36.4499988876343
512,187,6734,6,0,P|467:175|422:171,1,89.1000027191163,6|0,3:2|0:0,0:0:0:0:
263,49,7063,2,0,P|275:93|294:134,1,89.1000027191163,2|2,3:2|0:2,0:0:0:0:
322,319,7393,1,0,3:2:0:0:
322,319,7558,1,0,0:0:0:0:
398,266,7723,2,0,P|348:227|264:245,1,133.650004078674,2|0,3:2|0:0,0:0:0:0:
212,290,8052,6,0,P|167:278|122:274,1,89.1000027191163,2|0,3:2|0:0,0:0:0:0:
36,192,8382,1,2,3:2:0:0:
180,114,8547,2,0,P|194:183|211:289,1,178.200005438233,2|0,0:2|0:0,0:0:0:0:
44,384,9041,2,0,P|38:335|29:278,1,89.1000027191163,2|0,3:2|0:0,0:0:0:0:
0,92,9371,6,0,P|45:104|90:108,1,89.1000027191163,6|0,3:2|0:0,0:0:0:0:
211,289,9701,2,0,P|166:277|121:273,1,89.1000027191163,2|0,3:2|0:0,0:0:0:0:
331,175,10030,1,2,3:2:0:0:
331,175,10195,1,0,0:0:0:0:
202,92,10360,2,0,P|213:135|221:185,1,89.1000027191163,2|0,3:2|0:0,0:0:0:0:
376,306,10690,6,0,P|423:289|448:166,1,178.200005438233,2|0,3:2|3:2,0:0:0:0:
507,38,11184,2,0,P|462:50|417:54,1,89.1000027191163,10|0,0:0|1:2,0:0:0:0:
202,92,11514,1,0,1:2:0:0:
331,175,11679,1,2,3:2:0:0:
331,175,11843,1,0,3:2:0:0:
297,0,12008,6,0,P|315:83|332:183,1,178.200005438233,6|0,3:2|3:2,0:0:0:0:
227,339,12503,1,0,0:0:0:0:
181,261,12668,2,0,P|256:250|308:300,1,133.650004078674,0|0,3:2|0:0,0:0:0:0:
380,349,12997,2,0,P|386:298|399:252,1,89.1000027191163,0|0,3:2|0:0,0:0:0:0:
512,108,13327,6,0,P|467:120|422:124,1,89.1000027191163,6|0,3:2|0:0,0:0:0:0:
208,93,13657,1,0,3:2:0:0:
265,0,13821,2,0,P|309:36|300:148,1,178.200005438233
181,261,14316,2,0,P|175:210|162:164,1,89.1000027191163,0|0,3:2|0:0,0:0:0:0:
265,0,14646,1,6,3:2:0:0:
61,111,14975,5,0,3:2:0:0:
61,111,15058,1,8,0:0:0:0:
61,111,15140,2,0,L|2:97,1,44.5500013595581,8|8,0:0|0:0,0:0:0:0:
173,181,15305,5,0,3:2:0:0:
173,181,15388,1,8,0:0:0:0:
173,181,15470,2,0,L|114:167,1,44.5500013595581,8|8,0:0|0:0,0:0:0:0:
287,251,15635,5,0,1:2:0:0:
287,251,15718,1,0,1:2:0:0:
287,251,15800,2,0,L|228:237,1,44.5500013595581,0|0,3:2|3:2,0:0:0:0:
158,290,15964,5,0,3:2:0:0:
305,163,16129,2,0,P|295:201|283:273,1,89.1000027191163,14|0,0:0|3:2,0:0:0:0:
347,358,16459,1,0,3:2:0:0:
173,181,16624,2,0,P|134:190|78:203,1,89.1000027191163,14|0,0:0|3:2,0:0:0:0:
355,366,16953,2,0,P|393:356|450:344,1,89.1000027191163,14|8,0:0|0:0,0:0:0:0:
441,345,17201,5,8,0:0:0:0:
441,345,17283,2,0,P|493:276|456:204,2,145.799995550537,4|2|2,3:2|3:2|3:2,0:0:0:0:
285,249,18272,1,2,3:2:0:0:
285,249,18437,2,0,P|222:246|175:285,1,109.349996662903,2|0,0:2|0:0,0:0:0:0:
130,336,18766,2,0,P|97:326|37:317,1,72.8999977752686,2|0,0:2|3:2,0:0:0:0:
0,193,19096,2,0,P|45:206|131:143,1,145.799995550537,2|0,0:2|0:0,0:0:0:0:
46,109,19591,1,2,3:2:0:0:
321,0,19920,6,0,P|309:63|294:167,2,145.799995550537,2|2|2,3:2|3:2|3:2,0:0:0:0:
512,179,20909,1,2,3:2:0:0:
512,179,21074,2,0,P|458:172|414:203,1,109.349996662903,2|0,0:2|0:0,0:0:0:0:
476,256,21404,2,0,B|397:264|413:211|317:219,1,145.799995550537,2|0,0:2|0:0,0:0:0:0:
267,251,21898,1,0,3:2:0:0:
144,384,22228,2,0,P|137:349|129:312,1,72.8999977752686,0|0,3:2|0:0,0:0:0:0:
129,312,22475,1,2,0:0:0:0:
128,312,22558,5,4,3:2:0:0:
0,140,22887,2,0,B|79:132|63:185|159:177,1,145.799995550537,2|2,3:2|3:2,0:0:0:0:
343,53,23547,1,2,3:2:0:0:
343,53,23712,1,2,0:2:0:0:
241,0,23876,2,0,P|255:70|271:158,2,145.799995550537,0|2|2,3:2|3:2|3:2,0:0:0:0:
241,0,24865,1,2,3:2:0:0:
268,143,25195,6,0,P|305:148|346:159,1,72.8999977752686,2|0,3:2|0:0,0:0:0:0:
424,116,25525,1,2,3:2:0:0:
424,116,25690,2,0,P|464:152|446:261,1,145.799995550537,2|2,0:2|0:2,0:0:0:0:
408,299,26184,1,2,3:2:0:0:
242,384,26514,6,0,P|211:376|153:366,1,72.8999977752686,0|2,3:2|0:2,0:0:0:0:
170,368,26761,1,2,0:2:0:0:
170,368,26843,1,2,3:2:0:0:
78,259,27008,1,2,0:2:0:0:
215,293,27173,1,2,3:2:0:0:
84,345,27338,1,2,0:2:0:0:
160,226,27503,1,0,3:2:0:0:
160,226,27668,1,2,0:2:0:0:
215,293,27832,6,0,P|281:274|351:265,1,121.5,4|0,3:2|0:0,0:0:0:0:
408,299,28162,2,0,P|415:255|423:216,1,81,10|0,3:2|0:0,0:0:0:0:
277,107,28492,2,0,P|269:146|262:186,1,81,2|0,3:2|3:2,0:0:0:0:
333,266,28821,1,2,0:2:0:0:
165,146,28986,6,0,B|108:145|118:184|43:181,1,121.5,10|0,0:0|0:0,0:0:0:0:
17,111,29316,2,0,P|72:106|103:134,1,81,2|8,3:2|0:0,0:0:0:0:
249,266,29646,2,0,P|262:187|279:96,1,162,2|0,0:2|3:2,0:0:0:0:
402,33,30140,1,10,0:0:0:0:
402,33,30470,6,0,P|394:76|388:120,1,81,2|0,3:2|0:0,0:0:0:0:
480,285,30799,1,10,3:2:0:0:
509,190,30964,2,0,P|456:185|392:232,1,121.5,2|0,0:2|0:0,0:0:0:0:
328,281,31294,2,0,P|290:272|227:264,1,81,2|0,3:2|0:0,0:0:0:0:
130,384,31624,6,0,P|117:305|100:214,1,162,10|0,0:0|3:2,0:0:0:0:
79,115,32118,2,0,P|42:124|-15:134,1,81,8|0,0:0|0:0,0:0:0:0:
148,39,32448,1,2,3:2:0:0:
148,39,32613,1,2,3:2:0:0:
235,94,32777,2,0,P|227:137|221:181,1,81,10|2,0:0|3:2,0:0:0:0:
248,265,33025,5,0,3:2:0:0:
248,265,33107,2,0,P|286:256|349:248,1,81,0|2,3:2|0:2,0:0:0:0:
482,162,33437,2,0,P|425:116|333:137,1,162,8|0,3:2|3:2,0:0:0:0:
221,173,33931,1,0,3:2:0:0:
221,173,34261,6,0,P|227:133|235:94,1,81,8|0,0:0|0:0,0:0:0:0:
314,22,34591,1,0,3:2:0:0:
124,113,34755,2,0,B|81:67|7:88|7:88|46:119,1,162,8|2,0:0|3:2,0:0:0:0:
169,16,35250,1,0,3:2:0:0:
221,173,35415,2,0,P|227:133|235:94,1,81,10|0,0:0|0:0,0:0:0:0:
62,220,35744,6,0,P|100:225|146:237,1,81,0|0,3:2|0:0,0:0:0:0:
270,302,36074,2,0,B|193:291|201:349|112:339,1,162,8|0,3:2|3:2,0:0:0:0:
0,384,36569,1,0,3:2:0:0:
0,384,36898,6,0,P|5:343|13:304,1,81,8|0,0:0|0:0,0:0:0:0:
154,155,37228,2,0,P|146:194|140:234,1,81,8|0,0:0|0:0,0:0:0:0:
117,340,37558,1,8,0:0:0:0:
117,340,37640,1,8,0:0:0:0:
117,340,37723,1,10,0:0:0:0:
42,207,37887,1,0,1:2:0:0:
145,238,38052,1,2,1:2:0:0:
13,304,38217,1,0,3:2:0:0:
145,238,38382,6,0,P|185:231|236:219,1,72.8999977752686,6|0,3:2|0:0,0:0:0:0:
338,333,38712,2,0,P|298:326|247:314,1,72.8999977752686,2|0,0:2|3:2,0:0:0:0:
391,220,39041,6,0,P|398:180|415:101,1,109.349996662903,10|0,3:2|0:0,0:0:0:0:
412,112,39371,1,2,3:2:0:0:
289,6,39536,6,0,P|218:0|170:51,2,145.799995550537,2|10|0,3:2|3:2|3:2,0:0:0:0:
326,128,40360,2,0,P|315:163|308:198,1,72.8999977752686,10|2,3:2|0:2,0:0:0:0:
308,198,40690,1,2,0:2:0:0:
146,353,41019,6,0,P|75:329|75:247,1,145.799995550537,2|2,3:2|0:2,0:0:0:0:
220,215,41514,2,0,P|209:250|202:285,1,72.8999977752686,2|8,3:2|0:0,0:0:0:0:
131,203,41843,1,2,0:2:0:0:
131,203,42008,1,0,3:2:0:0:
299,277,42173,6,0,P|352:264|414:253,1,109.349996662903,2|0,3:2|0:0,0:0:0:0:
405,254,42503,1,8,0:0:0:0:
486,86,42832,1,0,3:2:0:0:
486,86,42997,2,0,P|446:74|391:57,1,72.8999977752686,14|0,0:0|0:0,0:0:0:0:
315,170,43327,2,0,P|356:160|379:135,1,72.8999977752686,2|8,0:2|0:0,0:0:0:0:
243,28,43657,6,0,B|162:47|193:88|100:107,1,145.799995550537,6|2,3:2|0:2,0:0:0:0:
30,232,44151,2,0,P|21:194|8:148,1,72.8999977752686,2|8,3:2|0:0,0:0:0:0:
154,231,44481,2,0,P|146:266|136:301,1,72.8999977752686,2|0,0:2|3:2,0:0:0:0:
186,378,44810,1,2,3:2:0:0:
186,378,45140,5,8,0:0:0:0:
296,329,45305,1,0,3:2:0:0:
256,180,45470,1,0,3:2:0:0:
359,236,45635,1,14,0:0:0:0:
170,292,45964,5,2,0:2:0:0:
170,292,46129,1,8,0:0:0:0:
16,168,46294,6,0,P|83:161|122:85,1,145.799995550537,6|2,3:2|0:2,0:0:0:0:
42,92,46788,1,0,3:2:0:0:
185,15,46953,2,0,L|207:91,1,72.8999977752686,10|0,0:0|0:0,0:0:0:0:
205,85,47283,1,2,3:2:0:0:
260,240,47448,6,0,P|315:244|358:192,1,109.349996662903,2|0,3:2|0:0,0:0:0:0:
410,154,47777,2,0,P|393:221|372:313,1,145.799995550537,10|0,0:0|3:2,0:0:0:0:
234,373,48272,5,14,0:0:0:0:
302,337,48437,1,0,3:2:0:0:
181,273,48602,1,2,1:2:0:0:
181,273,48684,1,0,1:2:0:0:
181,273,48766,1,0,1:2:0:0:
236,116,48931,6,0,P|169:108|122:36,1,145.799995550537,6|2,3:2|0:2,0:0:0:0:
6,158,49426,1,0,3:2:0:0:
70,259,49591,2,0,P|79:206|89:142,1,109.349996662903,10|0,0:0|0:0,0:0:0:0:
88,152,49920,1,2,3:2:0:0:
245,87,50085,6,0,P|288:94|341:102,1,72.8999977752686,2|0,3:2|0:0,0:0:0:0:
423,172,50415,2,0,P|474:154|492:65,1,145.799995550537,8|0,0:0|3:2,0:0:0:0:
413,86,50909,5,14,0:0:0:0:
512,253,51239,1,2,0:2:0:0:
275,358,51569,6,0,P|291:283|302:212,1,145.799995550537,6|2,3:2|0:2,0:0:0:0:
232,94,52063,2,0,P|194:108|174:138,1,72.8999977752686,2|8,3:2|0:0,0:0:0:0:
109,257,52393,2,0,L|91:183,1,72.8999977752686,2|0,0:2|3:2,0:0:0:0:
159,44,52723,6,0,B|237:34|231:85|309:73,1,145.799995550537,2|8,3:2|0:0,0:0:0:0:
428,14,53382,1,0,3:2:0:0:
428,14,53547,6,0,L|404:110,1,72.8999977752686,14|0,0:0|0:0,0:0:0:0:
335,189,53876,2,0,L|352:259,1,72.8999977752686,2|0,0:2|1:2,0:0:0:0:
364,287,54124,1,0,3:2:0:0:
364,287,54206,6,0,P|330:312|281:307,1,81,6|0,3:2|0:0,0:0:0:0:
147,325,54536,2,0,P|158:286|166:246,1,81,2|0,3:2|0:0,0:0:0:0:
45,148,54865,2,0,P|52:187|64:226,1,81,2|0,3:2|0:0,0:0:0:0:
135,165,55195,1,2,3:2:0:0:
112,21,55360,6,0,P|162:75|260:66,1,162,2|0,0:2|0:0,0:0:0:0:
411,63,55854,2,0,P|400:104|393:147,1,81,2|0,3:2|0:0,0:0:0:0:
305,270,56184,2,0,P|292:199|274:129,1,121.5,2|0,3:2|0:0,0:0:0:0:
280,151,56514,5,0,1:2:0:0:
280,151,56596,1,0,1:2:0:0:
280,151,56679,1,2,1:2:0:0:
393,288,56843,5,4,3:2:0:0:
393,288,57173,5,8,3:2:0:0:
272,353,57338,1,8,3:2:0:0:
368,384,57503,5,10,3:2:0:0:
290,238,57668,1,8,3:2:0:0:
174,286,57832,5,10,3:2:0:0:
252,140,57997,1,8,3:2:0:0:
256,192,58080,12,0,59481,0:0:0:0:
69,125,61129,5,2,0:2:0:0:
129,196,61459,1,2,0:2:0:0:
228,102,61788,6,0,P|253:72|289:68,1,72.8999977752686,2|0,1:2|0:0,0:0:0:0:
339,13,62118,6,0,B|320:123|320:123|355:145|374:195,1,178.200005438233,6|10,3:2|0:0,0:0:0:0:
363,172,62613,1,0,0:0:0:0:
472,332,62777,2,0,P|480:288|492:236,1,89.1000027191163,2|0,3:2|3:2,0:0:0:0:
386,283,63107,1,10,0:0:0:0:
215,192,63272,6,0,B|162:182|127:147|127:147|82:152|56:185,1,178.200005438233,2|2,3:2|3:2,0:0:0:0:
4,366,63766,1,8,0:0:0:0:
131,294,63931,1,8,0:0:0:0:
131,294,64014,1,8,0:0:0:0:
131,294,64096,5,2,3:2:0:0:
59,181,64261,1,2,3:2:0:0:
236,220,64426,2,0,P|224:278|210:354,1,133.650004078674,10|0,0:0|0:0,0:0:0:0:
300,340,64755,6,0,P|336:375|405:353,1,89.1000027191163,2|0,3:2|3:2,0:0:0:0:
445,247,65085,2,0,P|396:260|381:331,1,89.1000027191163,10|0,0:0|0:0,0:0:0:0:
466,353,65415,1,2,3:2:0:0:
466,353,65580,1,0,3:2:0:0:
317,207,65744,6,0,P|336:115|352:25,2,178.200005438233,10|0|8,0:0|0:0|0:0,0:0:0:0:
221,250,66569,5,8,0:0:0:0:
221,250,66651,1,8,0:0:0:0:
221,250,66734,1,10,0:0:0:0:
95,302,66898,1,2,3:2:0:0:
169,171,67063,1,10,0:0:0:0:
24,76,67228,1,2,3:2:0:0:
246,21,67393,6,0,P|309:25|356:80,1,133.650004078674,6|0,3:2|0:0,0:0:0:0:
391,152,67723,2,0,P|382:194|373:247,1,89.1000027191163,10|0,0:0|0:0,0:0:0:0:
430,327,68052,1,2,3:2:0:0:
430,327,68217,1,0,3:2:0:0:
295,288,68382,1,10,0:0:0:0:
104,366,68547,6,0,P|89:295|67:211,1,133.650004078674,6|0,3:2|0:0,0:0:0:0:
53,158,68876,2,0,P|91:129|141:135,1,89.1000027191163,2|8,3:2|0:0,0:0:0:0:
130,130,69206,1,8,0:0:0:0:
311,82,69371,6,0,P|350:96|437:105,1,89.1000027191163,2|0,3:2|3:2,0:0:0:0:
241,156,69701,2,0,P|233:112|218:70,1,89.1000027191163,10|0,0:0|0:0,0:0:0:0:
366,216,70030,6,0,P|368:250|337:301,1,89.1000027191163,2|0,3:2|0:0,0:0:0:0:
161,373,70360,1,10,0:0:0:0:
280,244,70525,1,8,0:0:0:0:
280,244,70607,1,8,0:0:0:0:
280,244,70690,1,10,0:0:0:0:
395,359,70854,1,0,3:2:0:0:
455,151,71019,6,0,P|480:56|401:30,1,178.200005438233,14|0,0:0|0:0,0:0:0:0:
265,129,71514,1,0,3:2:0:0:
340,190,71679,2,0,P|347:144|354:98,1,89.1000027191163,8|8,0:0|0:0,0:0:0:0:
353,101,71926,1,8,0:0:0:0:
353,101,72008,1,8,0:0:0:0:
241,28,72173,1,0,3:2:0:0:
265,129,72338,1,10,0:0:0:0:
132,287,72503,5,10,0:0:0:0:
132,287,72585,1,8,0:0:0:0:
132,287,72668,2,0,P|56:275|31:224,1,133.650004078674,6|0,3:2|0:0,0:0:0:0:
0,136,72997,2,0,P|43:147|96:155,1,89.1000027191163,10|0,0:0|0:0,0:0:0:0:
269,133,73327,1,2,3:2:0:0:
269,133,73492,1,0,3:2:0:0:
132,287,73657,1,10,0:0:0:0:
163,78,73821,6,0,P|173:122|183:172,1,89.1000027191163,6|0,3:2|0:0,0:0:0:0:
308,339,74151,1,2,3:2:0:0:
132,287,74316,2,0,P|181:276|220:271,1,89.1000027191163,8|8,0:0|0:0,0:0:0:0:
219,271,74563,1,8,0:0:0:0:
219,271,74646,1,10,0:0:0:0:
392,150,74810,1,0,3:2:0:0:
434,235,74975,2,0,P|388:249|312:201,1,133.650004078674,10|0,0:0|0:0,0:0:0:0:
269,133,75305,6,0,P|225:143|181:148,1,89.1000027191163,2|0,3:2|0:0,0:0:0:0:
72,38,75635,1,10,0:0:0:0:
181,148,75799,1,0,1:2:0:0:
231,0,75964,1,2,3:2:0:0:
231,0,76294,6,0,B|330:-7|306:59|426:48,1,178.200005438233,14|0,0:0|0:0,0:0:0:0:
512,181,76788,1,0,3:2:0:0:
512,0,76953,2,0,P|502:44|492:94,1,89.1000027191163,10|8,0:0|0:0,0:0:0:0:
493,87,77201,1,8,0:0:0:0:
493,87,77283,1,10,0:0:0:0:
316,22,77448,1,0,3:2:0:0:
358,217,77613,1,10,0:0:0:0:
358,217,77777,1,8,0:0:0:0:
380,124,77942,6,0,B|281:117|305:183|185:172,1,178.200005438233,6|10,3:2|0:0,0:0:0:0:
34,120,78437,1,2,0:2:0:0:
160,6,78602,2,0,P|150:50|140:100,1,89.1000027191163,2|0,3:2|3:2,0:0:0:0:
99,310,78931,1,10,0:0:0:0:
0,268,79096,6,0,P|54:218|176:240,1,178.200005438233,2|2,3:2|3:2,0:0:0:0:
212,384,79591,2,0,P|220:340|230:296,1,89.1000027191163,8|8,0:0|0:0,0:0:0:0:
230,296,79838,1,8,0:0:0:0:
230,296,79920,1,10,0:0:0:0:
153,223,80085,1,0,3:2:0:0:
314,363,80250,2,0,P|357:351|414:341,1,89.1000027191163,10|0,0:0|0:0,0:0:0:0:
512,165,80580,5,10,3:2:0:0:
328,261,80744,1,10,3:2:0:0:
512,384,80909,1,10,3:2:0:0:
413,207,81074,1,10,3:2:0:0:
413,207,81157,1,8,3:2:0:0:
413,207,81239,2,0,P|419:163|430:106,1,89.1000027191163,10|8,3:2|1:2,0:0:0:0:
366,29,81569,1,2,3:2:0:0:
512,165,81734,1,6,3:2:0:0:
207,384,82887,6,0,P|170:374|120:364,1,89.1000027191163,8|8,0:0|0:0,0:0:0:0:
120,364,83135,1,8,0:0:0:0:
120,364,83217,1,4,3:2:0:0:
0,247,83382,6,0,P|52:205|176:236,1,178.200005438233,14|0,0:0|3:2,0:0:0:0:
207,384,83876,2,0,P|217:328|228:286,1,89.1000027191163,14|0,0:0|3:2,0:0:0:0:
156,218,84206,1,0,3:2:0:0:
319,355,84371,6,0,P|360:344|413:339,1,89.1000027191163,14|0,0:0|3:2,0:0:0:0:
512,232,84701,1,0,3:2:0:0:
379,163,84865,2,0,P|393:250|409:363,1,178.200005438233,14|0,0:0|0:0,0:0:0:0:
238,384,85360,1,10,3:2:0:0:
238,384,85442,1,8,3:2:0:0:
238,384,85525,2,0,P|232:335|221:280,1,89.1000027191163,0|0,1:2|3:2,0:0:0:0:
101,222,85854,5,4,3:2:0:0:
101,222,86019,1,0,3:2:0:0:
16,269,86184,2,0,P|78:314|149:297,1,145.799995550537,10|2,0:0|0:2,0:0:0:0:
87,150,86843,1,2,0:2:0:0:
87,150,87008,2,0,P|93:183|102:230,1,72.8999977752686,10|0,0:0|0:0,0:0:0:0:
224,295,87338,2,0,P|217:259|210:223,1,72.8999977752686,2|8,3:2|0:0,0:0:0:0:
195,125,87668,2,0,B|275:120|260:166|347:165,1,145.799995550537,2|0,0:2|3:2,0:0:0:0:
451,105,88162,1,10,0:0:0:0:
451,105,88492,6,0,P|441:171|428:254,1,145.799995550537,2|10,3:2|0:0,0:0:0:0:
188,367,89151,2,0,P|199:294|210:222,1,145.799995550537,2|2,3:2|0:2,0:0:0:0:
119,163,89646,2,0,P|85:175|35:185,1,72.8999977752686,10|0,0:0|0:0,0:0:0:0:
176,73,89975,1,2,3:2:0:0:
176,73,90140,2,0,B|256:68|241:114|328:113,1,145.799995550537,8|0,0:0|0:0,0:0:0:0:
390,52,90635,1,0,3:2:0:0:
390,52,90799,1,8,0:0:0:0:
512,280,91129,6,0,P|480:283|414:301,1,72.8999977752686,4|0,3:2|3:2,0:0:0:0:
360,384,91459,2,0,P|351:317|334:225,1,145.799995550537,10|2,0:0|0:2,0:0:0:0:
476,0,92118,1,2,0:2:0:0:
512,96,92283,2,0,P|452:99|392:54,1,109.349996662903,10|0,0:0|0:0,0:0:0:0:
347,17,92613,2,0,B|268:9|284:62|188:54,1,145.799995550537,2|0,3:2|0:0,0:0:0:0:
131,0,93107,1,2,0:2:0:0:
293,129,93437,1,10,0:0:0:0:
125,235,93766,6,0,P|55:249|-7:193,1,145.799995550537,2|10,3:2|0:0,0:0:0:0:
24,111,94261,2,0,P|94:97|156:153,1,145.799995550537,2|2,0:2|3:2,0:0:0:0:
224,213,94755,1,2,0:2:0:0:
224,213,94920,2,0,B|303:205|287:258|383:250,1,145.799995550537,8|0,0:0|3:2,0:0:0:0:
454,202,95415,1,8,0:0:0:0:
454,202,95744,1,8,0:0:0:0:
344,90,95909,1,0,1:2:0:0:
344,90,95992,1,0,3:2:0:0:
344,90,96074,2,0,P|351:129|357:166,1,72.8999977752686,12|0,0:0|0:0,0:0:0:0:
393,352,96404,6,0,P|341:321|282:331,1,121.5,4|0,3:2|0:0,0:0:0:0:
217,384,96734,2,0,P|180:373|116:362,1,81,10|8,0:0|0:0,0:0:0:0:
13,273,97063,2,0,P|52:265|91:253,1,81,10|0,0:0|3:2,0:0:0:0:
238,126,97393,1,10,0:0:0:0:
280,216,97558,6,0,P|224:227|153:166,1,121.5,2|0,0:2|0:0,0:0:0:0:
109,131,97887,2,0,P|70:142|30:150,1,81,2|8,3:2|0:0,0:0:0:0:
226,45,98217,1,10,0:0:0:0:
226,45,98299,1,8,0:0:0:0:
226,45,98382,2,0,P|231:87|241:139,1,81,8|0,0:0|3:2,0:0:0:0:
376,269,98712,1,10,0:0:0:0:
376,269,99041,6,0,B|419:223|493:244|493:244|454:275,1,162,2|10,3:2|0:0,0:0:0:0:
309,384,99536,1,10,0:0:0:0:
309,384,99618,1,8,0:0:0:0:
309,384,99701,2,0,P|304:342|294:290,1,81,8|2,0:0|3:2,0:0:0:0:
326,201,100030,1,8,0:0:0:0:
326,201,100195,1,2,0:2:0:0:
203,328,100360,6,0,B|122:319|138:374|40:365,1,162,0|8,3:2|0:0,0:0:0:0:
0,222,100854,1,8,0:0:0:0:
0,222,100936,1,8,0:0:0:0:
0,222,101019,2,0,P|44:230|94:246,1,81,10|2,0:0|3:2,0:0:0:0:
208,332,101349,1,10,0:0:0:0:
208,332,101514,1,2,0:2:0:0:
204,153,101679,6,0,P|193:197|182:250,1,81,4|2,3:2|3:2,0:0:0:0:
127,349,102008,1,8,0:0:0:0:
286,248,102173,1,8,0:0:0:0:
286,248,102255,1,8,0:0:0:0:
286,248,102338,2,0,P|324:259|364:266,1,81,8|0,0:0|3:2,0:0:0:0:
512,182,102668,2,0,P|467:142|393:149,1,121.5,8|0,0:0|0:0,0:0:0:0:
310,166,102997,6,0,P|318:126|328:87,1,81,0|0,3:2|3:2,0:0:0:0:
194,0,103327,2,0,P|178:77|156:157,1,162,8|10,0:0|0:0,0:0:0:0:
73,316,103821,1,0,3:2:0:0:
0,257,103986,2,0,P|63:221|118:235,1,121.5,10|0,0:0|0:0,0:0:0:0:
179,282,104316,6,0,P|217:270|257:263,1,81,0|0,3:2|3:2,0:0:0:0:
386,384,104646,2,0,P|377:344|367:305,1,81,8|8,0:0|0:0,0:0:0:0:
367,305,104893,1,8,0:0:0:0:
367,305,104975,1,8,0:0:0:0:
487,174,105140,1,0,3:2:0:0:
374,120,105305,2,0,P|382:159|392:198,1,81,8|0,0:0|0:0,0:0:0:0:
288,384,105635,5,0,3:2:0:0:
392,198,105799,1,8,0:0:0:0:
512,384,105964,1,8,0:0:0:0:
378,315,106129,1,8,0:0:0:0:
378,315,106212,1,8,0:0:0:0:
378,315,106294,2,0,P|339:303|299:296,1,81,10|0,0:0|1:2,0:0:0:0:
133,260,106624,1,2,3:2:0:0:
133,260,106788,1,0,3:2:0:0:
193,384,106953,6,0,P|203:345|211:298,1,72.8999977752686,2|0,3:2|3:2,0:0:0:0:
58,190,107283,2,0,P|48:225|42:261,1,72.8999977752686,2|0,3:2|0:0,0:0:0:0:
152,131,107612,6,0,P|120:84|59:75,1,109.349996662903,10|0,0:0|0:0,0:0:0:0:
71,72,107942,1,2,3:2:0:0:
238,19,108107,6,0,B|294:29|294:29|324:57|324:57|390:70,1,145.799995550537,2|2,3:2|3:2,0:0:0:0:
274,164,108602,1,0,3:2:0:0:
403,297,108931,6,0,P|392:262|384:226,1,72.8999977752686,10|2,0:0|3:2,0:0:0:0:
481,256,109261,1,2,0:2:0:0:
481,256,109426,1,0,3:2:0:0:
328,373,109590,6,0,P|291:368|229:358,1,72.8999977752686,2|0,3:2|3:2,0:0:0:0:
99,384,109920,1,2,3:2:0:0:
99,384,110003,1,2,0:0:0:0:
99,384,110085,2,0,P|104:347|113:285,1,72.8999977752686,2|8,0:2|0:0,0:0:0:0:
172,243,110414,1,2,0:2:0:0:
172,243,110579,1,0,3:2:0:0:
4,80,110744,6,0,P|18:140|29:194,1,109.349996662903,2|0,3:2|0:0,0:0:0:0:
27,186,111074,1,0,3:2:0:0:
158,112,111239,1,0,3:2:0:0:
158,112,111403,1,0,0:0:0:0:
333,219,111568,6,0,P|291:211|231:201,1,72.8999977752686,10|0,0:0|3:2,0:0:0:0:
261,205,111816,1,0,3:2:0:0:
261,205,111898,1,2,3:2:0:0:
195,262,112063,1,0,3:2:0:0:
389,307,112228,6,0,P|381:342|379:379,2,72.8999977752686,2|0|2,3:2|3:2|3:2,0:0:0:0:
467,190,112722,2,0,P|476:225|485:261,1,72.8999977752686,2|8,0:2|0:0,0:0:0:0:
343,156,113052,2,0,P|353:120|361:85,1,72.8999977752686,2|0,0:2|3:2,0:0:0:0:
444,30,113381,1,2,3:2:0:0:
444,30,113711,5,0,3:2:0:0:
343,4,113876,1,0,3:2:0:0:
260,74,114041,1,0,0:0:0:0:
110,14,114206,5,10,0:0:0:0:
110,14,114371,1,0,3:2:0:0:
22,110,114535,1,2,0:2:0:0:
174,285,114701,5,0,3:2:0:0:
174,285,114783,1,0,3:2:0:0:
174,285,114865,2,0,P|225:236|316:260,1,145.799995550537,2|2,3:2|3:2,0:0:0:0:
371,327,115359,1,0,0:0:0:0:
476,187,115524,2,0,P|470:220|466:266,1,72.8999977752686,10|0,0:0|0:0,0:0:0:0:
466,259,115854,1,2,3:2:0:0:
488,59,116019,6,0,P|444:95|395:89,1,109.349996662903,2|0,3:2|0:0,0:0:0:0:
336,33,116348,2,0,P|300:42|265:51,1,72.8999977752686,10|8,3:2|3:2,0:0:0:0:
96,11,116679,1,8,3:2:0:0:
96,11,116761,1,8,3:2:0:0:
96,11,116843,6,0,P|105:46|114:81,1,72.8999977752686,10|0,3:2|1:2,0:0:0:0:
90,269,117173,5,2,1:2:0:0:
103,298,117255,1,0,1:2:0:0:
131,315,117339,1,0,3:2:0:0:
162,321,117420,1,0,3:2:0:0:
190,313,117503,1,6,3:2:0:0:
450,361,122613,5,2,0:0:0:0:
450,361,122695,1,2,0:0:0:0:
450,361,122777,2,0,P|458:319|471:266,1,81,6|0,3:2|0:0,0:0:0:0:
341,139,123107,2,0,P|349:181|362:234,1,81,10|0,3:2|0:0,0:0:0:0:
212,338,123437,1,10,3:2:0:0:
272,242,123602,1,8,3:2:0:0:
370,354,123766,1,10,3:2:0:0:
207,190,123931,6,0,P|167:199|128:207,1,81,10|8,3:2|3:2,0:0:0:0:
164,365,124261,1,8,3:2:0:0:
164,365,124343,1,8,3:2:0:0:
164,365,124426,2,0,P|172:325|181:286,1,81,10|8,3:2|3:2,0:0:0:0:
29,183,124755,2,0,P|38:222|46:261,1,81,10|8,3:2|3:2,0:0:0:0:
46,261,125003,1,8,3:2:0:0:
46,261,125085,1,8,3:2:0:0:
128,207,125250,1,2,0:2:0:0:
12,36,125415,5,12,3:2:0:0:
12,36,125744,5,8,3:2:0:0:
171,117,125909,1,8,3:2:0:0:
47,149,126074,5,8,3:2:0:0:
218,53,126239,1,8,3:2:0:0:
266,249,126404,5,8,3:2:0:0:
316,31,126569,1,8,3:2:0:0:
393,87,127063,5,2,0:2:0:0:
465,209,127393,1,2,0:2:0:0:
406,269,127723,6,0,P|371:265|342:234,1,72.8999977752686,2|0,3:2|0:0,0:0:0:0:
287,161,128052,6,0,B|213:147|235:206|124:181,1,133.650004078674,6|0,3:2|0:0,0:0:0:0:
96,240,128382,2,0,P|75:196|90:137,1,89.1000027191163,10|0,0:0|0:0,0:0:0:0:
230,285,128712,2,0,P|216:333|199:403,2,89.1000027191163,2|0|10,3:2|3:2|0:0,0:0:0:0:
412,188,129206,6,0,P|448:115|416:50,1,133.650004078674,2|0,3:2|0:0,0:0:0:0:
347,17,129536,2,0,P|302:27|243:41,1,89.1000027191163,2|8,3:2|0:0,0:0:0:0:
340,110,129865,1,8,0:0:0:0:
189,217,130030,5,2,3:2:0:0:
228,119,130195,1,2,3:2:0:0:
39,72,130360,2,0,L|75:220,1,133.650004078674,10|0,0:0|0:0,0:0:0:0:
73,310,130690,6,0,P|112:291|178:283,1,89.1000027191163,2|0,3:2|3:2,0:0:0:0:
306,384,131019,2,0,P|262:375|222:356,1,89.1000027191163,10|0,0:0|0:0,0:0:0:0:
155,195,131349,1,2,3:2:0:0:
73,310,131514,1,0,3:2:0:0:
322,245,131679,6,0,P|382:171|489:191,1,178.200005438233,10|0,0:0|0:0,0:0:0:0:
390,344,132173,1,0,3:2:0:0:
478,277,132338,1,8,0:0:0:0:
314,105,132503,5,8,0:0:0:0:
314,105,132585,1,8,0:0:0:0:
314,105,132668,1,10,0:0:0:0:
141,31,132832,1,2,3:2:0:0:
217,120,132997,1,10,0:0:0:0:
217,120,133162,1,2,3:2:0:0:
102,282,133327,6,0,P|115:217|130:131,1,133.650004078674,6|0,3:2|0:0,0:0:0:0:
217,120,133657,2,0,P|208:163|200:207,1,89.1000027191163,10|0,0:0|0:0,0:0:0:0:
304,351,133986,1,2,3:2:0:0:
200,207,134151,1,0,3:2:0:0:
181,311,134316,1,10,0:0:0:0:
393,270,134481,6,0,P|428:208|392:96,1,178.200005438233,6|2,3:2|3:2,0:0:0:0:
304,13,134975,2,0,P|296:56|285:101,1,89.1000027191163,8|0,0:0|0:0,0:0:0:0:
90,173,135305,6,0,P|71:130|74:84,1,89.1000027191163,2|0,3:2|3:2,0:0:0:0:
207,184,135635,2,0,P|193:226|184:269,1,89.1000027191163,10|0,0:0|0:0,0:0:0:0:
400,362,135964,6,0,P|481:355|507:295,1,133.650004078674,2|0,3:2|0:0,0:0:0:0:
505,315,136294,1,10,0:0:0:0:
353,229,136459,1,8,0:0:0:0:
353,229,136541,1,8,0:0:0:0:
353,229,136624,1,10,0:0:0:0:
425,272,136788,1,0,3:2:0:0:
217,358,136953,6,0,B|204:293|204:293|222:266|222:266|197:169,1,178.200005438233,14|0,0:0|0:0,0:0:0:0:
104,241,137448,1,0,3:2:0:0:
72,66,137613,2,0,P|60:110|48:152,1,89.1000027191163,8|8,0:0|0:0,0:0:0:0:
139,138,137942,1,8,0:0:0:0:
297,267,138107,5,0,3:2:0:0:
321,299,138190,1,8,0:2:0:0:
359,310,138272,1,10,0:0:0:0:
398,306,138354,1,8,0:0:0:0:
428,279,138437,2,0,L|440:205,1,44.5500013595581,10|8,0:0|0:0,0:0:0:0:
485,128,138602,6,0,P|430:98|352:118,1,133.650004078674,6|0,3:2|0:0,0:0:0:0:
277,163,138931,2,0,P|272:117|261:69,1,89.1000027191163,10|0,0:0|0:0,0:0:0:0:
196,0,139261,1,2,3:2:0:0:
196,0,139426,1,0,3:2:0:0:
362,110,139591,1,10,0:0:0:0:
171,211,139755,6,0,B|116:196|44:188|44:188|91:164,1,178.200005438233,2|2,3:2|3:2,0:0:0:0:
262,75,140250,2,0,P|272:118|277:163,1,89.1000027191163,8|8,0:0|0:0,0:0:0:0:
277,162,140497,1,8,0:0:0:0:
277,162,140580,1,10,0:0:0:0:
399,334,140744,1,0,3:2:0:0:
476,271,140909,2,0,P|434:242|354:248,1,133.650004078674,10|0,0:0|0:0,0:0:0:0:
294,314,141239,6,0,P|262:305|207:293,1,89.1000027191163,2|0,3:2|0:0,0:0:0:0:
10,384,141569,1,10,0:0:0:0:
207,293,141734,1,0,1:2:0:0:
62,200,141898,1,2,1:2:0:0:
62,200,142063,1,0,1:2:0:0:
8,289,142228,6,0,P|75:297|154:222,1,178.200005438233,14|0,0:0|0:0,0:0:0:0:
240,75,142723,1,0,3:2:0:0:
129,39,142887,2,0,P|138:82|143:126,1,89.1000027191163,10|8,0:0|0:0,0:0:0:0:
143,126,143135,1,8,0:0:0:0:
143,126,143217,1,10,0:0:0:0:
62,200,143382,1,0,3:2:0:0:
240,75,143547,2,0,P|286:89|333:97,1,89.1000027191163,10|8,0:0|0:0,0:0:0:0:
512,0,143876,6,0,P|493:73|470:192,1,178.200005438233,6|10,3:2|0:0,0:0:0:0:
349,339,144371,1,2,0:0:0:0:
512,292,144536,2,0,P|466:278|419:270,1,89.1000027191163,2|0,3:2|3:2,0:0:0:0:
259,172,144865,1,10,0:0:0:0:
201,259,145030,6,0,P|264:273|356:204,1,178.200005438233,2|2,3:2|3:2,0:0:0:0:
273,84,145525,2,0,P|264:127|259:171,1,89.1000027191163,8|8,0:0|0:0,0:0:0:0:
258,171,145772,1,8,0:0:0:0:
258,171,145854,1,10,0:0:0:0:
373,48,146019,1,0,3:2:0:0:
164,119,146184,2,0,P|126:112|64:104,1,89.1000027191163,10|0,0:0|0:0,0:0:0:0:
0,247,146514,5,6,3:2:0:0:
164,119,146679,1,2,0:0:0:0:
5,20,146843,1,10,0:0:0:0:
97,198,147008,1,2,0:0:0:0:
273,84,147173,2,0,B|370:79|352:137|449:133,1,178.200005438233,2|10,3:2|0:0,0:0:0:0:
315,267,147668,6,0,P|310:222|300:179,1,89.1000027191163,6|0,3:2|0:0,0:0:0:0:
426,45,147997,2,0,P|435:88|440:132,1,89.1000027191163,2|8,3:2|0:0,0:0:0:0:
512,297,148327,1,10,0:0:0:0:
512,297,148409,1,8,0:0:0:0:
512,297,148492,2,0,P|447:287|394:325,1,133.650004078674,10|0,0:0|0:0,0:0:0:0:
385,341,148821,1,10,0:0:0:0:
235,384,148986,6,0,P|226:300|209:211,1,162,4|0,3:2|3:2,0:0:0:0:
135,159,149481,2,0,P|106:147|70:150,1,64.8,8|0,0:0|3:2,0:0:0:0:
55,247,149810,2,0,P|84:259|119:255,2,64.8,8|0|8,0:0|3:2|0:0,0:0:0:0:
55,247,150305,1,0,3:2:0:0:
135,159,150635,1,0,3:2:0:0:
135,159,150799,1,8,0:0:0:0:
55,247,151129,2,0,P|84:259|119:255,1,64.8,8|0,0:0|3:2,0:0:0:0:
116,256,151376,1,0,3:2:0:0:
116,256,151459,1,8,0:0:0:0:
282,122,151624,6,0,B|370:112|354:170|462:158,1,162,4|0,3:2|3:2,0:0:0:0:
503,84,152118,2,0,P|515:55|511:19,1,64.8,8|0,0:0|3:2,0:0:0:0:
415,4,152447,2,0,P|403:33|406:68,2,64.8,8|0|8,0:0|3:2|0:0,0:0:0:0:
415,4,152942,1,0,3:2:0:0:
503,84,153272,1,0,3:2:0:0:
503,84,153436,1,8,0:0:0:0:
415,4,153766,2,0,P|403:33|406:68,1,64.8,8|0,0:0|3:2,0:0:0:0:
512,207,154096,5,8,0:0:0:0:
512,207,154179,1,0,0:0:0:0:
512,207,154261,2,0,P|453:192|369:261,1,162,6|0,3:2|3:2,0:0:0:0:
192,265,154755,1,8,0:0:0:0:
303,384,154920,2,0,P|294:337|283:295,1,81,0|8,3:2|0:0,0:0:0:0:
281,204,155250,1,0,3:2:0:0:
197,361,155415,1,8,0:0:0:0:
197,361,155580,1,0,3:2:0:0:
374,246,155744,6,0,P|417:256|465:264,1,81,8|0,0:0|3:2,0:0:0:0:
197,361,156074,2,0,P|154:351|106:343,1,81,8|0,0:0|3:2,0:0:0:0:
32,384,156404,1,8,0:0:0:0:
192,265,156569,1,0,3:2:0:0:
192,265,156651,1,0,3:2:0:0:
192,265,156734,1,8,0:0:0:0:
90,184,156898,6,0,P|104:263|118:349,1,162,4|0,3:2|3:2,0:0:0:0:
246,172,157393,1,8,0:0:0:0:
271,280,157558,2,0,P|230:271|180:263,1,81,0|8,3:2|0:0,0:0:0:0:
0,201,157887,1,0,3:2:0:0:
157,108,158052,1,8,0:0:0:0:
157,108,158217,1,0,3:2:0:0:
104,263,158382,6,0,P|98:225|88:174,1,81,10|2,0:0|3:2,0:0:0:0:
260,92,158712,2,0,P|252:131|245:171,1,81,10|8,0:0|0:0,0:0:0:0:
245,171,158959,1,8,0:0:0:0:
245,171,159041,1,0,1:2:0:0:
330,14,159206,1,8,0:0:0:0:
157,108,159371,1,8,0:0:0:0:
349,145,159536,6,0,B|413:149|481:161|481:161|436:102,1,178.200005438233,6|2,3:2|3:2,0:0:0:0:
260,92,160030,2,0,P|252:131|244:182,1,89.1000027191163,10|2,0:0|0:0,0:0:0:0:
231,307,160360,1,2,3:2:0:0:
231,307,160525,1,2,3:2:0:0:
349,145,160690,1,10,0:0:0:0:
388,332,160854,6,0,P|345:295|222:314,1,178.200005438233,6|0,3:2|3:2,0:0:0:0:
139,384,161349,2,0,P|132:339|123:296,1,89.1000027191163,8|2,0:0|0:0,0:0:0:0:
0,162,161679,2,0,P|38:170|93:178,1,89.1000027191163,2|2,3:2|3:2,0:0:0:0:
260,92,162008,1,10,0:0:0:0:
146,0,162173,6,0,P|166:83|184:184,1,178.200005438233,2|2,3:2|3:2,0:0:0:0:
313,259,162668,2,0,P|319:214|328:171,1,89.1000027191163,10|2,0:0|0:0,0:0:0:0:
447,0,162997,1,2,3:2:0:0:
260,92,163162,1,2,3:2:0:0:
417,207,163327,1,10,0:0:0:0:
482,136,163492,6,0,P|414:116|328:172,1,178.200005438233,6|2,3:2|3:2,0:0:0:0:
218,276,163986,1,10,0:0:0:0:
328,346,164151,2,0,P|321:301|312:258,1,89.1000027191163,2|0,3:2|0:0,0:0:0:0:
217,177,164481,1,2,3:2:0:0:
413,304,164646,1,8,0:0:0:0:
227,374,164810,6,0,B|172:359|100:351|100:351|147:327,1,178.200005438233,4|0,3:2|3:2,0:0:0:0:
312,258,165305,2,0,L|326:308,3,44.5500013595581,8|2|0|2,0:0|0:0|3:2|0:0,0:0:0:0:
217,177,165635,2,0,L|166:164,3,44.5500013595581,8|2|0|2,0:0|0:0|3:2|0:0,0:0:0:0:
340,139,165964,2,0,L|376:101,3,44.5500013595581,8|2|0|2,0:0|0:0|3:2|0:0,0:0:0:0:
258,90,166294,5,8,0:0:0:0:
258,90,166376,1,2,0:0:0:0:
258,90,166459,2,0,L|245:47,1,44.5500013595581,0|2,3:2|0:0,0:0:0:0:
299,215,166624,5,8,0:0:0:0:
299,215,166706,1,2,0:0:0:0:
299,215,166789,2,0,L|312:258,1,44.5500013595581,0|2,3:2|0:0,0:0:0:0:
344,365,166953,5,8,0:0:0:0:
512,194,167118,1,0,3:2:0:0:
340,139,167283,1,8,0:0:0:0:
443,309,167448,1,0,3:2:0:0:
512,194,167613,6,0,P|470:207|422:220,1,89.1000027191163,2|10,3:2|0:0,0:0:0:0:
172,114,167942,2,0,P|214:102|257:89,1,89.1000027191163,10|2,0:0|3:2,0:0:0:0:
406,0,168272,1,2,1:2:0:0:
406,0,168354,1,0,1:2:0:0:
406,0,168437,1,2,3:2:0:0:
257,89,168602,1,10,0:0:0:0:
426,218,168766,6,0,P|432:177|441:124,1,89.1000027191163,6|0,3:2|0:0,0:0:0:0:
303,0,169096,1,8,0:0:0:0:
440,130,169261,1,10,0:0:0:0:
253,206,169426,1,8,0:0:0:0:
347,103,169591,5,2,1:2:0:0:
347,103,169755,1,0,1:2:0:0:
347,103,169920,1,2,3:2:0:0:
205,19,170085,2,0,L|156:29,2,44.5500013595581,0|0|2,3:2|0:0|0:0,0:0:0:0:
467,273,180799,6,0,B|419:324|419:324|349:261|250:284,1,243,6|2,3:2|0:0,0:0:0:0:
258,282,182118,5,10,0:0:0:0:
150,358,182613,1,0,1:2:0:0:
269,192,182942,1,0,3:2:0:0:
269,192,183107,1,2,3:2:0:0:
145,10,183437,6,0,P|135:69|122:129,1,121.5,6|0,3:2|0:0,0:0:0:0:
35,254,184096,2,0,P|22:194|12:134,1,121.5,6|0,3:2|0:0,0:0:0:0:
209,82,184755,6,0,P|249:81|297:100,1,81,4|2,3:2|0:0,0:0:0:0:
403,220,185415,6,0,L|414:175,1,40.5,2|0,0:0|0:0,0:0:0:0:
486,133,185744,2,0,L|497:88,1,40.5,2|0,3:2|3:2,0:0:0:0:
358,9,186074,6,0,P|310:23|288:96,1,129.6,6|2,3:2|3:2,0:0:0:0:
364,87,186569,1,2,0:0:0:0:
241,163,186734,2,0,P|194:148|146:139,1,97.2,2|0,3:2|0:0,0:0:0:0:
146,139,187063,1,2,3:2:0:0:
38,235,187229,2,0,P|30:201|19:164,1,64.8,2|0,0:0|3:2,0:0:0:0:
141,336,187558,6,0,P|200:340|250:280,1,129.6,2|0,0:0|0:0,0:0:0:0:
401,331,188052,6,0,P|410:266|422:203,1,129.6,2|2,3:2|3:2,0:0:0:0:
422,203,188712,5,10,3:2:0:0:
293,119,188876,1,10,3:2:0:0:
328,251,189041,5,10,3:2:0:0:
151,319,189206,1,10,3:2:0:0:
278,373,189371,5,10,3:2:0:0:
209,186,189536,1,8,3:2:0:0:
360,345,189701,1,10,3:2:0:0:
278,373,189865,6,0,P|285:333|293:293,1,81,10|0,3:2|3:2,0:0:0:0:
437,151,190195,2,0,P|423:213|412:289,1,121.5,2|0,3:2|0:0,0:0:0:0:
414,270,190525,1,2,3:2:0:0:
254,255,190690,6,0,L|214:244,3,40.5,10|8|8|8,0:0|0:0|3:2|3:2,0:0:0:0:
141,198,191019,5,10,3:2:0:0:
108,198,191102,1,8,3:2:0:0:
77,187,191184,1,8,3:2:0:0:
54,164,191266,1,8,3:2:0:0:
43,131,191349,6,0,P|60:66|71:0,1,133.650004078674,6|0,3:2|0:0,0:0:0:0:
160,0,191679,2,0,P|201:-1|241:49,1,89.1000027191163,10|0,0:0|0:0,0:0:0:0:
296,192,192008,1,0,3:2:0:0:
296,192,192173,1,0,3:2:0:0:
367,29,192338,1,10,0:0:0:0:
497,213,192503,6,0,P|434:214|383:151,1,133.650004078674,2|0,3:2|0:0,0:0:0:0:
296,192,192832,2,0,P|283:234|265:275,1,89.1000027191163,2|8,3:2|0:0,0:0:0:0:
346,367,193162,1,8,0:0:0:0:
346,367,193244,1,8,0:0:0:0:
346,367,193327,1,2,3:2:0:0:
191,213,193492,1,2,3:2:0:0:
101,282,193657,6,0,P|86:216|69:148,1,133.650004078674,10|0,0:0|0:0,0:0:0:0:
0,103,193986,6,0,P|3:59|34:28,1,89.1000027191163,2|0,3:2|3:2,0:0:0:0:
233,87,194316,2,0,P|189:96|146:109,1,89.1000027191163,10|0,0:0|0:0,0:0:0:0:
0,245,194646,1,2,3:2:0:0:
146,109,194810,1,0,3:2:0:0:
282,335,194975,6,0,P|367:334|416:263,1,178.200005438233,10|0,0:0|0:0,0:0:0:0:
329,258,195469,1,0,3:2:0:0:
509,154,195635,2,0,P|465:145|421:135,1,89.1000027191163,8|8,0:0|0:0,0:0:0:0:
421,135,195882,1,8,0:0:0:0:
421,135,195964,5,10,0:0:0:0:
344,31,196129,1,2,3:2:0:0:
325,186,196294,1,10,0:0:0:0:
187,166,196459,1,2,3:2:0:0:
126,11,196624,6,0,P|116:78|101:149,1,133.650004078674,6|0,3:2|0:0,0:0:0:0:
38,208,196953,2,0,B|11:174|11:174|20:113,1,89.1000027191163,10|0,0:0|0:0,0:0:0:0:
169,247,197283,6,0,P|210:256|257:267,1,89.1000027191163,2|0,3:2|3:2,0:0:0:0:
193,341,197613,1,10,0:0:0:0:
394,379,197777,6,0,P|420:326|394:236,1,133.650004078674,6|0,3:2|0:0,0:0:0:0:
355,194,198107,2,0,P|363:151|373:98,1,89.1000027191163,2|8,3:2|0:0,0:0:0:0:
461,177,198437,1,8,0:0:0:0:
267,269,198602,6,0,P|223:267|162:202,1,133.650004078674,2|0,3:2|0:0,0:0:0:0:
218,134,198931,2,0,P|173:128|130:120,1,89.1000027191163,10|0,0:0|0:0,0:0:0:0:
13,330,199261,6,0,B|115:317|65:263|178:249,1,178.200005438233,2|10,3:2|0:0,0:0:0:0:
366,377,199755,5,8,0:0:0:0:
401,381,199838,1,8,0:0:0:0:
434,368,199920,1,10,0:0:0:0:
453,338,200003,1,8,0:0:0:0:
462,303,200085,2,0,L|447:244,1,44.5500013595581,0|0,3:2|0:0,0:0:0:0:
401,100,200250,6,0,P|332:156|241:107,1,178.200005438233,14|0,0:0|0:0,0:0:0:0:
322,80,200744,1,0,3:2:0:0:
184,188,200909,2,0,P|177:144|166:101,1,89.1000027191163,8|8,0:0|0:0,0:0:0:0:
79,45,201239,6,0,L|91:2,3,44.5500013595581,8|8|8|8,0:0|0:0|0:0|0:0,0:0:0:0:
25,114,201569,5,10,0:0:0:0:
32,148,201651,1,8,0:0:0:0:
40,182,201734,1,10,0:0:0:0:
49,216,201816,1,8,0:0:0:0:
60,249,201898,6,0,B|139:266|108:296|191:310,1,133.650004078674,6|0,3:2|0:0,0:0:0:0:
242,373,202228,2,0,P|292:369|332:337,1,89.1000027191163,10|0,0:0|0:0,0:0:0:0:
411,191,202558,2,0,L|437:290,1,89.1000027191163,2|0,3:2|3:2,0:0:0:0:
418,376,202887,1,10,0:0:0:0:
403,170,203052,6,0,B|344:161|344:161|308:122|308:122|234:109,1,178.200005438233,2|2,3:2|3:2,0:0:0:0:
71,20,203547,2,0,P|81:63|86:108,1,89.1000027191163,8|8,0:0|0:0,0:0:0:0:
86,107,203794,1,8,0:0:0:0:
86,107,203877,1,10,0:0:0:0:
2,298,204041,1,0,3:2:0:0:
85,263,204206,2,0,B|162:277|135:313|217:326,1,133.650004078674,10|0,0:0|0:0,0:0:0:0:
289,320,204536,6,0,P|280:288|268:233,1,89.1000027191163,2|0,3:2|0:0,0:0:0:0:
454,378,204866,1,10,0:0:0:0:
512,186,205031,1,0,1:2:0:0:
391,293,205195,1,2,3:2:0:0:
391,293,205360,1,0,3:2:0:0:
294,95,205525,6,0,P|228:72|149:157,1,178.200005438233,14|0,0:0|0:0,0:0:0:0:
13,267,206019,1,0,3:2:0:0:
98,291,206184,2,0,P|93:246|83:203,1,89.1000027191163,10|8,0:0|0:0,0:0:0:0:
83,203,206432,1,8,0:0:0:0:
83,203,206514,1,10,0:0:0:0:
60,19,206679,1,0,3:2:0:0:
0,90,206844,2,0,P|46:104|93:112,1,89.1000027191163,10|8,0:0|0:0,0:0:0:0:
168,157,207091,1,8,0:0:0:0:
168,157,207173,6,0,B|181:107|215:78|215:78|192:31|150:26,1,178.200005438233,6|10,3:2|0:0,0:0:0:0:
258,157,207668,1,2,0:0:0:0:
88,225,207833,2,0,P|79:181|66:138,1,89.1000027191163,2|0,3:2|3:2,0:0:0:0:
177,233,208162,1,10,0:0:0:0:
0,382,208327,6,0,P|52:319|149:339,1,178.200005438233,2|2,3:2|3:2,0:0:0:0:
243,291,208822,2,0,P|234:334|229:378,1,89.1000027191163,8|8,0:0|0:0,0:0:0:0:
228,378,209069,1,8,0:0:0:0:
228,378,209151,1,10,0:0:0:0:
324,333,209316,1,0,3:2:0:0:
198,204,209481,2,0,P|155:217|59:232,1,133.650004078674,10|0,0:0|0:0,0:0:0:0:
67,231,209811,5,10,3:2:0:0:
243,291,209976,1,10,3:2:0:0:
115,140,210140,1,10,3:2:0:0:
281,43,210305,1,10,3:2:0:0:
436,196,210470,6,0,P|391:180|340:166,1,89.1000027191163,10|8,3:2|1:2,0:0:0:0:
417,109,210799,1,2,3:2:0:0:
279,235,210964,6,0,P|263:193|250:150,1,89.1000027191163,6|0,3:2|0:0,0:0:0:0:
372,287,211294,2,0,P|358:329|343:371,1,89.1000027191163,2|8,3:2|0:0,0:0:0:0:
204,376,211624,1,10,0:0:0:0:
204,376,211706,1,8,0:0:0:0:
204,376,211789,2,0,P|141:368|112:305,1,133.650004078674,10|0,0:0|0:0,0:0:0:0:
111,310,212118,1,10,0:0:0:0:
232,131,212448,5,10,0:0:0:0:
411,219,212613,1,10,0:0:0:0:
493,1,212777,5,10,0:0:0:0:
316,57,212942,1,10,0:0:0:0:
316,57,213025,1,8,0:0:0:0:
316,57,213107,1,10,0:0:0:0:
465,158,213272,1,0,3:2:0:0:
406,36,213437,1,10,0:0:0:0:
258,261,213602,5,6,3:2:0:0:
233,0,215744,6,0,P|240:18|243:28,1,28.35,0|0,1:2|0:0,0:0:0:0:
184,106,216404,6,0,P|235:111|287:124,1,89.1000027191163,6|2,3:2|3:2,0:0:0:0:
422,0,216734,2,0,P|413:42|408:103,1,89.1000027191163,2|0,3:2|0:0,0:0:0:0:
466,272,217063,1,10,0:0:0:0:
512,188,217228,2,0,P|460:174|381:224,1,133.650004078674
325,272,217558,6,0,P|281:262|237:258,1,89.1000027191163,2|0,3:2|0:0,0:0:0:0:
50,330,217887,1,10,0:0:0:0:
156,384,218052,2,0,P|148:323|138:251,1,133.650004078674,2|0,0:0|0:0,0:0:0:0:
87,171,218382,2,0,P|42:166|0:157,1,89.1000027191163,10|0,0:0|3:2,0:0:0:0:
165,18,218712,2,0,P|174:61|186:114,1,89.1000027191163,2|8,0:0|0:0,0:0:0:0:
329,276,219041,5,2,3:2:0:0:
329,276,219206,1,2,3:2:0:0:
391,208,219371,2,0,P|331:183|235:247,1,178.200005438233,2|8,3:2|0:0,0:0:0:0:
87,171,219865,1,0,0:0:0:0:
87,171,220030,1,8,0:0:0:0:
165,18,220195,6,0,P|174:61|186:114,1,89.1000027191163,2|0,3:2|3:2,0:0:0:0:
138,251,220525,1,10,0:0:0:0:
0,184,220690,2,0,P|43:174|87:170,1,89.1000027191163,2|0,0:0|3:2,0:0:0:0:
252,4,221019,2,0,P|208:13|164:17,1,89.1000027191163,10|0,0:0|3:2,0:0:0:0:
87,170,221349,1,2,0:0:0:0:
239,236,221514,5,8,0:0:0:0:
239,236,221596,1,8,0:0:0:0:
239,236,221679,2,0,P|246:186|257:136,1,89.1000027191163,2|2,3:2|3:2,0:0:0:0:
164,17,222008,2,0,B|261:12|243:70|340:66,1,178.200005438233,2|10,3:2|0:0,0:0:0:0:
467,0,222503,2,0,P|458:43|452:87,1,89.1000027191163,2|0,0:0|3:2,0:0:0:0:
512,252,222832,6,0,P|447:238|380:278,1,133.650004078674,2|0,3:2|0:0,0:0:0:0:
375,284,223162,1,10,0:0:0:0:
226,318,223327,2,0,P|233:268|244:218,1,89.1000027191163,2|0,0:0|3:2,0:0:0:0:
331,66,223657,1,10,0:0:0:0:
393,146,223821,2,0,P|322:164|233:100,1,178.200005438233,0|10,3:2|0:0,0:0:0:0:
66,0,224316,5,2,3:2:0:0:
238,110,224481,1,2,3:2:0:0:
86,232,224646,2,0,P|43:221|-1:211,1,89.1000027191163,10|0,3:2|0:0,0:0:0:0:
162,22,224975,2,0,P|153:65|147:109,1,89.1000027191163,10|0,3:2|0:0,0:0:0:0:
226,318,225305,1,8,3:2:0:0:
310,265,225470,6,0,B|407:260|389:318|486:314,1,178.200005438233,6|10,3:2|0:0,0:0:0:0:
324,352,225964,2,0,P|317:307|309:264,1,89.1000027191163,10|0,0:0|0:0,0:0:0:0:
512,151,226294,1,10,0:0:0:0:
309,264,226459,1,10,0:0:0:0:
477,314,226624,1,10,0:0:0:0:
353,113,226788,1,14,0:0:0:0:
