osu file format v14

[General]
AudioFilename: audio.mp3
AudioLeadIn: 0
PreviewTime: 42055
Countdown: 1
SampleSet: Soft
StackLeniency: 0.7
Mode: 0
LetterboxInBreaks: 0
EpilepsyWarning: 1
WidescreenStoryboard: 1
SamplesMatchPlaybackRate: 1

[Editor]
DistanceSpacing: 0.8
BeatDivisor: 4
GridSize: 16
TimelineZoom: 1.7

[Metadata]
Title:Bonjour Madame (Nightcore remix)
TitleUnicode:Bonjour Madame (Nightcore remix)
Artist:Lolita Jolie, Noizbasses & VEEX
ArtistUnicode:Lolita Jolie, Noizbasses & VEEX
Creator:VADSIG
Version:Normal
Source:
Tags:Bonjour Madame Nightcore Lolita Jolie Noirzbasses VEEX
BeatmapID:1924501
BeatmapSetID:920541

[Difficulty]
HPDrainRate:4
CircleSize:4
OverallDifficulty:4
ApproachRate:4
SliderMultiplier:1.2
SliderTickRate:1

[Events]
//Background and Video events
0,0,"BG.png",0,0
//Break Periods
2,87513,92743
2,153786,159218
//Storyboard Layer 0 (Background)
//Storyboard Layer 1 (Fail)
//Storyboard Layer 2 (Pass)
//Storyboard Layer 3 (Foreground)
//Storyboard Sound Samples

[TimingPoints]
1645,404.100270747181,4,2,0,70,1,0
61451,-100,4,2,0,70,0,1
87314,-100,4,2,0,70,0,0
127724,-100,4,2,0,70,0,1
153586,-100,4,2,0,70,0,0

[Colours]
Combo1 : 138,62,140
Combo2 : 241,165,227
Combo3 : 204,128,0
Combo4 : 209,38,80

[HitObjects]
256,192,11343,12,0,12959,0:0:0:0:
265,41,14576,6,0,P|284:92|277:163,1,120
265,202,15182,1,0,0:0:0:0:
247,246,15384,1,0,0:0:0:0:
69,320,16192,1,8,0:0:0:0:
98,237,16596,1,8,0:0:0:0:
121,152,17000,1,8,0:0:0:0:
149,73,17404,1,8,0:0:0:0:
244,58,17809,38,0,P|302:65|362:92,1,120
401,109,18415,1,0,0:0:0:0:
442,132,18617,1,0,0:0:0:0:
407,271,19223,2,8,L|341:234,2,60
381,311,19829,2,8,L|438:340,2,60
295,268,20637,1,4,0:0:0:0:
219,208,21041,6,0,L|292:179,2,60
175,227,21647,1,0,0:0:0:0:
132,249,21850,2,0,P|80:288|50:353,1,120
144,338,22658,1,8,0:0:0:0:
236,311,23062,1,8,0:0:0:0:
297,237,23466,1,8,0:0:0:0:
387,347,24274,2,8,B|421:319|421:319|437:305|438:285|438:285|437:225,1,120
478,161,25082,2,8,B|434:156|434:156|412:155|398:168|398:168|356:211,1,120
341,286,25891,2,8,B|307:258|307:258|291:244|290:224|290:224|291:164,1,120
349,111,26699,2,8,B|308:93|308:93|288:85|270:93|270:93|217:121,1,120
157,162,27507,38,0,L|158:225,1,60
161,269,27911,2,0,L|206:312,1,60
243,338,28315,2,8,L|306:337,1,60
426,262,29123,2,0,L|425:199,1,60
425,154,29527,2,0,L|362:154,1,60
318,149,29931,2,8,L|317:86,2,60
317,197,30538,1,0,0:0:0:0:
317,244,30740,2,0,P|269:257|201:238,1,120
157,221,31346,1,8,0:0:0:0:
115,196,31548,1,8,0:0:0:0:
187,87,32154,1,0,0:0:0:0:
231,105,32356,2,8,B|289:125|289:125|365:94,2,120
50,36,33973,6,0,B|100:74|108:134|118:191|178:243,1,240
246,300,35185,1,8,0:0:0:0:
325,245,35589,1,0,0:0:0:0:
396,310,35993,1,8,0:0:0:0:
446,228,36397,1,0,0:0:0:0:
375,163,36801,1,8,0:0:0:0:
309,92,37205,2,0,B|258:43|258:43|220:8|182:43|182:43|87:156|122:266|197:266|197:266|244:266,1,480
339,262,39226,1,8,0:0:0:0:
384,177,39630,1,8,0:0:0:0:
320,104,40034,1,12,0:0:0:0:
109,34,42055,38,0,L|121:156,1,120
127,200,42661,1,8,0:0:0:0:
132,247,42863,1,0,0:0:0:0:
139,294,43065,2,8,L|146:366,1,60
241,350,43671,6,0,B|319:351|319:351|368:353|381:287|272:137,1,330
282,21,45287,38,0,L|347:123,1,120
374,161,45893,1,8,0:0:0:0:
422,161,46096,1,0,0:0:0:0:
469,163,46298,2,8,L|478:232,1,60
485,317,46904,6,0,B|325:317|325:317|325:237,1,240
325,141,48116,1,0,0:0:0:0:
372,57,48520,38,0,P|304:50|255:77,1,120
223,104,49126,1,8,0:0:0:0:
186,135,49328,1,0,0:0:0:0:
154,171,49530,2,8,B|205:210,1,60
282,259,50137,5,8,0:0:0:0:
363,207,50541,1,8,0:0:0:0:
430,274,50945,1,8,0:0:0:0:
368,347,51349,1,8,0:0:0:0:
272,352,51753,38,0,B|222:347|209:353|195:360|145:353,1,120
104,351,52359,1,8,0:0:0:0:
56,341,52561,1,0,0:0:0:0:
11,323,52763,2,8,L|11:256,1,60
10,167,53369,6,8,B|10:103|10:103|10:39|74:39|74:39|145:37|145:37|164:84|164:84|178:40|178:40|217:39,1,360
298,44,54986,2,8,B|394:44|394:44|426:44|426:92|426:92|426:140|394:140|394:140|378:140|378:140|370:187|370:187|361:140|361:140|319:138,1,360
243,141,56602,2,8,P|186:155|133:190,1,120
62,251,57410,2,8,P|27:298|3:357,1,120
100,362,58219,2,8,B|182:362|182:362|231:362|264:329|264:329|313:279,1,240
371,206,59431,1,12,0:0:0:0:
426,127,59835,2,0,B|451:69|451:69|464:40|421:39|421:39|394:41|326:130|275:24|232:27|240:75|240:75|249:129,1,360
256,192,61451,21,12,0:0:0:0:
222,273,61855,1,12,0:0:0:0:
145,315,62260,1,12,0:0:0:0:
56,315,62664,1,8,0:0:0:0:
70,220,63068,37,2,0:0:0:0:
93,178,63270,1,2,0:0:0:0:
123,141,63472,1,2,0:0:0:0:
156,107,63674,1,2,0:0:0:0:
195,80,63876,1,2,0:0:0:0:
240,65,64078,1,2,0:0:0:0:
287,58,64280,2,2,L|350:61,2,60
344,135,65088,5,8,0:0:0:0:
366,228,65492,1,8,0:0:0:0:
283,278,65896,1,8,0:0:0:0:
186,275,66301,38,2,B|183:219|183:219|232:192|232:192|258:140|258:140|243:86|243:86|288:45|288:45|357:37|357:37|413:65|413:65|417:127,1,480
368,208,68321,5,8,0:0:0:0:
288,261,68725,1,8,0:0:0:0:
209,316,69129,1,8,0:0:0:0:
113,308,69533,37,2,0:0:0:0:
112,260,69735,1,2,0:0:0:0:
121,212,69937,1,2,0:0:0:0:
141,168,70139,1,2,0:0:0:0:
175,134,70342,1,2,0:0:0:0:
213,105,70544,1,2,0:0:0:0:
257,88,70746,2,2,L|320:79,2,60
273,182,71554,5,8,0:0:0:0:
367,162,71958,1,8,0:0:0:0:
462,172,72362,1,8,0:0:0:0:
410,253,72766,38,0,P|253:317|73:244,1,360,2|2,0:0|0:0,0:0:0:0:
126,66,74787,5,8,0:0:0:0:
158,100,74989,1,0,0:0:0:0:
192,133,75191,1,8,0:0:0:0:
262,197,75595,1,8,0:0:0:0:
263,292,75999,37,2,0:0:0:0:
309,278,76201,1,2,0:0:0:0:
348,250,76403,1,2,0:0:0:0:
372,208,76605,1,2,0:0:0:0:
375,160,76807,1,2,0:0:0:0:
362,113,77009,1,2,0:0:0:0:
328,78,77211,2,2,L|281:33,2,60
249,133,78019,5,8,0:0:0:0:
174,71,78424,1,8,0:0:0:0:
103,136,78828,1,8,0:0:0:0:
36,205,79232,38,2,B|71:251|71:251|123:215|123:215|161:270|161:270|212:234|212:234|245:284|245:284|292:252|292:252|325:301|325:301|379:261,1,480
450,322,81252,5,8,0:0:0:0:
454,275,81454,1,0,0:0:0:0:
458,228,81656,1,8,0:0:0:0:
463,133,82060,1,8,0:0:0:0:
403,57,82465,37,2,0:0:0:0:
355,64,82667,1,2,0:0:0:0:
308,77,82869,1,2,0:0:0:0:
264,98,83071,1,2,0:0:0:0:
225,126,83273,1,2,0:0:0:0:
197,165,83475,1,2,0:0:0:0:
189,212,83677,2,2,L|213:271,2,60
131,289,84485,5,8,0:0:0:0:
119,242,84687,1,0,0:0:0:0:
103,196,84889,1,8,0:0:0:0:
7,196,85293,1,12,0:0:0:0:
9,100,85697,38,0,B|50:38|164:20|319:22|418:35|465:104,1,480
256,192,94183,12,0,97416,0:0:0:0:
256,192,100043,21,0,0:0:0:0:
257,239,100245,1,0,0:0:0:0:
400,243,100851,1,0,0:0:0:0:
398,195,101053,1,0,0:0:0:0:
396,51,101659,1,0,0:0:0:0:
348,51,101861,2,8,B|290:72|233:56|167:38|97:54,1,240
105,195,103276,5,0,0:0:0:0:
107,242,103478,1,0,0:0:0:0:
109,337,103882,1,0,0:0:0:0:
197,299,104286,2,8,P|304:270|430:311,2,240
259,134,106509,37,0,0:0:0:0:
260,181,106711,1,0,0:0:0:0:
403,186,107317,1,0,0:0:0:0:
399,138,107519,1,0,0:0:0:0:
292,41,108125,1,0,0:0:0:0:
244,41,108327,2,8,B|180:41|116:25|132:89|131:196,1,240
142,328,109741,5,8,0:0:0:0:
175,293,109943,1,8,0:0:0:0:
270,289,110347,2,0,L|269:217,2,60,8|8|8,0:0|0:0|0:0,0:0:0:0:
413,299,111358,1,0,0:0:0:0:
436,257,111560,2,8,B|468:214|468:214|489:185|472:149|443:128|404:120|404:120|379:124|357:152|357:152|379:124|375:99|375:99|357:63|329:41|289:34|268:63|268:63|234:107,1,480
356,352,114793,38,0,L|346:224,1,120
341,186,115399,1,8,0:0:0:0:
333,138,115601,1,0,0:0:0:0:
329,90,115803,2,8,L|321:23,1,60
225,32,116409,6,0,B|137:96|185:168|238:290|137:361,1,360
45,353,118025,38,8,L|72:229,1,120
79,188,118632,2,0,L|53:109,1,60
38,88,119036,2,8,L|83:23,1,60
167,45,119642,6,0,B|231:74|247:110|247:110|263:145|301:153|301:153|339:162|356:197|356:197|371:233|450:274,1,360
368,334,121258,38,8,P|304:362|248:352,1,120
212,336,121864,1,0,0:0:0:0:
173,308,122066,2,8,P|131:268|119:199,1,120
139,115,122875,5,8,0:0:0:0:
232,134,123279,1,8,0:0:0:0:
309,78,123683,1,8,0:0:0:0:
368,153,124087,1,12,0:0:0:0:
437,86,124491,38,8,L|438:213,1,120
439,253,125097,2,8,B|437:299|437:299|437:330|397:329|397:329|316:329,1,180
256,192,127724,37,12,0:0:0:0:
295,53,128330,1,2,0:0:0:0:
247,47,128532,1,2,0:0:0:0:
199,49,128734,1,2,0:0:0:0:
153,63,128936,1,2,0:0:0:0:
114,91,129138,1,2,0:0:0:0:
82,126,129340,1,2,0:0:0:0:
78,197,129643,1,10,0:0:0:0:
82,268,129946,2,2,L|126:312,1,60
174,361,130451,1,10,0:0:0:0:
246,361,130755,2,10,L|321:349,1,60
446,323,131563,38,2,B|475:267|475:267|468:212|468:212|422:169|422:169|414:107|414:107|352:79,1,300
296,58,132876,1,8,0:0:0:0:
298,129,133179,2,0,L|298:195,1,60
226,192,133684,1,8,0:0:0:0:
160,162,133987,2,0,B|120:111|120:111|163:81|244:78,1,180
277,76,134796,1,2,0:0:0:0:
322,92,134998,1,2,0:0:0:0:
358,122,135200,1,2,0:0:0:0:
387,159,135402,1,2,0:0:0:0:
404,203,135604,1,2,0:0:0:0:
411,250,135806,1,2,0:0:0:0:
349,286,136109,1,10,0:0:0:0:
277,284,136412,2,2,L|277:212,1,60
277,152,136917,1,10,0:0:0:0:
275,80,137220,2,2,L|343:57,1,60
473,32,138028,6,0,B|481:90|481:90|425:102|425:102|434:160|434:160|375:172|375:172|377:229|377:229|390:330|273:392|177:377|99:297,1,660
18,76,141261,37,2,0:0:0:0:
26,123,141463,1,2,0:0:0:0:
38,170,141665,1,2,0:0:0:0:
49,215,141867,1,2,0:0:0:0:
67,259,142069,1,2,0:0:0:0:
100,293,142271,1,2,0:0:0:0:
171,295,142574,1,10,0:0:0:0:
243,291,142878,2,2,L|251:221,1,60
260,160,143383,1,10,0:0:0:0:
331,165,143686,2,2,L|395:175,1,60
468,53,144494,5,2,0:0:0:0:
421,40,144696,1,2,0:0:0:0:
373,42,144898,1,2,0:0:0:0:
326,54,145100,1,2,0:0:0:0:
287,82,145302,1,2,0:0:0:0:
262,123,145504,1,2,0:0:0:0:
267,194,145807,1,10,0:0:0:0:
338,203,146110,2,2,L|413:211,1,60
458,248,146615,1,10,0:0:0:0:
408,300,146919,2,2,L|348:315,1,60
212,342,147727,38,0,B|211:279|211:279|252:245|252:245|195:235|195:235|243:195|243:195|201:135|201:135,1,300
167,80,149040,1,8,0:0:0:0:
118,27,149343,2,0,L|61:60,1,60
5,95,149848,1,8,0:0:0:0:
62,138,150151,2,12,L|112:170,1,60
256,192,151566,12,0,153586,0:0:0:0:
326,232,160658,21,0,0:0:0:0:
256,275,161062,1,0,0:0:0:0:
184,233,161466,1,0,0:0:0:0:
184,150,161870,1,0,0:0:0:0:
256,108,162274,1,0,0:0:0:0:
327,150,162678,1,0,0:0:0:0:
327,233,163083,1,0,0:0:0:0:
255,275,163487,1,0,0:0:0:0:
184,233,163891,1,2,0:0:0:0:
184,150,164295,1,2,0:0:0:0:
256,108,164699,1,2,0:0:0:0:
327,150,165103,1,2,0:0:0:0:
327,233,165507,1,2,0:0:0:0:
256,273,165911,1,2,0:0:0:0:
184,233,166315,1,2,0:0:0:0:
184,150,166719,1,2,0:0:0:0:
112,108,167124,5,10,0:0:0:0:
40,150,167528,1,10,0:0:0:0:
40,233,167932,1,10,0:0:0:0:
112,274,168336,1,10,0:0:0:0:
184,233,168740,1,10,0:0:0:0:
256,273,169144,1,10,0:0:0:0:
327,233,169548,1,10,0:0:0:0:
399,273,169952,1,10,0:0:0:0:
470,233,170356,1,10,0:0:0:0:
489,151,170760,38,14,B|489:97|489:97|474:9|399:46|399:46|318:102|195:67|195:67|129:28|68:93|139:133|139:133|240:193,1,660
256,192,174599,12,0,179449,0:0:0:0:
