osu file format v14

[General]
AudioFilename: audio.mp3
AudioLeadIn: 0
PreviewTime: 42055
Countdown: 1
SampleSet: Soft
StackLeniency: 0.7
Mode: 0
LetterboxInBreaks: 0
EpilepsyWarning: 1
WidescreenStoryboard: 1
SamplesMatchPlaybackRate: 1

[Editor]
DistanceSpacing: 0.9
BeatDivisor: 4
GridSize: 16
TimelineZoom: 2

[Metadata]
Title:Bonjour Madame (Nightcore remix)
TitleUnicode:Bonjour Madame (Nightcore remix)
Artist:Lolita Jolie, Noizbasses & VEEX
ArtistUnicode:Lolita Jolie, Noizbasses & VEEX
Creator:VADSIG
Version:Insane
Source:
Tags:Bonjour Madame Nightcore Lolita Jolie Noirzbasses VEEX
BeatmapID:1922932
BeatmapSetID:920541

[Difficulty]
HPDrainRate:8
CircleSize:6
OverallDifficulty:8
ApproachRate:8
SliderMultiplier:1.7
SliderTickRate:1

[Events]
//Background and Video events
0,0,"BG.png",0,0
//Break Periods
//Storyboard Layer 0 (Background)
//Storyboard Layer 1 (Fail)
//Storyboard Layer 2 (Pass)
//Storyboard Layer 3 (Foreground)
//Storyboard Sound Samples

[TimingPoints]
1645,404.100270747181,4,2,0,40,1,0
61451,-100,4,2,0,50,0,1
87314,-100,4,2,0,50,0,0
127724,-100,4,2,0,50,0,1
153586,-100,4,2,0,50,0,0
179853,-100,4,2,0,70,0,0
180257,-100,4,2,0,63,0,0
180661,-100,4,2,0,58,0,0
181065,-100,4,2,0,51,0,0
181469,-100,4,2,0,45,0,0
181873,-100,4,2,0,40,0,0
182277,-100,4,2,0,35,0,0
182681,-100,4,2,0,29,0,0
183086,-100,4,2,0,23,0,0
183490,-100,4,2,0,17,0,0
183894,-100,4,2,0,10,0,0

[Colours]
Combo1 : 138,62,140
Combo2 : 241,165,227
Combo3 : 204,128,0
Combo4 : 209,38,80

[HitObjects]
256,192,11343,12,0,12959,0:0:0:0:
241,343,14576,6,0,L|275:243,1,85
291,189,14980,1,0,0:0:0:0:
296,112,15182,1,0,0:0:0:0:
244,55,15384,2,0,B|219:50|219:50|186:46|172:107|249:138|216:199,1,170
341,271,16192,1,8,0:0:0:0:
280,318,16394,2,0,L|280:371,2,42.5
223,266,16798,1,8,0:0:0:0:
166,317,17000,2,0,B|115:327|55:298|64:255|93:203,1,170
120,67,17809,37,8,0:0:0:0:
175,131,18011,1,8,0:0:0:0:
228,65,18213,1,8,0:0:0:0:
280,131,18415,1,8,0:0:0:0:
328,61,18617,2,8,B|363:61|363:61|383:60|383:91|383:91|383:122|429:127|429:127|432:173,1,170
411,229,19223,2,0,L|410:285,2,42.5
349,274,19627,1,8,0:0:0:0:
281,237,19829,2,0,L|282:301,2,42.5
218,280,20233,2,0,B|171:279|171:279|170:219,1,85
170,164,20637,1,8,0:0:0:0:
237,26,21041,5,8,0:0:0:0:
167,56,21243,1,8,0:0:0:0:
107,103,21445,1,8,0:0:0:0:
61,164,21647,1,8,0:0:0:0:
37,237,21850,2,0,B|34:305|95:338|162:321,1,170
190,255,22456,1,8,0:0:0:0:
218,183,22658,2,0,B|236:137|236:137|291:155,1,85
343,170,23062,2,0,B|388:186|388:186|372:241,1,85
351,293,23466,2,8,B|332:338|332:338|277:316|277:316|260:271|260:271|229:282,1,170
262,123,24274,37,8,0:0:0:0:
412,150,24678,2,0,P|402:196|375:230,1,85
318,269,25082,1,8,0:0:0:0:
262,123,25486,2,0,P|275:168|261:218,1,85
236,272,25891,1,8,0:0:0:0:
124,166,26295,2,0,P|152:189|168:234,1,85
169,307,26699,1,12,0:0:0:0:
98,88,27305,6,2,L|97:190,1,85
130,242,27709,2,2,L|212:183,1,85
232,123,28113,2,2,L|298:204,1,85
349,231,28517,2,2,L|256:275,1,85
203,301,28921,1,8,0:0:0:0:
130,323,29123,2,0,L|172:228,1,85
228,203,29527,1,8,0:0:0:0:
147,177,29729,1,8,0:0:0:0:
210,134,29932,2,0,L|250:28,1,85
255,19,30235,1,0,0:0:0:0:
213,126,30538,38,0,B|214:166|243:192|278:192,1,85
332,214,30942,1,8,0:0:0:0:
368,223,31043,2,0,P|393:258|374:325,1,85
379,334,31346,1,8,0:0:0:0:
303,345,31548,2,0,B|250:368|181:368|132:347,1,170
155,274,32154,1,8,0:0:0:0:
120,205,32356,2,0,P|160:188|192:212,1,85
195,133,32760,2,0,P|155:151|116:134,1,85
158,71,33164,1,12,0:0:0:0:
99,231,33973,6,0,B|99:289|99:289|95:347|174:379|290:290|290:290|318:270|323:209|323:209|324:135|324:135|324:86|283:86|283:86|228:86|228:86|187:86|187:117|187:117|186:172|186:172|241:175|241:175|233:271|233:271|142:271|145:158|145:158|119:159|119:159|142:49|142:49|187:47,1,1190
291,33,37205,38,0,B|414:31|414:31|443:60|414:95|414:95|389:95|389:95|365:95|365:160|365:160|365:240|365:240|353:320|304:336|304:336|280:383|341:383|341:383|426:383|438:351|438:351|389:320|389:320|438:288|438:288|402:256|402:256|438:223|438:223|402:176|402:176|438:111,1,1020
256,192,40236,5,0,0:0:0:0:
199,242,40438,1,8,0:0:0:0:
284,318,40741,1,0,0:0:0:0:
338,264,40943,1,0,0:0:0:0:
364,236,41044,1,0,0:0:0:0:
314,177,41246,1,0,0:0:0:0:
371,126,41448,1,0,0:0:0:0:
320,68,41650,1,4,0:0:0:0:
259,114,41852,1,0,0:0:0:0:
255,190,42055,38,0,P|210:180|164:195,1,85
214,254,42459,1,0,0:0:0:0:
172,318,42661,2,0,P|214:330|259:317,1,85
326,297,43065,2,0,P|346:329|340:379,1,85
494,360,43671,5,8,0:0:0:0:
482,284,43873,1,8,0:0:0:0:
452,213,44075,1,8,0:0:0:0:
408,150,44277,1,8,0:0:0:0:
357,92,44479,2,0,P|302:51|240:46,1,127.5
206,48,44883,1,8,0:0:0:0:
256,192,45287,37,8,0:0:0:0:
310,246,45489,1,8,0:0:0:0:
364,300,45691,1,8,0:0:0:0:
440,296,45893,2,0,L|439:189,1,85
375,168,46298,1,8,0:0:0:0:
375,91,46500,1,8,0:0:0:0:
256,192,46904,5,0,0:0:0:0:
185,161,47106,2,0,B|155:137|132:147|132:147|113:161|113:183|113:183|121:200|188:229,1,170
238,256,47712,2,0,B|283:280|267:310|267:310|246:338|209:317,1,127.5
180,304,48116,1,12,0:0:0:0:
290,198,48520,38,8,L|269:88,1,85
256,40,48924,1,8,0:0:0:0:
179,38,49126,2,0,L|170:152,1,85
163,198,49530,1,8,0:0:0:0:
195,267,49732,1,8,0:0:0:0:
309,360,50137,6,0,B|296:261|296:261|310:163|310:163|342:249|342:249|364:289|397:289|397:289|428:187|404:136,1,510
260,185,51753,38,8,B|250:250|250:250|271:296,1,85
293,335,52157,1,8,0:0:0:0:
219,355,52359,2,0,B|204:300|204:300|157:264,1,85
115,245,52763,1,8,0:0:0:0:
108,168,52965,1,8,0:0:0:0:
256,192,53369,5,8,0:0:0:0:
318,236,53571,2,0,B|343:262|374:255|391:204,1,85
418,151,53975,1,0,0:0:0:0:
449,81,54178,2,0,P|394:37|311:49,1,127.5
302,45,54582,1,12,0:0:0:0:
256,192,54986,37,8,0:0:0:0:
242,267,55188,2,0,P|197:279|164:310,1,85
239,331,55592,1,0,0:0:0:0:
292,276,55794,2,0,P|343:226|424:213,1,127.5
433,212,56198,1,12,0:0:0:0:
292,276,56602,2,0,P|315:212|380:155,1,127.5
389,151,57006,1,12,0:0:0:0:
292,276,57410,2,0,P|285:194|318:135,1,127.5
325,123,57814,1,12,0:0:0:0:
152,96,58219,6,4,B|79:110|79:110|51:133|45:192|45:192|77:235|116:216|116:216|149:302|149:302|225:257|309:345,1,510
470,318,59835,38,4,B|448:209|481:55|255:-53|156:36|229:141,1,510
256,192,61451,37,0,0:0:0:0:
256,192,61855,1,0,0:0:0:0:
256,192,62260,1,0,0:0:0:0:
256,192,62664,1,0,0:0:0:0:
256,71,63068,37,0,0:0:0:0:
339,106,63270,1,0,0:0:0:0:
375,192,63472,1,0,0:0:0:0:
339,275,63674,1,0,0:0:0:0:
256,311,63876,1,0,0:0:0:0:
170,275,64078,1,0,0:0:0:0:
135,192,64280,1,0,0:0:0:0:
170,106,64482,1,0,0:0:0:0:
256,192,64684,5,4,0:0:0:0:
256,192,65088,1,0,0:0:0:0:
256,192,65492,1,0,0:0:0:0:
256,192,65896,1,0,0:0:0:0:
48,144,66301,37,0,0:0:0:0:
48,224,66503,1,0,0:0:0:0:
128,128,66705,1,0,0:0:0:0:
128,240,66907,1,0,0:0:0:0:
208,96,67109,1,0,0:0:0:0:
208,272,67311,1,0,0:0:0:0:
288,48,67513,1,0,0:0:0:0:
288,320,67715,1,0,0:0:0:0:
496,191,67917,2,0,L|313:193,1,170
256,192,68725,5,0,0:0:0:0:
256,192,69129,1,0,0:0:0:0:
64,32,69533,37,0,0:0:0:0:
208,64,69735,1,0,0:0:0:0:
352,32,69937,1,0,0:0:0:0:
384,176,70139,1,0,0:0:0:0:
352,320,70342,1,0,0:0:0:0:
208,288,70544,1,0,0:0:0:0:
64,320,70746,1,0,0:0:0:0:
32,176,70948,1,0,0:0:0:0:
151,88,71150,1,4,0:0:0:0:
256,192,71554,5,0,0:0:0:0:
256,192,71958,1,0,0:0:0:0:
256,192,72362,1,0,0:0:0:0:
371,176,72766,2,0,B|332:150|257:138|168:163|129:163|129:189|129:189|129:214|168:214|257:227|383:214,1,510
256,192,74383,1,0,0:0:0:0:
184,144,74787,37,0,0:0:0:0:
333,151,74989,1,0,0:0:0:0:
258,269,75191,1,0,0:0:0:0:
256,192,75595,6,0,B|224:197|202:225,1,50
53,292,75999,37,0,0:0:0:0:
33,146,76201,1,0,0:0:0:0:
176,128,76403,1,0,0:0:0:0:
196,276,76605,1,0,0:0:0:0:
332,257,76807,1,0,0:0:0:0:
321,112,77009,1,0,0:0:0:0:
464,98,77211,1,0,0:0:0:0:
475,242,77413,1,0,0:0:0:0:
336,256,77615,1,0,0:0:0:0:
256,192,78019,5,0,0:0:0:0:
256,192,78424,1,0,0:0:0:0:
200,190,78828,2,0,P|201:159|224:136,1,50
345,71,79232,37,0,0:0:0:0:
472,61,79434,1,0,0:0:0:0:
415,177,79636,1,0,0:0:0:0:
301,233,79838,1,0,0:0:0:0:
284,360,80040,1,0,0:0:0:0:
183,280,80242,1,0,0:0:0:0:
185,152,80444,1,0,0:0:0:0:
312,136,80646,1,0,0:0:0:0:
205,35,80848,2,0,B|128:17|128:17|79:16|79:16|79:62,1,170
78,143,81454,1,0,0:0:0:0:
124,208,81656,1,0,0:0:0:0:
256,192,82060,5,0,0:0:0:0:
344,242,82465,37,0,0:0:0:0:
256,90,82667,1,0,0:0:0:0:
169,242,82869,1,0,0:0:0:0:
335,190,83071,1,0,0:0:0:0:
184,102,83273,1,0,0:0:0:0:
185,277,83475,1,0,0:0:0:0:
305,148,83677,1,0,0:0:0:0:
142,212,83879,1,0,0:0:0:0:
294,299,84081,1,0,0:0:0:0:
256,192,84485,6,0,L|257:105,2,85
256,192,85293,1,4,0:0:0:0:
330,58,85697,1,0,0:0:0:0:
441,85,86000,1,0,0:0:0:0:
345,149,86304,1,0,0:0:0:0:
414,179,86506,1,0,0:0:0:0:
286,263,86910,1,0,0:0:0:0:
286,263,87011,1,0,0:0:0:0:
286,263,87112,1,0,0:0:0:0:
286,263,87213,1,0,0:0:0:0:
279,260,87314,1,0,0:0:0:0:
256,192,87718,5,0,0:0:0:0:
256,192,88122,1,0,0:0:0:0:
256,192,88526,1,0,0:0:0:0:
256,192,88930,2,0,L|257:95,1,85
180,106,89334,2,0,L|179:204,1,85
256,192,89738,1,0,0:0:0:0:
408,196,90142,1,0,0:0:0:0:
344,56,90547,2,0,L|294:135,1,85
256,192,90951,1,0,0:0:0:0:
256,39,91355,2,0,L|255:132,1,85
256,192,91759,1,0,0:0:0:0:
173,62,92163,2,0,L|222:142,1,85
256,192,92567,1,0,0:0:0:0:
295,257,92769,1,0,0:0:0:0:
338,319,92971,2,0,L|410:268,1,85
469,225,93375,1,0,0:0:0:0:
318,198,93779,6,0,P|358:183|398:155,1,85
454,111,94183,1,0,0:0:0:0:
421,41,94386,1,0,0:0:0:0:
347,61,94588,2,0,P|309:86|286:123,1,85
256,192,94992,1,0,0:0:0:0:
256,192,95396,12,0,98629,0:0:0:0:
256,192,100043,37,8,0:0:0:0:
256,115,100245,2,8,B|258:64|258:64|258:16|306:16|306:16|354:16|355:60|355:60|356:116,1,255
351,186,101053,2,8,B|351:217|351:217|351:235|302:235|302:235|255:235|255:222|255:222|256:184,1,170
251,115,101659,2,0,P|213:119|173:151,1,85
124,202,102063,1,8,0:0:0:0:
188,242,102265,1,0,0:0:0:0:
131,294,102468,2,0,P|171:316|214:314,1,85
256,192,103276,5,8,0:0:0:0:
256,192,103478,2,8,B|259:85|305:72|305:72|380:58|416:227,1,340
322,97,104690,1,8,0:0:0:0:
325,173,104892,2,8,B|290:248|290:248|200:293|91:292|75:180,1,340
70,156,105801,1,8,0:0:0:0:
63,118,105902,1,12,0:0:0:0:
256,192,106509,37,8,0:0:0:0:
315,240,106711,2,0,P|337:170|360:72,1,170
429,46,107317,1,8,0:0:0:0:
416,121,107519,2,0,P|399:192|367:296,1,170
351,358,108125,1,8,0:0:0:0:
280,327,108327,1,8,0:0:0:0:
222,276,108529,1,0,0:0:0:0:
173,216,108731,1,8,0:0:0:0:
137,148,108933,1,0,0:0:0:0:
127,72,109135,2,0,P|150:51|205:42,1,85
262,181,109741,5,8,0:0:0:0:
247,107,109943,2,0,B|237:72|256:59|256:59|274:47|333:42,1,127.5
365,32,110347,1,8,0:0:0:0:
434,64,110550,1,0,0:0:0:0:
466,133,110752,2,0,B|477:177|462:214|385:228,1,127.5
287,233,111358,1,8,0:0:0:0:
322,165,111560,2,0,P|278:151|240:169,1,85
180,208,111964,1,8,0:0:0:0:
132,268,112166,2,0,B|208:301|208:301|245:292|245:292|274:296|274:296|318:280|318:280|351:286|351:286|383:279,1,255
256,192,114793,38,8,B|239:146|239:146|288:127,1,85
345,110,115197,1,8,0:0:0:0:
413,143,115399,2,0,B|449:173|449:173|417:213,1,85
378,263,115803,1,8,0:0:0:0:
320,212,116005,2,0,L|256:288,1,85
213,333,116409,1,8,0:0:0:0:
178,264,116611,1,8,0:0:0:0:
189,189,116813,1,8,0:0:0:0:
252,146,117015,1,0,0:0:0:0:
327,138,117217,2,0,P|396:156|415:212,1,127.5
418,241,117621,1,4,0:0:0:0:
297,335,118025,6,8,B|249:335|249:335|219:296,1,85
179,245,118429,1,8,0:0:0:0:
243,203,118632,2,0,B|243:155|243:155|187:156,1,85
129,155,119036,1,8,0:0:0:0:
129,78,119238,2,0,B|159:41|159:41|211:41,1,85
272,37,119642,2,0,B|307:71|305:120|305:120|297:181|345:220,1,170
364,257,120248,1,8,0:0:0:0:
436,233,120450,2,0,P|373:170|371:115,1,127.5
368,97,120854,1,4,0:0:0:0:
256,192,121258,38,8,P|243:243|211:272,1,85
158,308,121662,1,8,0:0:0:0:
145,233,121864,2,0,P|158:182|186:153,1,85
246,122,122268,1,8,0:0:0:0:
291,60,122470,1,8,0:0:0:0:
431,129,122875,2,0,P|434:185|420:246,1,85
401,284,123279,2,0,P|344:287|283:272,1,85
246,253,123683,2,0,P|242:196|257:135,1,85
305,120,124087,2,0,P|308:176|294:237,1,85
283,278,124491,1,0,0:0:0:0:
225,327,124693,1,8,0:0:0:0:
170,273,124895,1,8,0:0:0:0:
116,327,125097,1,0,0:0:0:0:
51,286,125299,1,0,0:0:0:0:
51,209,125501,1,8,0:0:0:0:
127,203,125703,1,12,0:0:0:0:
199,69,126107,6,0,B|275:58|399:98|441:176|436:221|436:221|430:270|396:295|396:295|368:314|338:306|313:275|313:275|293:248,1,510
256,192,127724,21,0,0:0:0:0:
239,319,128330,37,0,0:0:0:0:
154,270,128532,1,0,0:0:0:0:
128,175,128734,1,0,0:0:0:0:
177,90,128936,1,0,0:0:0:0:
272,64,129138,1,0,0:0:0:0:
357,113,129340,2,0,P|394:173|371:240,1,127.5
238,313,129946,1,0,0:0:0:0:
147,276,130148,2,0,P|95:229|99:154,1,127.5
185,32,130755,1,0,0:0:0:0:
242,112,130957,1,0,0:0:0:0:
256,192,131563,5,0,0:0:0:0:
279,287,131765,1,0,0:0:0:0:
374,264,131967,1,0,0:0:0:0:
351,169,132169,1,0,0:0:0:0:
328,74,132371,1,0,0:0:0:0:
233,47,132573,1,0,0:0:0:0:
256,192,132876,1,0,0:0:0:0:
119,140,133179,1,0,0:0:0:0:
116,238,133381,1,0,0:0:0:0:
256,192,133684,1,0,0:0:0:0:
254,339,133987,1,0,0:0:0:0:
352,334,134189,2,0,B|407:323|438:298|424:254|358:227,1,170
256,192,134796,37,0,0:0:0:0:
214,80,134998,1,0,0:0:0:0:
174,192,135200,1,0,0:0:0:0:
92,104,135402,1,0,0:0:0:0:
118,220,135604,1,0,0:0:0:0:
6,180,135806,1,0,0:0:0:0:
64,350,136109,1,0,0:0:0:0:
216,254,136412,1,0,0:0:0:0:
286,352,136614,1,0,0:0:0:0:
385,202,136917,1,0,0:0:0:0:
497,343,137220,1,0,0:0:0:0:
378,355,137422,1,0,0:0:0:0:
256,192,138028,5,0,0:0:0:0:
332,127,138230,1,0,0:0:0:0:
238,94,138432,1,0,0:0:0:0:
256,192,138634,1,0,0:0:0:0:
162,159,138837,1,0,0:0:0:0:
240,109,139039,2,0,B|285:85|317:82|317:82|345:85|365:110|365:110|381:134|377:163|377:163|377:206|417:206|417:206|457:206|457:231|457:231|457:259|457:259|432:286|432:286|407:313|377:314|377:314|315:315|315:315|315:257|315:257|314:231|256:233|255:255|255:255|256:305,1,680
192,80,141261,37,0,0:0:0:0:
320,80,141463,1,0,0:0:0:0:
256,192,141665,1,0,0:0:0:0:
192,304,141867,1,0,0:0:0:0:
320,304,142069,1,0,0:0:0:0:
256,192,142271,1,0,0:0:0:0:
150,26,142574,1,0,0:0:0:0:
256,192,142878,1,0,0:0:0:0:
320,304,143080,1,0,0:0:0:0:
476,193,143383,1,0,0:0:0:0:
321,83,143686,1,0,0:0:0:0:
256,192,143888,1,0,0:0:0:0:
45,321,144494,6,0,B|45:260|45:260|72:283,1,85
137,359,144898,1,0,0:0:0:0:
45,321,145100,2,0,B|45:260|45:260|65:237,1,85
145,164,145504,1,0,0:0:0:0:
45,52,145807,1,0,0:0:0:0:
193,31,146110,2,0,B|226:69|226:69|197:107,1,85
93,216,146615,1,0,0:0:0:0:
192,329,146919,1,0,0:0:0:0:
275,233,147121,2,0,B|304:197|304:197|329:171|356:179|356:179|380:188|370:212|370:212|357:243,1,170
356,331,147727,37,0,0:0:0:0:
302,224,147929,1,0,0:0:0:0:
238,326,148131,1,0,0:0:0:0:
121,352,148333,1,0,0:0:0:0:
121,232,148535,1,0,0:0:0:0:
124,112,148737,1,0,0:0:0:0:
122,351,149141,1,0,0:0:0:0:
124,231,149343,1,0,0:0:0:0:
121,350,149545,1,0,0:0:0:0:
122,351,149949,1,0,0:0:0:0:
120,231,150151,1,0,0:0:0:0:
117,111,150353,1,0,0:0:0:0:
186,33,150960,5,0,0:0:0:0:
304,52,151162,1,0,0:0:0:0:
191,92,151364,1,0,0:0:0:0:
256,192,151566,1,0,0:0:0:0:
256,192,151970,12,0,153586,0:0:0:0:
450,138,154192,5,8,0:0:0:0:
406,75,154394,1,8,0:0:0:0:
357,134,154596,1,8,0:0:0:0:
316,68,154799,1,8,0:0:0:0:
247,102,155001,2,0,L|199:129,2,42.5
238,177,155405,2,0,L|285:150,2,42.5
219,251,155809,1,8,0:0:0:0:
289,281,156011,1,8,0:0:0:0:
344,228,156213,1,0,0:0:0:0:
372,202,156314,1,0,0:0:0:0:
460,129,156617,2,0,L|467:195,1,42.5,8|0,0:0|0:0,0:0:0:0:
471,208,156819,1,4,0:0:0:0:
166,340,157425,5,8,0:0:0:0:
127,273,157627,1,8,0:0:0:0:
123,196,157829,1,8,0:0:0:0:
159,128,158031,1,8,0:0:0:0:
223,168,158233,2,0,L|264:193,2,42.5
236,243,158637,2,0,L|189:216,2,42.5
252,318,159042,1,8,0:0:0:0:
318,280,159244,1,8,0:0:0:0:
353,212,159446,1,0,0:0:0:0:
370,178,159547,1,0,0:0:0:0:
388,144,159648,1,0,0:0:0:0:
330,93,159850,2,0,L|264:106,1,50
249,109,160052,1,4,0:0:0:0:
397,284,160658,37,0,0:0:0:0:
397,284,160759,2,0,L|326:231,1,50
385,190,161062,1,0,0:0:0:0:
385,190,161163,2,0,L|297:155,1,50
364,106,161466,1,0,0:0:0:0:
364,106,161567,2,0,L|276:106,1,50
309,36,161870,1,0,0:0:0:0:
309,36,161971,2,0,L|221:71,1,50
198,25,162274,1,0,0:0:0:0:
198,25,162375,2,0,L|145:96,1,50
99,48,162678,1,0,0:0:0:0:
99,48,162779,2,0,L|99:103,1,50
32,120,163083,1,0,0:0:0:0:
33,115,163184,2,4,L|68:186,1,50
226,301,163891,5,8,0:0:0:0:
302,302,164093,1,8,0:0:0:0:
263,236,164295,1,8,0:0:0:0:
219,173,164497,1,8,0:0:0:0:
295,171,164699,1,8,0:0:0:0:
257,104,164901,1,8,0:0:0:0:
190,65,165103,1,0,0:0:0:0:
188,60,165204,2,0,L|153:131,1,50
96,94,165507,1,0,0:0:0:0:
94,89,165608,2,0,L|59:160,1,50
138,155,165911,1,0,0:0:0:0:
138,155,166012,2,0,L|103:226,1,50
49,178,166315,1,0,0:0:0:0:
47,173,166416,2,4,L|12:244,1,50
247,227,167124,37,8,0:0:0:0:
228,152,167326,1,8,0:0:0:0:
176,93,167528,1,8,0:0:0:0:
98,83,167730,1,8,0:0:0:0:
37,130,167932,1,8,0:0:0:0:
24,206,168134,1,8,0:0:0:0:
104,289,168437,1,0,0:0:0:0:
193,215,168740,1,8,0:0:0:0:
138,159,168942,1,8,0:0:0:0:
251,131,169245,1,0,0:0:0:0:
210,30,169548,1,0,0:0:0:0:
288,30,169750,1,4,0:0:0:0:
64,49,170356,5,0,0:0:0:0:
60,46,170457,2,0,L|74:123,1,50
138,98,170760,1,0,0:0:0:0:
135,102,170861,2,0,L|212:87,1,50
206,159,171165,1,0,0:0:0:0:
202,156,171266,2,0,L|216:233,1,50
280,194,171569,1,0,0:0:0:0:
284,197,171670,2,0,L|269:119,1,50
342,131,171973,1,0,0:0:0:0:
339,135,172074,2,0,L|417:121,1,50
396,195,172377,1,0,0:0:0:0:
399,191,172478,2,0,L|321:206,1,50
367,268,172781,1,4,0:0:0:0:
364,272,172882,2,0,L|441:257,1,50
455,69,173589,37,8,0:0:0:0:
378,66,173791,1,8,0:0:0:0:
409,135,173993,1,8,0:0:0:0:
332,138,174195,1,8,0:0:0:0:
295,70,174397,1,8,0:0:0:0:
219,80,174599,1,8,0:0:0:0:
253,189,174902,1,0,0:0:0:0:
273,302,175206,1,8,0:0:0:0:
259,226,175408,1,8,0:0:0:0:
238,113,175711,1,0,0:0:0:0:
351,95,176014,1,0,0:0:0:0:
417,132,176216,1,4,0:0:0:0:
406,284,176620,2,0,P|395:241|404:185,1,85
344,147,177024,2,0,L|342:246,1,85
279,275,177428,2,0,P|290:230|277:176,1,85
278,116,177832,1,0,0:0:0:0:
342,75,178034,1,0,0:0:0:0:
281,28,178236,1,0,0:0:0:0:
217,70,178438,1,0,0:0:0:0:
278,116,178640,1,0,0:0:0:0:
261,192,179045,1,0,0:0:0:0:
261,192,179146,1,0,0:0:0:0:
261,192,179247,1,0,0:0:0:0:
261,192,179348,1,0,0:0:0:0:
256,192,179449,12,0,184298,0:0:0:0:
