osu file format v14

[General]
AudioFilename: audio.ogg
AudioLeadIn: 0
PreviewTime: 37608
Countdown: 0
SampleSet: Soft
StackLeniency: 0.7
Mode: 0
LetterboxInBreaks: 0
WidescreenStoryboard: 1

[Editor]
Bookmarks: 8066,22722,30050,39211,68524,83180,99669,128982,143638,158295,172951,187608
DistanceSpacing: 0.8
BeatDivisor: 4
GridSize: 32
TimelineZoom: 2.2

[Metadata]
Title:ORIYENTATSIYA SEVER
TitleUnicode:ОРИЕНТАЦИЯ СЕВЕР
Artist:Lolita
ArtistUnicode:Лолита
Creator:DixAway
Version:light insane.
Source:
Tags:russian pop chanson шансон эстрада русский поп oriyentaciya orientacia orientatsiya милявская hyokar maiev
BeatmapID:4353054
BeatmapSetID:2001204

[Difficulty]
HPDrainRate:4.5
CircleSize:4
OverallDifficulty:7
ApproachRate:8.2
SliderMultiplier:1.6
SliderTickRate:1

[Events]
//Background and Video events
0,0,"bg.jpg",0,0
//Break Periods
2,158495,168567
//Storyboard Layer 0 (Background)
//Storyboard Layer 1 (Fail)
//Storyboard Layer 2 (Pass)
//Storyboard Layer 3 (Foreground)
//Storyboard Layer 4 (Overlay)
//Storyboard Sound Samples

[TimingPoints]
738,458.015267175573,4,2,1,40,1,0
738,-181.818181818181,4,2,1,40,0,0
1425,-399.999999999997,4,2,1,40,0,0
4402,-181.818181818181,4,2,1,40,0,0
5089,-222.222222222221,4,2,1,40,0,0
7150,-666.666666666658,4,2,1,40,0,0
8066,-100,4,2,1,50,0,0
22722,-80,4,2,1,60,0,0
30050,-80,4,2,1,65,0,0
30967,-100,4,2,1,65,0,0
31882,-80,4,2,1,65,0,0
36463,-100,4,2,1,65,0,0
39211,-75.187969924812,4,2,1,80,0,1
68524,-100,4,2,1,70,0,0
99669,-74.0740740740741,4,2,1,80,0,1
128982,-76.9230769230769,4,2,1,80,0,0
143638,-76.9230769230769,4,2,1,80,0,0
171119,-500,4,2,1,65,0,0
172035,-250,4,2,1,65,0,0
172951,-66.6666666666667,4,2,1,80,0,1
187608,-66.6666666666667,4,2,1,80,0,0

[Colours]
Combo1 : 238,230,213
Combo2 : 217,131,45
Combo3 : 143,165,175
Combo4 : 255,156,108

[HitObjects]
189,52,738,6,0,P|142:76|127:127,1,88.000002685547,2|2,0:2|0:2,0:0:0:0:
38,212,1425,2,0,P|93:224|134:276,1,120,2|0,0:2|0:0,0:0:0:0:
112,367,3028,2,0,L|172:356,1,60,2|0,0:2|0:0,0:0:0:0:
266,382,3944,5,2,0:2:0:0:
340,320,4402,2,0,L|360:219,1,88.000002685547,2|0,0:2|0:0,0:0:0:0:
454,181,5089,2,0,P|421:166|400:137,1,71.9999978027344,2|2,0:2|0:2,0:0:0:0:
447,40,5776,2,0,P|365:53|254:69,1,179.999994506836,2|0,0:2|0:0,0:0:0:0:
159,15,7150,6,0,P|178:34|180:44,1,35.9999989013672,2|0,0:2|0:0,0:0:0:0:
204,133,8066,6,0,L|188:223,1,80,2|2,0:2|0:2,0:0:0:0:
106,309,8524,2,0,B|113:293|132:280|132:280|258:305,1,160,2|8,0:2|0:2,0:0:0:0:
428,384,9440,2,0,P|384:354|367:294,1,80,0|0,1:2|3:2,0:0:0:0:
333,226,9898,6,0,P|342:181|356:126,1,80,2|2,1:2|0:2,0:0:0:0:
468,13,10241,1,0,1:2:0:0:
468,13,10356,2,0,P|448:48|391:57,1,80,2|0,1:2|0:0,0:0:0:0:
308,60,10814,2,0,P|220:38|131:21,1,160,10|2,0:2|0:2,0:0:0:0:
18,135,11501,5,0,1:2:0:0:
18,135,11730,2,0,B|-15:116|-25:71|26:24|80:44|115:115|92:196,1,240,2|0,0:2|0:0,0:0:0:0:
10,251,12646,2,0,L|114:275,1,80,8|0,0:2|0:0,0:0:0:0:
151,356,12989,1,0,1:2:0:0:
151,356,13104,2,0,L|240:338,1,80,0|0,1:2|3:2,0:0:0:0:
408,377,13562,6,0,P|368:372|336:349,1,80,2|2,1:2|0:2,0:0:0:0:
286,259,14020,2,0,P|272:209|255:166,1,80,2|0,1:2|0:0,0:0:0:0:
191,73,14478,2,0,P|267:96|344:116,1,160,10|2,0:2|0:2,0:0:0:0:
509,231,15165,5,0,1:2:0:0:
509,231,15394,2,0,B|462:177|393:192|363:248|363:248|370:290|318:327,1,240,2|0,0:2|0:0,0:0:0:0:
257,355,16310,2,0,L|177:334,1,80,8|0,0:2|0:0,0:0:0:0:
97,384,16654,1,0,1:2:0:0:
97,384,16768,2,0,P|89:349|57:315,1,80,0|2,1:2|3:2,0:0:0:0:
5,186,17226,6,0,P|48:195|92:205,1,80,2|2,1:2|0:2,0:0:0:0:
179,267,17684,2,0,P|218:258|257:250,1,80,2|0,1:2|0:0,0:0:0:0:
406,288,18142,2,0,B|387:268|368:264|368:264|334:130,1,160,10|2,0:2|0:2,0:0:0:0:
424,44,18829,5,0,1:2:0:0:
424,44,19058,2,0,B|362:20|318:71|318:71|308:67|308:67|275:120|212:109,1,240,2|0,0:2|0:0,0:0:0:0:
68,23,19974,2,0,P|102:42|123:76,1,80,10|2,0:2|0:2,0:0:0:0:
141,179,20318,1,0,1:2:0:0:
141,179,20432,2,0,L|57:196,1,80,2|0,1:2|3:2,0:0:0:0:
0,298,20890,6,0,L|78:312,1,80,2|2,1:2|0:2,0:0:0:0:
156,380,21348,2,0,L|243:362,1,80,2|0,1:2|0:0,0:0:0:0:
373,383,21806,2,0,P|337:356|331:234,1,160,10|2,0:2|0:2,0:0:0:0:
376,164,22493,1,0,1:2:0:0:
465,117,22722,6,0,P|488:125|512:132,2,50,2|0|2,0:1|0:0|0:2,0:0:0:0:
385,71,23066,2,0,P|361:79|281:113,1,100,2|0,0:1|0:0,0:0:0:0:
287,119,23409,1,2,0:1:0:0:
196,188,23638,6,0,B|180:146|142:141|142:141|109:178|51:156,2,150,10|0|0,0:2|1:2|3:2,0:0:0:0:
288,258,24554,6,0,P|265:302|249:350,1,100,2|2,1:2|0:2,0:0:0:0:
118,384,24898,1,2,1:1:0:0:
118,384,25012,2,0,P|100:333|77:290,1,100,2|2,1:2|0:1,0:0:0:0:
0,162,25470,2,0,P|44:182|93:172,1,100,10|2,0:2|0:2,0:0:0:0:
200,0,25928,2,0,P|172:41|174:90,1,100,2|0,0:2|1:2,0:0:0:0:
243,164,26386,6,0,P|266:155|290:148,2,50,2|0|2,0:1|0:0|0:2,0:0:0:0:
164,223,26730,2,0,P|216:243|241:305,1,100,2|0,0:1|0:0,0:0:0:0:
235,294,27073,1,2,0:1:0:0:
152,353,27302,6,0,B|84:365|84:365|79:370|79:370|6:384,2,150,8|0|0,0:2|1:2|3:2,0:0:0:0:
261,375,28218,6,0,L|358:353,1,100,2|2,1:2|0:2,0:0:0:0:
505,384,28562,1,2,1:1:0:0:
505,384,28676,2,0,P|462:346|464:290,1,100,2|2,1:2|0:1,0:0:0:0:
374,239,29134,2,0,P|308:224|280:178,2,100,10|2|2,0:2|0:2|0:2,0:0:0:0:
477,213,29821,1,0,1:2:0:0:
477,213,30050,6,0,P|490:151|519:42,2,150,2|2|2,0:1|0:1|0:1,0:0:0:0:
400,294,30967,2,0,B|372:309|372:309|244:273,1,160,10|2,0:2|1:2,0:0:0:0:
196,157,31654,1,0,3:2:0:0:
196,157,31883,6,0,P|191:85|128:51,2,150,2|2|2,1:2|1:1|0:1,0:0:0:0:
117,253,32799,2,0,L|16:265,1,100,10|2,0:2|0:2,0:0:0:0:
30,378,33257,2,0,L|129:366,1,100,10|8,0:2|0:2,0:0:0:0:
218,265,33714,6,0,P|231:203|260:94,2,150,2|2|2,0:1|0:1|0:1,0:0:0:0:
289,371,34631,2,0,B|309:303|406:305|406:305|406:333|431:352,1,200,8|0,0:2|1:2,0:0:0:0:
510,278,35318,1,0,3:2:0:0:
421,184,35547,6,0,P|355:192|283:210,1,100,2|2,1:2|0:2,0:0:0:0:
233,254,35890,1,0,1:1:0:0:
233,254,36005,2,0,P|184:243|134:235,1,100,2|2,1:2|0:1,0:0:0:0:
74,173,36463,2,0,P|62:135|31:113,1,80,10|2,0:2|0:2,0:0:0:0:
182,0,36921,2,0,P|153:27|147:66,1,80,2|0,0:2|1:2,0:0:0:0:
203,177,37379,5,2,0:2:0:0:
499,28,39211,6,0,P|436:41|452:129,1,159.599993424683,6|0,3:2|1:2,0:0:0:0:
508,162,39669,2,0,P|448:178|396:201,1,106.399995616455,10|2,0:2|0:2,0:0:0:0:
337,374,40127,2,0,P|350:345|311:269,1,106.399995616455,2|2,3:2|1:2,0:0:0:0:
281,164,40585,1,10,0:2:0:0:
174,266,40814,1,0,0:0:0:0:
0,132,41043,6,0,P|73:155|75:233,1,159.599993424683,2|0,3:2|1:2,0:0:0:0:
5,365,41501,2,0,P|61:352|116:341,1,106.399995616455,10|2,0:2|0:2,0:0:0:0:
215,378,41959,2,0,P|228:326|246:276,1,106.399995616455,2|2,3:2|1:2,0:0:0:0:
163,204,42302,5,0,1:2:0:0:
163,204,42417,2,0,P|194:186|218:157,1,53.1999978082276,10|0,0:2|0:0,0:0:0:0:
281,84,42646,2,0,P|300:102|324:115,1,53.1999978082276,2|2,0:2|0:2,0:0:0:0:
437,328,42875,6,0,P|379:312|379:213,1,159.599993424683,2|0,3:2|1:2,0:0:0:0:
512,156,43333,2,0,L|399:129,1,106.399995616455,8|0,0:2|0:0,0:0:0:0:
307,3,43791,1,0,3:2:0:0:
224,127,44020,1,0,1:2:0:0:
210,118,44134,1,0,1:2:0:0:
196,108,44249,2,0,L|77:91,1,106.399995616455,8|0,0:2|0:0,0:0:0:0:
0,184,44707,6,0,P|53:208|64:295,1,106.399995616455,0|2,3:2|1:2,0:0:0:0:
0,335,45050,1,0,1:2:0:0:
0,335,45165,2,0,L|104:355,1,106.399995616455,10|2,0:2|0:2,0:0:0:0:
255,384,45623,2,0,L|235:279,1,106.399995616455,2|2,3:2|1:2,0:0:0:0:
352,185,46081,5,10,0:2:0:0:
352,185,46310,2,0,P|302:168|288:113,1,106.399995616455,2|0,0:2|3:2,0:0:0:0:
467,31,46768,1,2,1:2:0:0:
467,31,46883,1,0,1:2:0:0:
467,31,46997,2,0,L|438:147,1,106.399995616455,10|2,0:2|0:2,0:0:0:0:
479,285,47455,2,0,P|432:261|379:268,1,106.399995616455,2|2,3:2|1:2,0:0:0:0:
305,361,47913,1,10,0:2:0:0:
206,257,48142,1,2,0:2:0:0:
107,384,48371,6,0,P|96:329|49:305,1,106.399995616455,0|2,3:2|1:2,0:0:0:0:
0,193,48829,2,0,P|59:185|115:179,1,106.399995616455,10|2,0:2|0:2,0:0:0:0:
220,102,49173,1,0,0:0:0:0:
220,102,49287,2,0,B|247:136|247:136|233:198,1,106.399995616455,2|2,3:2|1:2,0:0:0:0:
183,297,49745,1,10,0:2:0:0:
287,382,49974,1,2,0:2:0:0:
450,321,50203,6,0,P|416:324|353:259,1,106.399995616455,0|2,3:2|1:2,0:0:0:0:
296,209,50547,1,0,1:2:0:0:
296,209,50661,2,0,L|316:91,1,106.399995616455,8|0,0:2|0:0,0:0:0:0:
238,57,51119,1,0,3:2:0:0:
379,198,51348,1,0,1:2:0:0:
301,360,51577,2,0,P|277:313|227:298,1,106.399995616455,8|0,0:2|0:0,0:0:0:0:
119,373,52035,6,0,L|101:268,1,106.399995616455,0|2,3:2|1:2,0:0:0:0:
0,174,52379,1,0,1:2:0:0:
0,174,52493,2,0,P|30:152|39:113,1,53.1999978082276,10|0,0:2|0:0,0:0:0:0:
24,35,52722,2,0,P|49:31|74:39,1,53.1999978082276,2|0,0:2|0:0,0:0:0:0:
224,51,52951,2,0,P|176:71|156:119,1,106.399995616455,2|2,3:2|1:2,0:0:0:0:
105,212,53295,1,0,1:2:0:0:
105,212,53409,2,0,B|133:238|133:238|255:214,1,159.599993424683,10|0,0:2|0:0,0:0:0:0:
311,344,53867,6,0,P|323:292|366:267,1,106.399995616455,6|2,3:2|1:2,0:0:0:0:
465,297,54325,2,0,P|469:249|477:181,1,106.399995616455,10|2,0:2|0:2,0:0:0:0:
431,53,54783,1,2,3:2:0:0:
323,144,55012,1,2,1:2:0:0:
156,7,55242,2,0,P|206:15|233:59,1,106.399995616455,10|0,0:2|0:0,0:0:0:0:
221,205,55700,6,0,B|208:208|196:221|196:221|121:206,1,106.399995616455,2|2,3:2|1:2,0:0:0:0:
41,296,56157,1,10,0:2:0:0:
137,384,56386,1,2,0:2:0:0:
294,342,56616,2,0,P|242:340|210:300,1,106.399995616455,2|2,3:2|1:2,0:0:0:0:
267,212,56959,1,0,1:2:0:0:
267,212,57074,2,0,P|277:177|300:147,1,53.1999978082276,10|0,0:2|0:0,0:0:0:0:
213,88,57302,2,0,P|202:53|179:23,1,53.1999978082276,2|2,0:2|0:2,0:0:0:0:
339,0,57532,6,0,P|337:75|406:104,1,159.599993424683,2|0,3:2|1:2,0:0:0:0:
506,58,57990,2,0,L|481:161,1,106.399995616455,8|0,0:2|0:0,0:0:0:0:
512,304,58448,2,0,P|488:258|437:248,1,106.399995616455,0|0,3:2|1:2,0:0:0:0:
356,307,58791,1,0,1:2:0:0:
356,307,58906,2,0,L|238:285,1,106.399995616455,8|0,0:2|0:0,0:0:0:0:
161,353,59364,6,0,B|139:310|139:310|158:252,1,106.399995616455,0|2,3:2|1:2,0:0:0:0:
180,172,59707,1,0,1:2:0:0:
180,172,59821,2,0,L|160:67,1,106.399995616455,10|2,0:2|0:2,0:0:0:0:
7,78,60280,2,0,P|27:130|79:137,1,106.399995616455,2|2,3:2|1:2,0:0:0:0:
166,53,60738,1,10,0:2:0:0:
262,161,60967,2,0,P|313:148|366:139,1,106.399995616455,2|0,0:2|3:2,0:0:0:0:
501,75,61425,5,2,1:2:0:0:
501,75,61540,1,0,1:2:0:0:
501,75,61654,2,0,P|436:90|400:50,1,106.399995616455,10|2,0:2|0:2,0:0:0:0:
266,0,62112,2,0,L|285:104,1,106.399995616455,2|2,3:2|1:2,0:0:0:0:
458,296,62570,2,0,P|408:246|354:244,1,106.399995616455,10|2,0:2|0:2,0:0:0:0:
282,368,63028,6,0,P|271:315|256:264,1,106.399995616455,0|2,3:2|1:2,0:0:0:0:
184,205,63372,1,0,1:2:0:0:
175,218,63486,2,0,P|125:197|73:187,1,106.399995616455,10|2,0:2|0:2,0:0:0:0:
230,112,63944,2,0,P|279:91|331:81,1,106.399995616455,2|2,0:2|0:2,0:0:0:0:
385,5,64402,1,10,0:2:0:0:
484,114,64631,1,2,0:2:0:0:
477,274,64860,6,0,P|449:228|398:214,1,106.399995616455,0|2,3:2|1:2,0:0:0:0:
316,307,65204,1,0,1:2:0:0:
316,308,65318,2,0,P|262:291|203:280,1,106.399995616455,8|0,0:2|0:0,0:0:0:0:
69,305,65776,1,0,3:2:0:0:
48,157,66005,1,0,1:2:0:0:
55,142,66119,1,0,1:2:0:0:
63,128,66234,2,0,P|107:127|134:185,1,106.399995616455,8|0,0:2|0:0,0:0:0:0:
0,319,66692,6,0,P|62:328|124:347,1,106.399995616455,0|0,3:2|1:2,0:0:0:0:
218,384,67036,1,0,1:2:0:0:
218,384,67150,2,0,P|213:347|264:289,1,106.399995616455,8|0,0:2|0:2,0:0:0:0:
332,367,67608,1,0,3:2:0:0:
399,277,67837,1,0,1:2:0:0:
275,168,68066,2,0,P|327:159|379:148,1,106.399995616455,8|2,0:2|0:2,0:0:0:0:
493,43,68524,6,0,P|464:91|471:139,1,80,2|2,3:2|0:2,0:0:0:0:
502,244,68867,1,2,0:1:0:0:
502,244,68982,2,0,P|472:217|431:208,1,80,2|2,3:2|0:1,0:0:0:0:
296,86,69440,2,0,P|319:118|319:158,1,80,0|0,3:2|0:0,0:0:0:0:
216,263,69898,2,0,P|255:269|287:292,1,80,0|0,3:2|0:0,0:0:0:0:
401,380,70356,6,0,L|414:300,1,80,2|2,3:2|0:2,0:0:0:0:
509,239,70699,1,2,0:1:0:0:
509,239,70814,2,0,L|486:156,1,80,2|2,3:2|0:1,0:0:0:0:
481,48,71272,1,2,3:2:0:0:
370,144,71501,1,2,0:2:0:0:
214,26,71730,2,0,P|251:39|274:71,1,80,2|0,3:2|0:0,0:0:0:0:
214,201,72188,6,0,P|174:206|138:223,1,80,2|2,3:2|0:2,0:0:0:0:
100,300,72531,1,2,0:1:0:0:
100,300,72646,2,0,P|109:320|115:342,1,40,2|0,3:2|0:0,0:0:0:0:
214,384,72875,2,0,P|220:362|230:341,1,40,2|0,0:1|0:0,0:0:0:0:
326,319,73104,2,0,P|364:327|402:317,2,80,0|0|0,3:2|0:0|3:2,0:0:0:0:
262,249,73791,5,0,0:0:0:0:
262,249,74020,2,0,P|246:212|219:183,1,80,2|2,3:2|0:2,0:0:0:0:
137,67,74478,2,0,P|130:109|101:146,1,80,2|2,3:2|0:1,0:0:0:0:
18,218,74936,2,0,L|111:236,1,80,2|2,3:2|0:2,0:0:0:0:
174,314,75279,1,0,0:0:0:0:
174,314,75394,2,0,L|283:288,1,80,2|0,3:2|0:0,0:0:0:0:
415,384,75852,6,0,P|379:366|365:330,1,80,2|2,3:2|0:2,0:0:0:0:
342,237,76196,1,2,0:1:0:0:
342,237,76310,2,0,P|348:215|381:161,1,80,2|2,3:2|0:1,0:0:0:0:
447,90,76768,2,0,P|475:117|512:130,2,80,0|0|0,3:2|0:0|3:2,0:0:0:0:
353,14,77455,1,0,0:0:0:0:
240,81,77684,6,0,P|271:114|277:168,1,80,2|2,3:2|0:2,0:0:0:0:
222,255,78028,1,2,2:1:0:0:
222,255,78142,2,0,L|134:270,1,80,2|2,3:2|2:1,0:0:0:0:
56,337,78600,1,2,3:2:0:0:
0,248,78829,1,2,0:2:0:0:
77,173,79058,2,0,L|91:94,1,80,2|0,3:2|0:0,0:0:0:0:
151,0,79516,6,0,P|177:34|216:39,1,80,2|2,3:2|0:2,0:0:0:0:
348,2,79860,1,2,0:1:0:0:
348,2,79975,2,0,L|329:90,1,80,2|2,3:2|0:1,0:0:0:0:
188,217,80432,2,0,P|216:182|262:178,1,80,0|0,3:2|0:0,0:0:0:0:
378,188,80890,2,0,L|472:200,1,80,0|0,3:2|0:0,0:0:0:0:
512,303,81348,6,0,L|432:313,1,80,2|2,3:2|0:2,0:0:0:0:
350,384,81692,1,2,0:1:0:0:
349,383,81807,2,0,P|321:349|273:339,1,80,2|2,3:2|0:1,0:0:0:0:
176,384,82264,2,0,P|167:344|158:305,1,80,2|2,3:2|0:2,0:0:0:0:
88,223,82608,1,0,1:2:0:0:
88,223,82722,2,0,P|96:183|105:144,1,80,2|0,3:2|0:0,0:0:0:0:
31,39,83180,5,2,3:2:0:0:
31,39,83295,1,0,0:0:0:0:
31,39,83409,2,0,P|52:56|82:55,1,40,2|2,0:2|1:1,0:0:0:0:
173,74,83638,2,0,L|280:56,1,80,10|2,0:2|0:1,0:0:0:0:
412,0,84096,2,0,P|376:23|365:77,1,80,2|2,3:2|0:2,0:0:0:0:
426,158,84440,1,0,1:2:0:0:
426,158,84554,2,0,P|466:167|526:185,1,80,10|0,0:2|0:0,0:0:0:0:
394,337,85012,6,0,P|385:297|373:259,1,80,2|2,3:2|0:2,0:0:0:0:
268,170,85356,1,2,1:1:0:0:
268,170,85470,2,0,P|259:209|247:247,1,80,10|2,0:2|0:1,0:0:0:0:
193,372,85928,2,0,P|168:341|131:329,1,80,2|2,3:2|0:2,0:0:0:0:
27,381,86272,1,0,1:2:0:0:
27,381,86386,2,0,P|32:346|44:299,1,80,10|0,0:2|0:0,0:0:0:0:
0,194,86844,5,2,3:2:0:0:
0,194,86959,1,0,0:0:0:0:
0,194,87073,2,0,P|21:211|51:210,1,40,2|2,0:2|1:1,0:0:0:0:
137,170,87302,2,0,L|154:83,1,80,10|2,0:2|0:1,0:0:0:0:
244,4,87760,2,0,P|287:0|328:36,1,80,2|2,3:2|0:2,0:0:0:0:
389,110,88104,1,0,1:2:0:0:
389,110,88218,2,0,P|379:150|361:210,1,80,10|0,0:2|0:0,0:0:0:0:
310,283,88676,6,0,P|270:287|230:294,1,80,2|2,3:2|0:2,0:0:0:0:
163,364,89020,1,2,1:1:0:0:
163,364,89134,2,0,P|123:356|83:352,1,80,10|2,0:2|0:1,0:0:0:0:
1,252,89592,6,0,P|50:241|80:200,1,80,2|2,3:2|0:2,0:0:0:0:
174,159,89936,1,0,1:2:0:0:
174,159,90050,2,0,P|133:148|107:107,1,80,10|0,0:2|0:0,0:0:0:0:
274,77,90508,5,2,3:2:0:0:
274,77,90623,1,0,0:0:0:0:
274,77,90737,2,0,P|295:94|290:123,1,40,2|2,0:2|1:1,0:0:0:0:
256,179,90966,2,0,P|303:194|339:237,1,80,10|2,0:2|0:1,0:0:0:0:
456,269,91424,2,0,P|414:279|387:327,1,80,2|2,3:2|0:2,0:0:0:0:
296,384,91768,1,0,1:2:0:0:
296,384,91882,2,0,P|287:344|269:284,1,80,10|0,0:2|0:0,0:0:0:0:
160,243,92340,6,0,P|172:205|181:166,1,80,2|2,3:2|0:2,0:0:0:0:
120,73,92684,1,2,1:1:0:0:
120,73,92798,2,0,P|160:61|197:52,1,80,10|2,0:2|0:1,0:0:0:0:
348,0,93256,2,0,P|316:23|305:61,1,80,2|2,3:2|0:2,0:0:0:0:
301,177,93600,1,2,1:1:0:0:
301,177,93715,2,8,P|336:182|383:194,1,80,10|0,0:2|0:0,0:0:0:0:
493,260,94172,5,2,3:2:0:0:
493,260,94287,1,0,0:0:0:0:
493,260,94401,2,0,P|467:251|451:225,1,40,2|2,0:2|1:1,0:0:0:0:
377,171,94630,2,0,L|394:84,1,80,10|2,0:2|0:1,0:0:0:0:
310,33,95088,2,0,P|275:52|236:48,1,80,2|2,3:2|0:2,0:0:0:0:
137,13,95432,1,0,1:2:0:0:
137,13,95546,2,0,P|153:53|164:113,1,80,10|0,0:2|0:0,0:0:0:0:
126,188,96004,6,0,P|86:192|46:199,1,80,2|2,3:2|0:2,0:0:0:0:
65,317,96348,1,2,1:1:0:0:
65,317,96462,2,0,P|104:309|144:305,1,80,10|2,0:2|0:1,0:0:0:0:
328,372,96920,2,0,P|288:370|257:346,1,80,2|2,3:2|0:2,0:0:0:0:
229,237,97264,1,0,1:2:0:0:
229,237,97378,2,0,P|234:202|246:155,1,80,10|0,0:2|0:0,0:0:0:0:
207,61,97837,5,4,0:2:0:0:
512,356,99669,6,0,P|449:343|341:323,1,162.000000617981,6|0,3:2|1:2,0:0:0:0:
271,384,100127,2,0,P|254:328|174:315,1,108.000000411987,10|2,0:2|0:2,0:0:0:0:
77,383,100585,2,0,L|51:268,1,108.000000411987,2|2,3:2|1:2,0:0:0:0:
40,146,101043,1,10,0:2:0:0:
162,231,101272,1,0,0:0:0:0:
267,116,101501,6,0,B|296:155|296:155|272:266,1,162.000000617981,2|0,3:2|1:2,0:0:0:0:
237,352,101959,2,0,P|268:316|348:328,1,108.000000411987,10|2,0:2|0:2,0:0:0:0:
444,380,102417,2,0,P|457:328|478:274,1,108.000000411987,2|2,3:2|1:2,0:0:0:0:
473,170,102760,5,0,1:2:0:0:
473,170,102875,2,0,P|438:181|409:207,1,54.0000002059937,10|0,0:2|0:0,0:0:0:0:
341,246,103104,2,0,P|318:232|287:225,1,54.0000002059937,2|2,0:2|0:2,0:0:0:0:
211,300,103333,6,0,P|197:220|175:142,1,162.000000617981,2|0,3:2|1:2,0:0:0:0:
91,101,103791,2,0,P|130:56|185:54,1,108.000000411987,8|0,0:2|0:0,0:0:0:0:
276,114,104249,1,0,3:2:0:0:
462,65,104478,1,0,1:2:0:0:
452,52,104592,1,0,1:2:0:0:
442,37,104707,2,0,P|381:51|366:100,1,108.000000411987,8|0,0:2|0:0,0:0:0:0:
429,172,105165,6,0,P|419:225|412:278,1,108.000000411987,0|2,3:2|1:2,0:0:0:0:
417,376,105508,1,0,1:2:0:0:
417,376,105623,2,0,P|379:331|327:319,1,108.000000411987,10|2,0:2|0:2,0:0:0:0:
250,384,106081,2,0,L|227:272,1,108.000000411987,2|2,3:2|1:2,0:0:0:0:
120,142,106539,5,10,0:2:0:0:
120,142,106768,2,0,P|170:159|184:214,1,108.000000411987,2|0,0:2|3:2,0:0:0:0:
72,340,107226,1,2,1:2:0:0:
72,340,107341,1,0,1:2:0:0:
72,340,107455,2,0,L|188:311,1,108.000000411987,10|2,0:2|0:2,0:0:0:0:
390,367,107913,2,0,P|337:363|302:320,1,108.000000411987,2|2,3:2|1:2,0:0:0:0:
299,185,108371,1,10,0:2:0:0:
402,113,108600,1,2,0:2:0:0:
507,209,108829,6,0,P|492:258|480:329,1,108.000000411987,0|2,3:2|1:2,0:0:0:0:
400,384,109287,2,0,P|382:340|312:327,1,108.000000411987,10|2,0:2|0:2,0:0:0:0:
225,375,109631,1,0,0:0:0:0:
225,375,109745,2,0,P|209:306|193:266,1,108.000000411987,2|2,3:2|1:2,0:0:0:0:
255,144,110203,1,10,0:2:0:0:
133,65,110432,1,2,0:2:0:0:
31,161,110661,6,0,P|79:181|103:228,1,108.000000411987,0|2,3:2|1:2,0:0:0:0:
49,329,111005,1,0,1:2:0:0:
48,329,111119,2,0,L|166:309,1,108.000000411987,8|0,0:2|0:0,0:0:0:0:
279,369,111577,1,0,3:2:0:0:
380,294,111806,1,0,1:2:0:0:
338,146,112035,2,0,P|287:161|262:208,1,108.000000411987,8|0,0:2|0:0,0:0:0:0:
189,384,112493,6,0,L|171:276,1,108.000000411987,0|2,3:2|1:2,0:0:0:0:
79,243,112837,1,0,1:2:0:0:
79,243,112951,2,0,P|104:215|102:171,1,54.0000002059937,10|0,0:2|0:0,0:0:0:0:
229,156,113180,2,0,P|208:139|197:113,1,54.0000002059937,2|0,0:2|0:0,0:0:0:0:
141,16,113409,2,0,P|191:30|260:43,1,108.000000411987,2|2,3:2|1:2,0:0:0:0:
311,105,113753,1,0,1:2:0:0:
311,105,113867,2,0,L|416:80,1,108.000000411987,10|2,0:2|0:2,0:0:0:0:
512,137,114325,6,0,P|468:166|456:217,1,108.000000411987,6|2,3:2|1:2,0:0:0:0:
505,333,114783,2,0,P|451:324|398:316,1,108.000000411987,10|2,0:2|0:2,0:0:0:0:
280,384,115241,1,2,3:2:0:0:
191,290,115470,1,2,1:2:0:0:
244,191,115700,2,0,P|299:201|326:245,1,108.000000411987,10|0,0:2|0:0,0:0:0:0:
197,373,116158,6,0,P|156:361|76:351,1,108.000000411987,2|2,3:2|1:2,0:0:0:0:
28,254,116615,1,10,0:2:0:0:
113,156,116844,1,2,0:2:0:0:
7,37,117074,2,0,P|18:93|29:147,1,108.000000411987,2|2,3:2|1:2,0:0:0:0:
136,260,117417,1,0,1:2:0:0:
135,259,117532,2,0,P|161:260|185:248,1,54.0000002059937,10|0,0:2|0:0,0:0:0:0:
273,273,117760,2,0,P|277:246|275:219,1,54.0000002059937,2|2,0:2|0:2,0:0:0:0:
363,174,117990,6,0,P|287:179|254:110,1,162.000000617981,2|0,3:2|1:2,0:0:0:0:
342,51,118448,2,0,P|394:61|446:75,1,108.000000411987,8|0,0:2|0:0,0:0:0:0:
512,219,118906,2,0,P|458:226|405:236,1,108.000000411987,0|0,3:2|1:2,0:0:0:0:
325,323,119249,1,0,1:2:0:0:
325,323,119364,2,0,L|201:301,1,108.000000411987,8|0,0:2|0:0,0:0:0:0:
116,357,119822,6,0,B|94:314|94:314|113:251,1,108.000000411987,0|2,3:2|1:2,0:0:0:0:
180,172,120165,1,0,1:2:0:0:
180,172,120279,2,0,P|235:159|250:95,1,108.000000411987,10|2,0:2|0:2,0:0:0:0:
189,22,120738,2,0,P|141:11|82:2,1,108.000000411987,2|2,3:2|1:2,0:0:0:0:
0,130,121196,1,10,0:2:0:0:
93,233,121425,2,0,P|144:220|201:210,1,108.000000411987,2|0,0:2|3:2,0:0:0:0:
361,382,121883,5,2,1:2:0:0:
361,382,121998,1,0,1:2:0:0:
361,382,122112,2,0,P|299:355|293:302,1,108.000000411987,10|2,0:2|0:2,0:0:0:0:
358,208,122570,2,0,L|465:190,1,108.000000411987,2|2,3:2|1:2,0:0:0:0:
504,22,123028,2,0,P|454:72|400:74,1,108.000000411987,10|2,0:2|0:2,0:0:0:0:
270,0,123486,6,0,P|285:50|296:106,1,108.000000411987,0|2,3:2|1:2,0:0:0:0:
227,198,123830,1,0,1:2:0:0:
227,198,123944,2,0,P|164:219|126:189,1,108.000000411987,10|2,0:2|0:2,0:0:0:0:
1,67,124402,2,0,P|21:129|32:180,1,108.000000411987,2|2,3:2|1:2,0:0:0:0:
6,306,124860,1,10,0:2:0:0:
118,384,125089,1,2,0:2:0:0:
238,223,125318,6,0,P|204:270|210:322,1,108.000000411987,0|2,3:2|1:2,0:0:0:0:
298,383,125662,1,0,1:2:0:0:
298,384,125776,2,0,P|352:367|416:354,1,108.000000411987,8|0,0:2|0:0,0:0:0:0:
461,266,126234,1,0,3:2:0:0:
510,126,126463,5,0,1:2:0:0:
496,116,126577,1,0,1:2:0:0:
484,105,126692,2,0,L|375:117,1,108.000000411987,8|0,0:2|0:0,0:0:0:0:
206,0,127150,6,0,P|249:29|262:80,1,108.000000411987,0|2,3:2|1:2,0:0:0:0:
197,165,127494,1,0,1:2:0:0:
197,165,127608,2,0,P|161:158|87:148,1,108.000000411987,10|2,0:2|0:2,0:0:0:0:
2,252,128066,2,0,P|46:281|65:330,1,108.000000411987,2|2,3:2|1:2,0:0:0:0:
202,382,128409,1,0,1:2:0:0:
202,382,128524,2,0,P|214:309|227:255,1,108.000000411987,10|0,0:2|0:0,0:0:0:0:
421,78,128982,6,0,P|377:117|327:119,1,103.999995239258,6|2,3:2|1:2,0:0:0:0:
228,16,129440,1,10,0:2:0:0:
228,16,129669,2,0,B|191:52|191:52|226:218,1,207.999990478516,0|2,0:0|1:2,0:0:0:0:
339,331,130356,2,0,P|387:294|466:312,2,103.999995239258,10|0|2,0:2|0:0|3:2,0:0:0:0:
133,370,131043,2,0,B|125:346|104:328|104:328|149:278|219:306|227:386,1,207.999990478516,2|0,1:2|0:0,0:0:0:0:
229,380,131730,6,0,P|239:314|253:261,1,103.999995239258,2|2,3:2|1:2,0:0:0:0:
285,169,132074,1,0,1:2:0:0:
272,144,132188,1,8,0:2:0:0:
142,65,132417,6,0,B|107:30|84:33|84:33|127:-1|190:14|200:76,1,207.999990478516,0|2,0:0|1:2,0:0:0:0:
90,241,133104,1,8,0:2:0:0:
90,241,133333,2,0,P|190:217|328:201,1,207.999990478516,0|0,0:0|1:2,0:0:0:0:
413,103,133905,5,0,1:2:0:0:
421,90,134020,1,8,0:2:0:0:
507,17,134249,2,0,B|483:47|458:56|458:56|414:244,1,207.999990478516,0|0,0:0|1:2,0:0:0:0:
452,332,134936,2,0,L|329:307,1,103.999995239258,8|0,0:2|0:0,0:0:0:0:
244,369,135394,2,0,P|165:350|122:342,1,103.999995239258,0|0,3:2|1:2,0:0:0:0:
0,359,135738,1,0,1:2:0:0:
0,359,135852,2,0,P|54:328|57:248,1,103.999995239258,8|0,0:2|0:0,0:0:0:0:
0,146,136310,6,0,P|53:155|106:166,1,103.999995239258,0|0,3:2|1:2,0:0:0:0:
284,92,136768,1,8,0:2:0:0:
141,3,136997,2,0,P|183:102|216:204,1,207.999990478516,0|0,0:0|1:2,0:0:0:0:
180,290,137684,2,0,B|235:307|235:307|280:259,1,103.999995239258,8|0,0:2|0:0,0:0:0:0:
411,143,138142,1,0,3:2:0:0:
411,143,138371,2,0,P|334:122|178:91,1,207.999990478516,0|0,1:2|0:0,0:0:0:0:
62,178,139058,6,0,P|52:139|-11:107,2,103.999995239258,0|0|8,3:2|1:2|0:2,0:0:0:0:
0,333,139745,2,0,P|105:312|228:290,1,207.999990478516,0|0,0:0|1:2,0:0:0:0:
397,384,140432,1,8,0:2:0:0:
397,384,140661,2,0,P|338:370|327:312,1,103.999995239258,0|0,0:0|3:2,0:0:0:0:
512,144,141119,5,0,1:2:0:0:
505,153,141234,1,0,1:2:0:0:
507,167,141348,2,0,P|428:182|349:199,1,155.999992858887,8|0,0:2|0:0,0:0:0:0:
135,150,141806,2,0,P|206:161|207:228,1,103.999995239258,0|2,3:2|1:2,0:0:0:0:
203,300,142150,5,0,1:2:0:0:
203,300,142264,2,0,P|146:281|62:261,1,103.999995239258,10|0,0:2|0:0,0:0:0:0:
0,101,142722,2,0,P|18:150|68:167,1,103.999995239258,2|2,3:2|1:2,0:0:0:0:
161,114,143066,1,0,1:2:0:0:
187,18,143180,2,0,P|178:69|169:121,1,103.999995239258,10|0,0:2|0:0,0:0:0:0:
164,244,143638,6,0,P|217:228|272:216,1,103.999995239258,6|2,3:2|1:2,0:0:0:0:
494,278,144096,1,10,0:2:0:0:
489,290,144325,2,0,P|391:284|389:168,1,207.999990478516,0|2,0:0|1:2,0:0:0:0:
403,52,145012,2,0,P|466:37|515:25,2,103.999995239258,10|0|2,0:2|0:0|3:2,0:0:0:0:
286,123,145699,2,0,B|266:144|266:144|78:103,1,207.999990478516,2|0,1:2|0:0,0:0:0:0:
0,183,146386,6,0,P|62:195|80:234,1,103.999995239258,2|2,3:2|1:2,0:0:0:0:
42,327,146730,1,0,1:2:0:0:
42,327,146844,2,0,P|103:311|165:299,1,103.999995239258,8|0,0:2|0:0,0:0:0:0:
240,384,147302,2,0,P|237:325|295:260,1,103.999995239258,2|2,3:2|1:2,0:0:0:0:
506,250,147760,5,8,0:2:0:0:
510,258,147989,2,0,P|406:237|282:214,1,207.999990478516,0|0,0:0|1:2,0:0:0:0:
199,147,148676,1,8,0:2:0:0:
27,216,148905,2,0,B|23:197|-5:187|-5:187|55:165|112:195|109:258,1,207.999990478516,0|0,0:0|1:2,0:0:0:0:
28,369,149592,2,0,P|77:354|128:342,1,103.999995239258,8|0,0:2|0:0,0:0:0:0:
219,271,150050,2,0,P|269:284|318:299,1,103.999995239258,0|0,3:2|1:2,0:0:0:0:
486,384,150394,1,0,1:2:0:0:
486,384,150508,2,0,P|410:357|404:301,1,103.999995239258,8|0,0:2|0:0,0:0:0:0:
401,250,150966,6,0,P|414:192|441:113,2,103.999995239258,0|0|8,3:2|1:2|0:2,0:0:0:0:
332,384,151654,2,0,P|257:360|124:321,1,207.999990478516,0|0,0:0|1:2,0:0:0:0:
34,361,152340,2,0,B|17:311|17:311|44:266,1,103.999995239258,8|0,0:2|0:0,0:0:0:0:
110,64,152798,1,0,3:2:0:0:
110,64,153027,2,0,B|94:36|29:10|-25:105|39:167|110:190,1,207.999990478516,0|0,1:2|0:0,0:0:0:0:
147,239,153715,6,0,L|256:216,1,103.999995239258,0|0,3:2|1:2,0:0:0:0:
394,72,154173,1,8,0:2:0:0:
383,68,154402,2,0,P|338:91|328:140,1,103.999995239258,0|0,0:0|3:2,0:0:0:0:
380,259,154860,2,0,P|429:274|483:301,2,103.999995239258,0|8|0,1:2|0:2|0:0,0:0:0:0:
273,382,155547,2,0,P|239:343|189:332,1,103.999995239258,0|0,3:2|1:2,0:0:0:0:
82,378,155890,1,0,1:2:0:0:
82,378,156004,2,0,L|98:265,1,103.999995239258,8|0,0:2|0:0,0:0:0:0:
6,35,156463,6,0,P|17:85|29:136,1,103.999995239258,0|2,3:2|1:2,0:0:0:0:
4,228,156806,1,0,1:2:0:0:
4,228,156921,2,0,P|57:209|113:191,1,103.999995239258,10|0,0:2|0:0,0:0:0:0:
180,113,157379,2,0,P|234:126|291:143,1,103.999995239258,2|2,3:2|1:2,0:0:0:0:
453,194,157837,2,0,P|419:154|385:116,1,103.999995239258,10|0,0:2|0:0,0:0:0:0:
258,11,158295,5,6,0:2:0:0:
256,192,169287,12,0,171005,0:0:0:0:
434,111,171119,6,0,P|401:110|371:177,1,112,4|0,3:2|0:0,0:0:0:0:
431,289,172951,6,0,P|367:267|301:255,1,120.000004577637,6|2,3:2|1:2,0:0:0:0:
269,353,173295,1,0,1:2:0:0:
269,353,173409,2,0,P|247:297|185:280,1,120.000004577637,10|2,0:2|0:2,0:0:0:0:
86,363,173867,2,0,P|72:297|56:228,1,120.000004577637,2|2,3:2|1:2,0:0:0:0:
0,171,174211,1,0,1:2:0:0:
0,171,174325,2,0,P|58:157|117:145,1,120.000004577637,10|0,0:2|0:0,0:0:0:0:
308,29,174783,6,0,P|247:39|217:112,1,120.000004577637,2|2,3:2|1:2,0:0:0:0:
291,173,175126,1,0,1:2:0:0:
291,173,175241,2,0,P|326:181|377:227,1,60.0000022888184,10|0,0:2|0:0,0:0:0:0:
459,271,175470,2,0,P|429:276|403:290,1,60.0000022888184,2|0,0:2|0:0,0:0:0:0:
340,384,175699,2,0,P|315:329|286:277,1,120.000004577637,2|2,3:2|1:2,0:0:0:0:
148,219,176042,5,0,1:2:0:0:
148,219,176157,2,0,P|182:214|231:140,1,120.000004577637,10|2,0:2|0:2,0:0:0:0:
185,49,176615,6,0,P|127:33|70:18,2,120.000004577637,2|2|8,3:2|1:2|0:2,0:0:0:0:
305,116,177302,1,0,0:0:0:0:
472,39,177531,2,0,P|419:77|418:141,1,120.000004577637,0|0,3:2|1:2,0:0:0:0:
512,211,177874,1,0,1:2:0:0:
505,228,177989,2,0,P|446:239|391:262,1,120.000004577637,8|0,0:2|0:0,0:0:0:0:
287,381,178447,5,0,3:2:0:0:
135,368,178676,1,2,1:2:0:0:
120,358,178790,1,0,1:2:0:0:
111,341,178905,2,0,P|120:302|194:278,1,120.000004577637,10|2,0:2|0:2,0:0:0:0:
291,339,179248,1,0,0:0:0:0:
291,339,179363,2,0,P|301:286|322:203,1,120.000004577637,2|2,3:2|1:2,0:0:0:0:
381,150,179821,1,10,0:2:0:0:
277,39,180050,1,2,0:2:0:0:
156,128,180279,6,0,P|172:189|185:247,1,120.000004577637,0|2,3:2|1:2,0:0:0:0:
141,374,180623,1,0,1:2:0:0:
141,374,180737,2,0,P|162:336|259:337,1,120.000004577637,10|2,0:2|0:2,0:0:0:0:
331,363,181196,2,0,P|361:358|484:344,1,120.000004577637,2|2,3:2|1:2,0:0:0:0:
499,255,181539,1,0,1:2:0:0:
499,255,181654,2,0,P|469:257|409:196,1,120.000004577637,10|2,0:2|0:2,0:0:0:0:
512,116,182111,6,0,P|452:108|392:101,1,120.000004577637,0|2,3:2|1:2,0:0:0:0:
213,7,182569,2,0,P|270:7|303:54,1,120.000004577637,10|2,0:2|0:2,0:0:0:0:
289,158,182913,1,0,0:0:0:0:
289,157,183027,2,0,L|169:140,1,120.000004577637,2|2,3:2|1:2,0:0:0:0:
70,103,183372,5,0,1:2:0:0:
70,103,183486,2,0,B|59:130|59:130|80:221,1,120.000004577637,10|2,0:2|0:2,0:0:0:0:
30,342,183944,6,0,P|95:323|158:310,1,120.000004577637,0|2,3:2|1:2,0:0:0:0:
215,211,184287,1,0,1:2:0:0:
215,211,184402,2,0,P|238:293|282:308,1,120.000004577637,8|0,0:2|0:0,0:0:0:0:
423,384,184859,2,0,P|435:321|450:257,1,120.000004577637,2|2,3:2|1:2,0:0:0:0:
512,134,185203,1,0,1:2:0:0:
512,134,185318,2,0,P|455:150|408:110,1,120.000004577637,8|2,0:2|0:2,0:0:0:0:
261,8,185776,6,0,P|305:53|294:122,1,120.000004577637,0|2,3:2|1:2,0:0:0:0:
223,184,186119,1,0,1:2:0:0:
223,184,186234,2,0,L|67:156,1,120.000004577637,8|0,0:2|0:2,0:0:0:0:
19,328,186692,6,0,P|54:282|112:281,1,120.000004577637,0|0,3:2|1:2,0:0:0:0:
204,353,187035,1,0,1:2:0:0:
204,353,187150,2,0,L|372:323,2,120.000004577637,10|2|4,0:2|0:2|3:2,0:0:0:0:
