osu file format v14

[General]
AudioFilename: audio.ogg
AudioLeadIn: 0
PreviewTime: 37608
Countdown: 0
SampleSet: Soft
StackLeniency: 0.7
Mode: 0
LetterboxInBreaks: 0
WidescreenStoryboard: 1

[Editor]
Bookmarks: 8066,22722,39211,68524,83180,99669,128982,143638,158295,172951,187608
DistanceSpacing: 1.2
BeatDivisor: 4
GridSize: 32
TimelineZoom: 2.2

[Metadata]
Title:ORIYENTATSIYA SEVER
TitleUnicode:ОРИЕНТАЦИЯ СЕВЕР
Artist:Lolita
ArtistUnicode:Лолита
Creator:DixAway
Version:believe me.
Source:
Tags:russian pop chanson шансон эстрада русский поп oriyentaciya orientacia orientatsiya милявская hyokar maiev
BeatmapID:4161240
BeatmapSetID:2001204

[Difficulty]
HPDrainRate:5
CircleSize:4
OverallDifficulty:8
ApproachRate:9
SliderMultiplier:1.8
SliderTickRate:1

[Events]
//Background and Video events
0,0,"bg.jpg",0,0
//Break Periods
2,158495,168687
//Storyboard Layer 0 (Background)
//Storyboard Layer 1 (Fail)
//Storyboard Layer 2 (Pass)
//Storyboard Layer 3 (Foreground)
//Storyboard Layer 4 (Overlay)
//Storyboard Sound Samples

[TimingPoints]
738,458.015267175573,4,2,1,40,1,0
738,-181.818181818181,4,2,1,40,0,0
1425,-399.999999999997,4,2,1,40,0,0
4402,-181.818181818181,4,2,1,40,0,0
5089,-222.222222222221,4,2,1,40,0,0
7150,-666.666666666658,4,2,1,40,0,0
8066,-100,4,2,1,50,0,0
22722,-80,4,2,1,60,0,0
30050,-80,4,2,1,65,0,0
30967,-100,4,2,1,65,0,0
31882,-80,4,2,1,65,0,0
36463,-100,4,2,1,65,0,0
39211,-75.187969924812,4,2,1,80,0,1
68524,-100,4,2,1,70,0,0
99669,-74.0740740740741,4,2,1,80,0,1
128982,-74.0740740740741,4,2,1,80,0,0
132417,-86.9565217391304,4,2,1,80,0,0
133104,-74.0740740740741,4,2,1,80,0,0
143638,-71.4285714285714,4,2,1,80,0,0
171119,-500,4,2,1,65,0,0
172035,-250,4,2,1,65,0,0
172951,-66.6666666666667,4,2,1,80,0,1
187608,-66.6666666666667,4,2,1,80,0,0

[Colours]
Combo1 : 238,230,213
Combo2 : 217,131,45
Combo3 : 143,165,175
Combo4 : 255,156,108

[HitObjects]
423,18,738,6,0,P|375:48|372:103,1,99.0000030212403,2|2,0:2|0:2,0:0:0:0:
447,173,1425,2,0,P|384:199|346:224,1,112.5,2|0,0:2|0:0,0:0:0:0:
204,219,3028,1,2,0:2:0:0:
83,136,3944,1,2,0:2:0:0:
83,136,4402,6,0,P|121:96|172:94,1,99.0000030212403,2|0,0:2|0:0,0:0:0:0:
345,46,5089,2,0,P|323:89|308:138,1,80.9999975280763,2|2,0:2|0:2,0:0:0:0:
120,286,5776,2,0,B|158:272|175:225|175:225|251:229|271:287,1,202.499993820191,2|0,0:2|0:0,0:0:0:0:
289,359,7150,6,0,P|266:364|246:358,1,40.4999987640381,2|0,0:2|0:0,0:0:0:0:
368,181,8066,6,0,B|441:169|445:90|386:72|330:75|299:115|280:168,1,270,2|0,0:2|0:0,0:0:0:0:
213,272,8982,2,0,P|257:263|302:257,1,90,8|0,0:2|0:0,0:0:0:0:
468,312,9325,1,0,1:2:0:0:
468,312,9440,2,0,P|416:320|352:335,1,90,0|0,1:2|3:2,0:0:0:0:
225,384,9898,6,0,P|202:322|184:295,1,90,2|2,1:2|0:2,0:0:0:0:
15,227,10241,1,0,1:2:0:0:
15,227,10356,2,0,P|35:262|92:271,1,90,2|0,1:2|0:0,0:0:0:0:
145,201,10814,2,0,P|112:117|75:34,1,180,10|2,0:2|0:2,0:0:0:0:
18,135,11501,5,0,1:2:0:0:
18,135,11730,2,0,B|56:106|110:126|118:175|118:175|121:227|173:259|219:233,1,270,2|0,0:2|0:0,0:0:0:0:
357,154,12646,2,0,P|401:162|449:172,1,90,8|0,0:2|0:0,0:0:0:0:
462,78,12989,1,0,1:2:0:0:
462,78,13104,2,0,P|417:69|373:60,1,90,0|0,1:2|3:2,0:0:0:0:
163,0,13562,6,0,P|227:20|249:73,1,90,2|2,1:2|0:2,0:0:0:0:
203,142,13905,1,0,1:2:0:0:
203,142,14020,2,0,P|153:156|110:173,1,90,2|0,1:2|0:0,0:0:0:0:
28,291,14478,2,0,P|120:315|225:347,1,180,10|2,0:2|0:2,0:0:0:0:
393,234,15165,5,0,1:2:0:0:
393,234,15394,2,0,B|371:189|422:147|478:156|503:222|483:298|409:323,1,270,2|0,0:2|0:0,0:0:0:0:
218,211,16310,2,0,P|196:158|156:113,1,90,8|0,0:2|0:0,0:0:0:0:
350,20,16654,1,0,1:2:0:0:
350,20,16768,2,0,P|324:56|308:98,1,90,0|2,1:2|3:2,0:0:0:0:
367,182,17226,6,0,P|410:191|454:201,1,90,2|2,1:2|0:2,0:0:0:0:
456,321,17570,1,2,1:2:0:0:
456,321,17684,2,0,P|412:330|368:340,1,90,2|0,1:2|0:0,0:0:0:0:
207,379,18142,2,0,P|193:282|124:201,1,180,10|2,0:2|0:2,0:0:0:0:
22,47,18829,5,0,1:2:0:0:
22,47,19058,2,0,B|97:37|116:117|116:117|201:146|238:81,1,270,2|0,0:2|0:0,0:0:0:0:
372,0,19974,2,0,P|344:42|328:86,1,90,10|2,0:2|0:2,0:0:0:0:
278,194,20318,1,0,1:2:0:0:
278,194,20432,2,0,P|303:234|321:279,1,90,2|0,1:2|3:2,0:0:0:0:
190,357,20890,6,0,P|129:365|82:384,1,90,2|2,1:2|0:2,0:0:0:0:
80,270,21234,1,0,1:2:0:0:
80,270,21348,2,0,P|122:256|167:252,1,90,2|0,1:2|0:0,0:0:0:0:
400,384,21806,2,0,P|364:357|351:315,1,90,10|2,0:2|0:2,0:0:0:0:
447,141,22264,2,0,P|441:184|411:217,1,90,2|0,0:2|1:2,0:0:0:0:
227,192,22722,6,0,P|254:200|280:209,1,56.25,2|0,0:1|0:0,0:0:0:0:
142,115,22952,5,2,0:2:0:0:
142,115,23066,2,0,P|168:106|196:100,1,56.25,2|2,0:1|0:2,0:0:0:0:
11,132,23295,5,0,0:0:0:0:
11,132,23409,2,0,P|28:110|48:89,1,56.25,2|0,0:1|0:0,0:0:0:0:
178,26,23638,6,0,P|140:90|102:202,2,168.75,10|0|0,0:2|1:2|3:2,0:0:0:0:
388,183,24554,6,0,P|334:173|307:125,1,112.5,2|2,1:2|0:2,0:0:0:0:
364,23,24898,5,2,1:1:0:0:
364,23,25012,2,0,L|431:32,1,56.25,2|0,1:2|0:0,0:0:0:0:
512,157,25241,5,2,0:1:0:0:
505,145,25356,1,0,1:2:0:0:
499,135,25470,2,0,P|480:188|459:265,1,112.5,10|2,0:2|0:2,0:0:0:0:
367,384,25928,2,0,P|351:329|332:277,1,112.5,2|0,0:2|1:2,0:0:0:0:
257,42,26386,6,0,P|239:64|225:88,1,56.25,2|0,0:1|0:0,0:0:0:0:
94,92,26615,5,2,0:2:0:0:
94,92,26730,2,0,P|100:119|110:145,1,56.25,2|2,0:1|0:2,0:0:0:0:
18,227,26959,5,0,0:0:0:0:
18,227,27073,2,0,P|113:258|251:312,2,225,2|0|0,0:1|0:0|3:2,0:0:0:0:
239,380,28218,6,0,P|185:370|158:322,1,112.5,2|2,1:2|0:2,0:0:0:0:
143,221,28562,5,2,1:1:0:0:
143,221,28676,2,0,P|130:183|115:145,1,56.25,2|0,1:2|0:0,0:0:0:0:
255,108,28905,5,2,0:1:0:0:
255,108,29020,1,0,1:2:0:0:
255,108,29134,2,0,P|267:70|283:32,1,56.25,10|0,0:2|0:0,0:0:0:0:
31,30,29363,1,2,0:2:0:0:
31,30,29592,2,0,P|85:45|149:71,1,112.5,2|0,0:2|1:2,0:0:0:0:
299,172,30050,6,0,P|358:149|464:112,2,168.75,2|2|2,0:1|0:1|0:1,0:0:0:0:
95,143,30967,2,0,P|174:177|188:262,1,180,10|2,0:2|1:2,0:0:0:0:
96,345,31654,1,0,3:2:0:0:
96,345,31883,6,0,P|156:353|277:378,2,168.75,2|2|2,1:2|1:1|0:1,0:0:0:0:
15,157,32799,2,0,P|57:193|76:245,1,112.5,10|2,0:2|0:2,0:0:0:0:
192,384,33257,2,0,P|211:331|252:293,1,112.5,10|8,0:2|0:2,0:0:0:0:
456,315,33715,6,0,P|427:323|395:343,1,56.25,2|0,0:1|0:0,0:0:0:0:
386,221,33944,5,2,0:2:0:0:
386,221,34058,2,0,P|356:213|319:215,1,56.25,2|2,0:1|0:2,0:0:0:0:
468,142,34287,5,0,0:0:0:0:
468,142,34401,2,0,P|448:118|417:97,1,56.25,2|0,0:1|0:0,0:0:0:0:
512,24,34631,2,0,P|474:103|426:240,1,225,8|0,0:2|1:2,0:0:0:0:
307,336,35318,1,0,3:2:0:0:
168,262,35547,6,0,P|78:242|30:236,1,112.5,2|2,1:2|0:2,0:0:0:0:
85,132,35890,1,0,1:1:0:0:
85,132,36005,2,0,P|141:141|196:154,1,112.5,2|2,1:2|0:1,0:0:0:0:
274,90,36463,2,0,P|283:46|318:20,1,90,10|2,0:2|0:2,0:0:0:0:
330,183,36921,2,0,P|364:209|373:253,1,90,2|0,0:2|1:2,0:0:0:0:
243,242,37379,5,2,0:2:0:0:
125,11,39211,6,0,P|165:62|164:125,1,119.699995068512,6|2,3:2|1:2,0:0:0:0:
72,239,39554,1,0,1:2:0:0:
72,239,39669,2,0,P|132:255|184:278,1,119.699995068512,10|2,0:2|0:2,0:0:0:0:
279,357,40012,1,0,0:0:0:0:
279,357,40127,2,0,P|308:344|336:341,1,59.8499975342561,2|0,3:2|0:0,0:0:0:0:
490,200,40356,5,2,1:2:0:0:
445,263,40470,1,0,1:2:0:0:
371,237,40585,2,0,P|355:201|341:170,1,59.8499975342561,10|0,0:2|0:0,0:0:0:0:
305,48,40814,2,0,P|292:75|280:102,1,59.8499975342561
239,298,41043,6,0,P|214:243|181:193,1,119.699995068512,2|2,3:2|1:2,0:0:0:0:
0,108,41386,1,0,1:2:0:0:
0,108,41501,2,0,P|23:133|74:129,1,59.8499975342561,10|0,0:2|0:0,0:0:0:0:
209,87,41730,2,0,P|179:87|155:104,1,59.8499975342561,2|0,0:2|0:0,0:0:0:0:
106,223,41959,2,0,P|125:280|144:365,1,119.699995068512,2|2,3:2|1:2,0:0:0:0:
379,363,42302,5,0,1:2:0:0:
379,363,42417,2,0,P|384:327|401:293,1,59.8499975342561,10|0,0:2|0:0,0:0:0:0:
265,202,42646,2,0,P|278:232|282:259,1,59.8499975342561,2|2,0:2|0:2,0:0:0:0:
463,149,42875,6,0,P|405:133|348:115,2,119.699995068512,2|2|8,3:2|1:2|0:2,0:0:0:0:
441,30,43562,1,0,0:0:0:0:
215,0,43791,2,0,P|245:51|263:108,1,119.699995068512,0|0,3:2|1:2,0:0:0:0:
199,223,44134,1,0,1:2:0:0:
199,223,44249,2,0,P|170:228|142:239,1,59.8499975342561,8|0,0:2|0:0,0:0:0:0:
0,147,44478,2,0,P|29:152|57:163,1,59.8499975342561
43,379,44707,6,0,P|112:354|211:341,1,119.699995068512,0|2,3:2|1:2,0:0:0:0:
254,370,45050,5,0,1:2:0:0:
294,310,45165,1,10,0:2:0:0:
296,238,45279,1,0,0:0:0:0:
239,193,45394,1,2,0:2:0:0:
167,196,45508,1,0,0:0:0:0:
124,254,45623,2,0,P|136:280|146:315,1,59.8499975342561,2|0,3:2|0:0,0:0:0:0:
295,127,45852,2,0,P|303:98|316:71,1,59.8499975342561,2|0,1:2|1:2,0:0:0:0:
177,21,46081,5,10,0:2:0:0:
107,1,46196,1,0,0:0:0:0:
46,39,46310,2,0,L|69:98,1,59.8499975342561,2|0,0:2|0:0,0:0:0:0:
24,229,46539,6,0,P|82:238|139:257,1,119.699995068512,0|2,3:2|1:2,0:0:0:0:
324,364,46883,1,0,1:2:0:0:
324,364,46997,2,0,P|347:351|363:316,1,59.8499975342561,10|0,0:2|0:0,0:0:0:0:
444,270,47226,2,0,P|441:243|416:214,1,59.8499975342561,2|0,0:2|0:0,0:0:0:0:
195,114,47455,2,0,P|204:138|236:160,1,59.8499975342561,2|0,3:2|0:0,0:0:0:0:
269,247,47684,2,0,P|295:249|328:229,1,59.8499975342561,2|0,1:2|1:2,0:0:0:0:
356,41,47913,2,0,P|333:59|318:93,1,59.8499975342561,10|0,0:2|0:0,0:0:0:0:
147,238,48142,5,2,0:2:0:0:
158,249,48257,1,0,0:0:0:0:
168,265,48371,2,0,P|200:316|219:374,1,119.699995068512,0|2,3:2|1:2,0:0:0:0:
372,384,48715,5,0,1:2:0:0:
372,384,48829,2,0,P|391:342|412:316,1,59.8499975342561,10|0,0:2|0:0,0:0:0:0:
501,278,49058,2,0,P|485:252|475:225,1,59.8499975342561,2|0,0:2|0:0,0:0:0:0:
284,138,49287,2,0,P|336:176|396:165,1,119.699995068512,2|2,3:2|1:2,0:0:0:0:
373,0,49631,5,0,1:2:0:0:
373,0,49745,2,0,P|361:35|352:81,1,59.8499975342561,10|0,0:2|0:0,0:0:0:0:
243,255,49974,2,0,P|235:225|226:197,1,59.8499975342561,2|0,0:2|0:0,0:0:0:0:
120,59,50203,6,0,P|86:56|16:114,1,119.699995068512,0|2,3:2|1:2,0:0:0:0:
0,244,50547,1,0,1:2:0:0:
0,244,50661,2,0,P|13:271|24:299,1,59.8499975342561,8|0,0:2|0:0,0:0:0:0:
147,384,50890,2,0,P|157:356|171:329,1,59.8499975342561
413,304,51119,6,0,P|337:305|303:267,1,119.699995068512,0|0,3:2|1:2,0:0:0:0:
391,156,51463,1,0,1:2:0:0:
391,156,51577,2,0,P|427:164|451:168,1,59.8499975342561,8|0,0:2|0:0,0:0:0:0:
512,16,51806,2,0,P|482:21|453:27,1,59.8499975342561
325,88,52035,2,0,L|253:73,1,59.8499975342561,0|0,3:2|0:0,0:0:0:0:
84,93,52264,5,2,1:2:0:0:
33,144,52379,1,0,1:2:0:0:
27,215,52493,2,0,P|42:248|50:285,1,59.8499975342561,10|0,0:2|0:0,0:0:0:0:
149,369,52722,2,0,P|157:340|169:313,1,59.8499975342561,2|0,0:2|0:0,0:0:0:0:
256,279,52951,6,0,P|229:236|137:226,1,119.699995068512,2|2,3:2|1:2,0:0:0:0:
274,145,53295,1,0,1:2:0:0:
343,212,53409,2,0,P|353:174|379:136,1,59.8499975342561,10|0,0:2|0:0,0:0:0:0:
176,62,53638,2,0,P|190:90|195:120,1,59.8499975342561
473,4,53867,6,0,B|447:-1|437:-13|437:-13|357:4,1,119.699995068512,6|2,3:2|1:2,0:0:0:0:
310,96,54210,1,0,1:2:0:0:
310,96,54325,2,0,P|328:151|342:211,1,119.699995068512,10|2,0:2|0:2,0:0:0:0:
266,362,54669,1,0,0:0:0:0:
266,362,54783,2,0,P|232:368|206:377,1,59.8499975342561,2|0,3:2|0:0,0:0:0:0:
51,246,55012,5,2,1:2:0:0:
107,201,55126,1,0,1:2:0:0:
178,207,55241,2,0,P|201:225|218:249,1,59.8499975342561,10|0,0:2|0:0,0:0:0:0:
97,354,55470,2,0,P|107:326|129:306,1,59.8499975342561
31,58,55699,6,0,P|59:111|78:168,1,119.699995068512,2|2,3:2|1:2,0:0:0:0:
225,26,56042,1,0,1:2:0:0:
225,26,56157,2,0,P|193:10|150:12,1,59.8499975342561,10|0,0:2|0:0,0:0:0:0:
264,175,56386,2,0,P|293:171|319:157,1,59.8499975342561,2|0,0:2|0:0,0:0:0:0:
474,20,56615,2,0,P|455:77|436:162,1,119.699995068512,2|2,3:2|1:2,0:0:0:0:
492,311,56958,5,0,1:2:0:0:
492,311,57073,2,0,P|474:278|444:259,1,59.8499975342561,10|0,0:2|0:0,0:0:0:0:
363,180,57302,2,0,P|326:182|295:200,1,59.8499975342561,2|2,0:2|0:2,0:0:0:0:
183,261,57531,6,0,B|158:291|180:320|180:320|220:332|217:368,2,119.699995068512,2|2|8,3:2|1:2|0:2,0:0:0:0:
212,145,58218,1,0,0:0:0:0:
68,16,58447,2,0,P|98:67|116:124,1,119.699995068512,0|0,3:2|1:2,0:0:0:0:
58,275,58790,1,0,1:2:0:0:
58,275,58905,2,0,P|29:280|1:291,1,59.8499975342561,8|0,0:2|0:0,0:0:0:0:
116,124,59134,2,0,P|145:129|173:140,1,59.8499975342561
232,277,59363,6,0,P|301:252|400:239,1,119.699995068512,0|2,3:2|1:2,0:0:0:0:
408,189,59706,1,0,1:2:0:0:
351,143,59821,1,10,0:2:0:0:
352,71,59935,1,0,0:0:0:0:
411,30,60050,1,2,0:2:0:0:
482,37,60164,1,0,0:0:0:0:
512,108,60279,2,0,P|516:141|494:178,1,59.8499975342561,2|0,3:2|0:0,0:0:0:0:
423,263,60508,2,0,P|394:270|361:267,1,59.8499975342561,2|0,1:2|1:2,0:0:0:0:
233,76,60738,5,10,0:2:0:0:
244,91,60852,1,0,0:0:0:0:
254,106,60967,2,0,P|235:135|232:160,1,59.8499975342561,2|0,0:2|0:0,0:0:0:0:
174,384,61196,2,0,P|155:327|131:273,1,119.699995068512,0|2,3:2|1:2,0:0:0:0:
128,154,61539,5,0,1:2:0:0:
128,154,61653,2,0,P|97:154|59:127,1,59.8499975342561,10|0,0:2|0:0,0:0:0:0:
207,32,61883,2,0,P|234:19|264:20,1,59.8499975342561,2|0,0:2|0:0,0:0:0:0:
376,106,62111,2,0,P|364:133|353:170,1,59.8499975342561,2|0,3:2|0:0,0:0:0:0:
329,335,62341,2,0,P|319:306|308:278,1,59.8499975342561,2|0,1:2|1:2,0:0:0:0:
249,139,62570,2,0,P|237:166|228:195,1,59.8499975342561,10|0,0:2|0:0,0:0:0:0:
159,384,62798,5,2,0:2:0:0:
191,319,62913,1,0,0:0:0:0:
145,264,63027,2,0,P|89:246|41:295,1,119.699995068512,0|2,3:2|1:2,0:0:0:0:
134,126,63371,5,0,1:2:0:0:
134,126,63486,2,0,P|144:81|160:51,1,59.8499975342561,10|0,0:2|0:0,0:0:0:0:
29,223,63715,2,0,P|39:250|45:280,1,59.8499975342561,2|0,0:2|0:0,0:0:0:0:
158,378,63943,2,0,P|214:358|273:347,1,119.699995068512,2|2,3:2|1:2,0:0:0:0:
428,302,64287,5,0,1:2:0:0:
428,302,64401,2,0,P|416:337|407:383,1,59.8499975342561,10|0,0:2|0:0,0:0:0:0:
338,209,64630,2,0,P|330:179|321:151,1,59.8499975342561,2|0,0:2|0:0,0:0:0:0:
507,85,64859,6,0,P|448:82|406:41,1,119.699995068512,0|2,3:2|1:2,0:0:0:0:
251,1,65203,1,0,1:2:0:0:
251,1,65318,2,0,P|220:8|193:18,1,59.8499975342561,8|0,0:2|0:0,0:0:0:0:
110,151,65547,2,0,P|82:140|52:134,1,59.8499975342561
0,0,65776,6,0,P|59:3|88:72,1,119.699995068512,0|0,3:2|1:2,0:0:0:0:
231,176,66120,1,0,1:2:0:0:
231,176,66234,2,0,P|216:210|212:234,1,59.8499975342561,8|0,0:2|0:0,0:0:0:0:
115,380,66463,2,0,P|109:350|96:323,1,59.8499975342561
0,176,66692,6,0,P|56:195|115:212,1,119.699995068512,0|0,3:2|1:2,0:0:0:0:
226,324,67035,1,0,1:2:0:0:
226,324,67149,2,0,P|262:314|286:312,1,59.8499975342561,8|0,0:2|0:0,0:0:0:0:
405,208,67379,2,0,P|441:218|465:220,1,59.8499975342561,0|0,0:2|0:0,0:0:0:0:
445,384,67608,6,0,B|425:374|410:375|410:375|393:331|371:294,1,119.699995068512,0|0,3:2|1:2,0:0:0:0:
213,156,67951,1,0,1:2:0:0:
213,156,68066,2,0,P|275:138|321:198,1,119.699995068512,8|2,0:2|0:2,0:0:0:0:
169,364,68524,6,0,P|113:370|72:382,1,90,2|2,3:2|0:2,0:0:0:0:
193,237,68867,1,2,0:1:0:0:
193,237,68982,2,0,P|184:257|178:279,1,45,2|0,3:2|0:0,0:0:0:0:
62,172,69211,2,0,P|56:150|46:129,1,45,2|0,0:1|0:0,0:0:0:0:
106,0,69440,2,0,P|134:34|176:49,2,90,0|0|0,3:2|0:0|3:2,0:0:0:0:
145,158,70127,1,0,0:0:0:0:
51,313,70356,6,0,P|90:292|137:288,1,90,2|2,3:2|0:2,0:0:0:0:
290,142,70699,1,2,0:1:0:0:
290,142,70814,2,0,P|265:179|267:225,1,90,2|2,3:2|0:1,0:0:0:0:
423,363,71272,1,2,3:2:0:0:
354,252,71501,1,2,0:2:0:0:
268,364,71730,2,0,P|208:343|173:338,1,90,2|0,3:2|0:0,0:0:0:0:
130,231,72188,6,0,P|109:178|87:141,1,90,2|2,3:2|0:2,0:0:0:0:
266,49,72531,1,2,0:1:0:0:
266,49,72646,2,0,P|257:69|251:91,1,45,2|0,3:2|0:0,0:0:0:0:
351,259,72875,2,0,P|345:237|335:216,1,45,2|0,0:1|0:0,0:0:0:0:
135,269,73104,2,0,P|163:234|205:219,2,90,0|0|0,3:2|0:0|3:2,0:0:0:0:
271,353,73791,1,0,0:0:0:0:
507,171,74020,6,0,P|471:197|448:236,1,90,2|2,3:2|0:2,0:0:0:0:
373,348,74363,1,2,0:1:0:0:
373,348,74478,2,0,P|366:306|337:269,1,90,2|2,3:2|0:1,0:0:0:0:
106,184,74936,2,0,P|148:217|193:216,1,90,2|2,3:2|0:2,0:0:0:0:
276,120,75279,1,0,0:0:0:0:
276,120,75394,2,0,P|294:42|305:1,1,90,2|0,3:2|0:0,0:0:0:0:
458,170,75852,6,0,P|435:221|425:263,1,90,2|2,3:2|0:2,0:0:0:0:
312,378,76195,1,2,0:1:0:0:
312,378,76310,2,0,P|306:356|296:335,1,45,2|0,3:2|0:0,0:0:0:0:
177,247,76539,2,0,P|182:225|192:204,1,45,2|0,0:1|0:0,0:0:0:0:
339,160,76768,2,0,P|297:145|268:110,2,90,0|0|0,3:2|0:0|3:2,0:0:0:0:
146,38,77455,1,0,0:0:0:0:
10,111,77684,6,0,P|33:146|47:198,1,90,2|2,3:2|0:2,0:0:0:0:
224,293,78027,1,2,2:1:0:0:
224,293,78142,2,0,P|194:258|137:252,1,90,2|2,3:2|2:1,0:0:0:0:
26,384,78600,1,2,3:2:0:0:
90,307,78829,1,2,0:2:0:0:
43,216,79058,2,0,P|28:174|2:138,1,90,2|0,3:2|0:0,0:0:0:0:
90,55,79516,6,0,P|136:68|176:79,1,90,2|2,3:2|0:2,0:0:0:0:
309,40,79859,1,2,0:1:0:0:
309,40,79974,2,0,P|300:60|294:82,1,45,2|0,3:2|0:0,0:0:0:0:
377,244,80203,2,0,P|371:222|347:189,1,45,2|0,0:1|0:0,0:0:0:0:
158,248,80432,2,0,P|186:213|228:198,2,90,0|0|0,3:2|0:0|3:2,0:0:0:0:
196,384,81119,1,0,0:0:0:0:
56,255,81348,6,0,P|40:209|14:170,1,90,2|2,3:2|0:2,0:0:0:0:
156,6,81691,1,2,0:1:0:0:
156,6,81806,2,0,P|130:40|119:85,1,90,2|2,3:2|0:1,0:0:0:0:
219,225,82264,2,0,P|262:215|306:206,1,90,2|2,3:2|0:2,0:0:0:0:
418,77,82608,1,0,1:2:0:0:
418,77,82722,2,0,P|374:67|330:58,1,90,2|0,3:2|0:0,0:0:0:0:
170,91,83066,5,0,0:0:0:0:
170,91,83180,2,0,P|160:125|175:148,1,45,2|0,3:2|0:0,0:0:0:0:
322,212,83409,1,2,0:2:0:0:
334,216,83524,1,2,1:1:0:0:
347,218,83638,2,0,P|355:198|346:165,1,45,10|0,0:2|0:0,0:0:0:0:
224,27,83867,2,0,P|238:44|248:64,1,45,2|0,0:1|0:0,0:0:0:0:
178,225,84096,6,0,P|135:240|93:256,1,90,2|2,3:2|0:2,0:0:0:0:
0,111,84440,1,0,1:2:0:0:
0,111,84554,2,0,P|33:134|66:125,2,45,10|0|0,0:2|0:0|0:0,0:0:0:0:
169,6,84898,5,0,0:0:0:0:
169,6,85012,2,0,P|154:59|143:121,1,90,2|2,3:2|0:2,0:0:0:0:
71,206,85356,1,2,1:1:0:0:
71,206,85470,2,0,P|84:235|95:276,1,45,10|0,0:2|0:0,0:0:0:0:
196,348,85699,2,0,P|203:326|213:306,1,45,2|0,0:1|0:0,0:0:0:0:
391,323,85928,6,0,P|349:308|326:270,1,90,2|2,3:2|0:2,0:0:0:0:
398,165,86272,1,0,1:2:0:0:
398,165,86386,2,0,P|420:172|441:180,1,45,10|0,0:2|0:0,0:0:0:0:
512,20,86615,2,0,P|490:27|469:34,1,45
266,102,86844,6,0,P|280:122|283:150,1,45,2|0,3:2|0:0,0:0:0:0:
351,222,87073,1,2,0:2:0:0:
351,222,87188,2,0,P|350:246|337:271,1,45,2|10,1:1|0:2,0:0:0:0:
285,357,87417,1,0,0:0:0:0:
285,357,87532,2,0,P|267:374|240:382,1,45,2|0,0:1|0:0,0:0:0:0:
106,361,87760,6,0,P|97:324|78:275,1,90,2|2,3:2|0:2,0:0:0:0:
143,184,88104,1,0,1:2:0:0:
143,184,88218,2,0,P|121:177|103:162,1,45,10|0,0:2|0:0,0:0:0:0:
0,83,88447,2,0,P|21:76|38:62,1,45
293,0,88676,6,0,P|269:48|254:105,1,90,2|2,3:2|0:2,0:0:0:0:
188,183,89020,1,2,1:1:0:0:
188,183,89134,2,0,P|209:227|218:260,1,45,10|0,0:2|0:0,0:0:0:0:
301,341,89363,2,0,P|309:320|320:300,1,45,2|0,0:1|0:0,0:0:0:0:
512,237,89592,6,0,P|461:268|421:251,1,90,2|2,3:2|0:2,0:0:0:0:
358,195,89936,1,0,1:2:0:0:
358,195,90050,2,0,P|340:180|319:172,1,45,10|0,0:2|0:0,0:0:0:0:
173,100,90279,2,0,P|193:91|211:77,1,45
332,0,90509,6,0,P|345:18|351:39,1,45,2|0,3:2|0:0,0:0:0:0:
443,175,90738,1,2,0:2:0:0:
449,187,90853,1,2,1:1:0:0:
454,199,90967,2,0,L|443:246,1,45,10|0,0:2|0:0,0:0:0:0:
314,375,91196,2,0,L|303:331,1,45,2|0,0:1|0:0,0:0:0:0:
100,194,91425,6,0,P|143:183|183:201,1,90,2|2,3:2|0:2,0:0:0:0:
204,340,91769,1,0,1:2:0:0:
204,340,91883,2,0,L|190:412,2,45,10|0|0,0:2|0:0|0:0,0:0:0:0:
301,198,92227,5,0,0:0:0:0:
301,198,92341,2,0,P|294:143|285:80,1,90,2|2,3:2|0:2,0:0:0:0:
451,94,92685,5,2,1:1:0:0:
451,94,92799,2,0,P|438:123|427:164,1,45,10|0,0:2|0:0,0:0:0:0:
386,288,93028,2,0,P|379:266|369:246,1,45,2|0,0:1|0:0,0:0:0:0:
237,154,93257,6,0,P|195:169|172:207,1,90,2|2,3:2|0:2,0:0:0:0:
242,321,93600,1,2,1:1:0:0:
242,321,93715,2,0,P|264:328|285:336,1,45,10|0,0:2|0:0,0:0:0:0:
393,371,93944,2,0,P|414:363|435:356,1,45
512,261,94173,6,0,P|503:238|482:219,1,45,2|0,3:2|0:0,0:0:0:0:
462,122,94402,1,2,0:2:0:0:
462,122,94517,2,0,P|441:109|413:105,1,45,2|10,1:1|0:2,0:0:0:0:
313,94,94746,1,0,0:0:0:0:
313,94,94861,2,0,P|288:98|266:116,1,45,2|0,0:1|0:0,0:0:0:0:
172,196,95089,6,0,P|188:237|199:281,1,90,2|2,3:2|0:2,0:0:0:0:
171,360,95433,1,0,1:2:0:0:
171,360,95547,2,0,P|149:367|131:382,1,45,10|0,0:2|0:0,0:0:0:0:
16,251,95776,2,0,P|33:265|54:272,1,45
172,196,96005,6,0,P|185:153|206:113,1,90,2|2,3:2|0:2,0:0:0:0:
288,0,96349,1,2,1:1:0:0:
288,0,96463,2,0,P|309:44|318:77,1,45,10|0,0:2|0:0,0:0:0:0:
371,154,96692,2,0,P|379:133|390:113,1,45,2|0,0:1|0:0,0:0:0:0:
503,4,96921,6,0,P|454:13|400:33,1,90,2|2,3:2|0:2,0:0:0:0:
277,125,97264,1,0,1:2:0:0:
277,125,97379,2,0,P|235:110|191:103,1,90,10|0,0:2|0:0,0:0:0:0:
87,23,97837,1,4,0:2:0:0:
431,352,99669,6,0,P|411:294|387:239,1,121.500000463486,6|2,3:2|1:2,0:0:0:0:
510,128,100012,1,0,1:2:0:0:
510,128,100127,2,0,P|450:144|404:106,1,121.500000463486,10|2,0:2|0:2,0:0:0:0:
245,16,100470,1,0,0:0:0:0:
245,16,100585,2,0,P|258:45|261:73,1,60.7500002317429,2|0,3:2|0:0,0:0:0:0:
236,240,100814,5,2,1:2:0:0:
172,275,100928,1,0,1:2:0:0:
106,242,101043,2,0,P|97:203|119:173,1,60.7500002317429,10|0,0:2|0:0,0:0:0:0:
320,327,101272,2,0,P|329:355|319:384,1,60.7500002317429
92,334,101501,6,0,P|34:323|0:275,1,121.500000463486,2|2,3:2|1:2,0:0:0:0:
0,108,101844,1,0,1:2:0:0:
0,108,101959,2,0,P|36:116|74:129,1,60.7500002317429,10|0,0:2|0:0,0:0:0:0:
171,231,102188,2,0,P|200:222|229:215,1,60.7500002317429,2|0,0:2|0:0,0:0:0:0:
444,59,102417,2,0,P|398:81|379:166,1,121.500000463486,2|2,3:2|1:2,0:0:0:0:
451,263,102760,5,0,1:2:0:0:
451,263,102875,2,0,P|487:268|521:285,1,60.7500002317429,10|0,0:2|0:0,0:0:0:0:
371,370,103104,2,0,P|340:373|312:384,1,60.7500002317429,2|2,0:2|0:2,0:0:0:0:
171,339,103333,6,0,P|146:283|113:232,2,121.500000463486,2|2|8,3:2|1:2|0:2,0:0:0:0:
232,182,104020,1,0,0:0:0:0:
399,0,104249,2,0,P|369:51|386:118,1,121.500000463486,0|0,3:2|1:2,0:0:0:0:
454,206,104592,1,0,1:2:0:0:
454,206,104707,2,0,P|489:212|523:225,1,60.7500002317429,8|0,0:2|0:0,0:0:0:0:
363,305,104936,2,0,P|327:311|293:324,1,60.7500002317429
157,384,105165,6,0,P|102:361|84:305,1,121.500000463486,0|2,3:2|1:2,0:0:0:0:
105,214,105508,1,0,1:2:0:0:
153,159,105623,1,10,0:2:0:0:
225,150,105737,1,0,0:0:0:0:
275,203,105852,1,2,0:2:0:0:
285,274,105966,1,0,0:0:0:0:
234,326,106081,2,0,P|208:314|173:304,1,60.7500002317429,2|0,3:2|0:0,0:0:0:0:
46,181,106310,2,0,P|75:172|102:159,1,60.7500002317429,2|0,1:2|1:2,0:0:0:0:
206,21,106539,5,10,0:2:0:0:
276,0,106654,1,0,0:0:0:0:
335,41,106768,2,0,L|312:100,1,60.7500002317429,2|0,0:2|0:0,0:0:0:0:
251,332,106997,2,0,P|228:275|203:220,1,121.500000463486,0|2,3:2|1:2,0:0:0:0:
98,70,107341,5,0,1:2:0:0:
98,70,107455,2,0,P|121:83|137:118,1,60.7500002317429,10|0,0:2|0:0,0:0:0:0:
227,167,107684,2,0,P|224:194|199:223,1,60.7500002317429,2|0,0:2|0:0,0:0:0:0:
18,285,107913,2,0,P|27:261|59:239,1,60.7500002317429,2|0,3:2|0:0,0:0:0:0:
148,205,108142,2,0,P|174:203|207:223,1,60.7500002317429,2|0,1:2|1:2,0:0:0:0:
318,379,108371,2,0,P|295:361|280:327,1,60.7500002317429,10|0,0:2|0:0,0:0:0:0:
378,209,108600,5,2,0:2:0:0:
378,209,108715,1,0,0:0:0:0:
378,209,108829,2,0,P|445:227|512:247,1,121.500000463486,0|2,3:2|1:2,0:0:0:0:
254,151,109173,5,0,1:2:0:0:
254,151,109287,2,0,P|235:109|214:83,1,60.7500002317429,10|0,0:2|0:0,0:0:0:0:
410,15,109516,2,0,P|393:40|382:68,1,60.7500002317429,2|0,0:2|0:0,0:0:0:0:
282,240,109745,2,0,P|222:252|164:271,1,121.500000463486,2|2,3:2|1:2,0:0:0:0:
85,245,110089,5,0,1:2:0:0:
85,245,110203,2,0,P|73:210|46:168,1,60.7500002317429,10|0,0:2|0:0,0:0:0:0:
223,90,110432,2,0,P|208:116|199:145,1,60.7500002317429,2|0,0:2|0:0,0:0:0:0:
307,242,110661,6,0,P|348:199|407:195,1,121.500000463486,0|2,3:2|1:2,0:0:0:0:
512,268,111005,1,0,1:2:0:0:
512,268,111119,2,0,P|500:297|491:325,1,60.7500002317429,8|0,0:2|0:0,0:0:0:0:
363,384,111348,2,0,P|354:354|342:326,1,60.7500002317429
212,265,111577,6,0,P|229:191|241:142,1,121.500000463486,0|0,3:2|1:2,0:0:0:0:
167,72,111921,1,0,1:2:0:0:
167,72,112035,2,0,P|132:74|107:84,1,60.7500002317429,8|0,0:2|0:0,0:0:0:0:
10,191,112264,2,0,P|40:191|68:202,1,60.7500002317429
137,282,112493,2,0,P|163:267|193:264,1,60.7500002317429,0|0,3:2|0:0,0:0:0:0:
275,334,112722,5,2,1:2:0:0:
339,367,112837,1,0,1:2:0:0:
408,344,112951,2,0,P|416:314|427:286,1,60.7500002317429,10|0,0:2|0:0,0:0:0:0:
490,209,113180,1,2,0:2:0:0:
456,198,113295,1,0,0:0:0:0:
417,186,113409,6,0,P|396:136|352:57,1,121.500000463486,2|2,3:2|1:2,0:0:0:0:
257,72,113753,1,0,1:2:0:0:
289,3,113867,2,0,P|266:26|255:53,1,60.7500002317429,10|0,0:2|0:0,0:0:0:0:
150,207,114096,2,0,P|138:177|121:152,1,60.7500002317429,2|0,0:2|0:0,0:0:0:0:
0,59,114325,6,0,B|23:35|23:35|122:54,1,121.500000463486,6|2,3:2|1:2,0:0:0:0:
322,104,114668,1,0,1:2:0:0:
322,104,114783,2,0,P|273:127|274:221,1,121.500000463486,10|2,0:2|0:2,0:0:0:0:
315,269,115127,1,0,0:0:0:0:
315,269,115241,2,0,P|349:275|375:284,1,60.7500002317429,2|0,3:2|0:0,0:0:0:0:
440,230,115470,5,2,1:2:0:0:
455,300,115584,1,0,1:2:0:0:
414,360,115699,2,0,P|375:369|340:355,1,60.7500002317429,10|0,0:2|0:0,0:0:0:0:
205,210,115928,2,0,P|227:230|237:258,1,60.7500002317429
129,333,116157,6,0,P|72:356|19:384,1,121.500000463486,2|2,3:2|1:2,0:0:0:0:
11,208,116500,1,0,1:2:0:0:
11,208,116615,2,0,P|43:224|86:222,1,60.7500002317429,10|0,0:2|0:0,0:0:0:0:
165,254,116844,2,0,P|193:231|209:191,1,60.7500002317429,2|0,0:2|0:0,0:0:0:0:
259,52,117073,2,0,P|281:108|305:197,1,121.500000463486,2|2,3:2|1:2,0:0:0:0:
434,258,117416,5,0,1:2:0:0:
434,258,117531,2,0,P|416:225|386:206,1,60.7500002317429,10|0,0:2|0:0,0:0:0:0:
311,92,117760,2,0,P|274:94|243:112,1,60.7500002317429,2|2,0:2|0:2,0:0:0:0:
130,189,117989,6,0,P|195:211|263:239,2,121.500000463486,2|2|8,3:2|1:2|0:2,0:0:0:0:
207,359,118676,1,0,0:0:0:0:
327,256,118905,2,0,P|345:198|376:145,1,121.500000463486,0|0,3:2|1:2,0:0:0:0:
512,117,119248,1,0,1:2:0:0:
512,117,119363,2,0,P|479:116|447:98,1,60.7500002317429,8|0,0:2|0:0,0:0:0:0:
304,60,119592,2,0,P|331:47|361:47,1,60.7500002317429
262,171,119821,6,0,P|202:183|145:205,1,121.500000463486,0|2,3:2|1:2,0:0:0:0:
42,136,120164,1,0,1:2:0:0:
62,65,120279,1,10,0:2:0:0:
130,41,120393,1,0,0:0:0:0:
190,82,120508,1,2,0:2:0:0:
198,154,120622,1,0,0:0:0:0:
145,204,120737,2,0,P|115:209|86:219,1,60.7500002317429,2|0,3:2|0:0,0:0:0:0:
34,353,120967,2,0,P|63:358|92:368,1,60.7500002317429,2|0,1:2|1:2,0:0:0:0:
205,341,121196,5,10,0:2:0:0:
222,333,121310,1,0,0:0:0:0:
240,327,121425,2,0,P|244:297|261:272,1,60.7500002317429,2|0,0:2|0:0,0:0:0:0:
456,88,121654,2,0,P|427:140|371:159,1,121.500000463486,0|2,3:2|1:2,0:0:0:0:
243,176,121997,5,0,1:2:0:0:
243,176,122111,2,0,L|171:161,1,60.7500002317429,10|0,0:2|0:0,0:0:0:0:
108,80,122341,2,0,L|36:95,1,60.7500002317429,2|0,0:2|0:0,0:0:0:0:
241,4,122569,2,0,P|229:31|218:68,1,60.7500002317429,2|0,3:2|0:0,0:0:0:0:
90,200,122799,2,0,P|101:228|110:256,1,60.7500002317429,2|0,1:2|1:2,0:0:0:0:
254,322,123028,2,0,P|242:349|233:378,1,60.7500002317429,10|0,0:2|0:0,0:0:0:0:
7,221,123256,5,2,0:2:0:0:
33,152,123371,1,0,0:0:0:0:
100,125,123485,2,0,P|159:138|219:148,1,121.500000463486,0|2,3:2|1:2,0:0:0:0:
315,206,123829,5,0,1:2:0:0:
315,206,123944,2,0,P|290:244|280:277,1,60.7500002317429,10|0,0:2|0:0,0:0:0:0:
214,384,124173,2,0,P|203:356|189:330,1,60.7500002317429,2|0,0:2|0:0,0:0:0:0:
315,104,124401,2,0,P|372:124|432:135,1,121.500000463486,2|2,3:2|1:2,0:0:0:0:
438,320,124745,5,0,1:2:0:0:
438,320,124859,2,0,P|401:300|393:249,1,60.7500002317429,10|0,0:2|0:0,0:0:0:0:
512,166,125089,2,0,P|494:190|466:201,1,60.7500002317429,2|0,0:2|0:0,0:0:0:0:
350,122,125317,6,0,P|372:62|395:3,1,121.500000463486,0|2,3:2|1:2,0:0:0:0:
204,92,125661,1,0,1:2:0:0:
204,92,125776,2,0,P|217:122|225:149,1,60.7500002317429,8|0,0:2|0:0,0:0:0:0:
325,230,126005,2,0,P|312:260|303:287,1,60.7500002317429
221,364,126234,6,0,P|162:361|133:292,1,121.500000463486,0|0,3:2|1:2,0:0:0:0:
222,196,126578,1,0,1:2:0:0:
222,196,126692,2,0,P|256:211|280:215,1,60.7500002317429,8|0,0:2|0:0,0:0:0:0:
155,51,126921,2,0,P|125:56|97:70,1,60.7500002317429
0,176,127150,6,0,P|54:196|66:253,1,121.500000463486,0|2,3:2|1:2,0:0:0:0:
1,384,127493,1,0,1:2:0:0:
1,384,127607,2,0,P|37:374|61:372,1,60.7500002317429,10|0,0:2|0:0,0:0:0:0:
180,268,127837,2,0,P|216:278|240:280,1,60.7500002317429,2|0,0:2|0:0,0:0:0:0:
368,365,128066,6,0,B|336:347|336:347|319:303|355:268,1,121.500000463486,2|2,3:2|1:2,0:0:0:0:
332,112,128409,1,0,1:2:0:0:
332,112,128524,2,0,B|340:158|375:181|375:181|395:180|413:193,1,121.500000463486,10|0,0:2|0:0,0:0:0:0:
512,257,128982,6,0,B|515:284|515:284|491:331|480:381,1,121.500000463486,6|2,3:2|1:2,0:0:0:0:
410,119,129440,1,10,0:2:0:0:
512,138,129669,2,0,B|437:160|279:208,1,243.000000926971,0|2,0:0|1:2,0:0:0:0:
159,243,130241,5,0,1:2:0:0:
159,243,130356,2,0,P|143:184|70:150,2,121.500000463486,10|0|2,0:2|0:0|3:2,0:0:0:0:
248,336,131043,2,0,B|215:341|197:364|197:364|71:340|71:340|71:314|46:289,1,243.000000926971,2|0,1:2|0:0,0:0:0:0:
98,143,131730,6,0,P|165:130|217:120,1,121.500000463486,2|2,3:2|1:2,0:0:0:0:
236,137,132074,1,0,1:2:0:0:
252,148,132188,1,8,0:2:0:0:
478,2,132417,6,0,B|466:33|466:33|368:56|366:160,1,207.000003948212,0|2,0:0|1:2,0:0:0:0:
512,317,133104,1,8,0:2:0:0:
496,329,133333,2,0,P|396:305|238:283,1,243.000000926971,0|0,0:0|1:2,0:0:0:0:
176,312,133905,5,0,1:2:0:0:
169,326,134020,1,8,0:2:0:0:
48,113,134249,2,0,B|10:133|8:194|41:248|116:229|116:229|171:182|242:207|253:260,1,364.500001390457,0|8,0:0|0:2,0:0:0:0:
221,341,135165,5,0,0:0:0:0:
221,341,135394,2,0,P|141:357|99:368,1,121.500000463486,0|0,3:2|1:2,0:0:0:0:
284,216,135738,1,0,1:2:0:0:
284,216,135852,2,0,P|363:197|406:189,1,121.500000463486,8|0,0:2|0:0,0:0:0:0:
489,255,136310,5,0,3:2:0:0:
363,111,136539,1,0,1:2:0:0:
306,315,136768,1,8,0:2:0:0:
306,315,136997,2,0,B|289:237|240:67,1,243.000000926971,0|0,0:0|1:2,0:0:0:0:
285,8,137684,5,8,0:2:0:0:
179,132,137913,1,0,0:0:0:0:
8,93,138142,1,0,3:2:0:0:
8,93,138371,2,0,B|80:84|101:146|101:146|125:224|223:208,1,243.000000926971,0|0,1:2|0:0,0:0:0:0:
317,89,139058,5,0,3:2:0:0:
401,145,139287,1,0,1:2:0:0:
373,234,139516,1,8,0:2:0:0:
289,278,139745,2,0,B|274:260|241:258|241:258|301:196|378:262|369:319,1,243.000000926971,0|0,0:0|1:2,0:0:0:0:
224,362,140432,1,8,0:2:0:0:
224,362,140661,2,0,P|165:348|105:336,1,121.500000463486,0|0,0:0|3:2,0:0:0:0:
0,170,141119,5,0,1:2:0:0:
7,179,141234,1,0,1:2:0:0:
13,189,141348,2,0,P|78:175|187:155,1,121.500000463486,8|0,0:2|0:0,0:0:0:0:
289,11,141806,2,0,P|218:22|217:89,1,121.500000463486,0|2,3:2|1:2,0:0:0:0:
259,182,142150,5,0,1:2:0:0:
259,182,142264,2,0,P|272:240|283:326,1,121.500000463486,10|0,0:2|0:0,0:0:0:0:
468,361,142722,2,0,P|413:339|402:282,1,121.500000463486,2|2,3:2|1:2,0:0:0:0:
391,141,143066,1,0,1:2:0:0:
391,141,143180,2,0,P|454:160|536:183,1,121.500000463486,10|0,0:2|0:0,0:0:0:0:
411,0,143638,6,0,P|352:16|284:34,1,125.999996154785,6|2,3:2|1:2,0:0:0:0:
236,135,144096,1,10,0:2:0:0:
90,33,144325,2,0,B|54:60|52:105|80:142|80:142|167:140|176:216,1,251.999992309571,0|2,0:0|1:2,0:0:0:0:
91,303,145012,2,0,P|31:277|15:218,2,125.999996154785,10|0|2,0:2|0:0|3:2,0:0:0:0:
261,199,145699,2,0,B|272:168|308:150|308:150|227:100|170:165|175:210,1,251.999992309571,2|0,1:2|0:0,0:0:0:0:
272,364,146386,5,2,3:2:0:0:
420,243,146615,1,2,1:2:0:0:
420,243,146730,1,0,1:2:0:0:
420,243,146844,2,0,P|359:227|297:215,1,125.999996154785,8|0,0:2|0:0,0:0:0:0:
158,284,147302,2,0,P|143:229|103:160,1,125.999996154785,2|2,3:2|1:2,0:0:0:0:
55,85,147760,1,8,0:2:0:0:
55,85,147989,2,0,B|36:46|-14:32|-14:32|46:-18|118:0|164:61,1,251.999992309571,0|0,0:0|1:2,0:0:0:0:
206,103,148561,5,0,1:2:0:0:
202,124,148676,1,8,0:2:0:0:
426,44,148905,2,0,B|433:-9|362:-36|297:10|318:90|401:167,1,251.999992309571,0|0,0:0|1:2,0:0:0:0:
494,233,149592,2,0,P|417:252|356:272,1,125.999996154785,8|0,0:2|0:0,0:0:0:0:
271,379,150050,2,0,P|210:360|149:345,1,125.999996154785,0|0,3:2|1:2,0:0:0:0:
60,139,150394,1,0,1:2:0:0:
60,139,150508,2,0,P|136:166|142:222,1,125.999996154785,8|0,0:2|0:0,0:0:0:0:
121,276,150966,6,0,P|63:289|-16:316,2,125.999996154785,0|0|8,3:2|1:2|0:2,0:0:0:0:
311,230,151653,2,0,B|338:245|350:270|317:344|252:313|203:265|232:169,1,251.999992309571,0|0,0:0|1:2,0:0:0:0:
353,119,152341,1,8,0:2:0:0:
468,235,152570,1,0,0:0:0:0:
484,224,152798,1,0,3:2:0:0:
410,384,153027,2,0,B|336:396|306:334|306:334|275:272|188:288,1,251.999992309571,0|0,1:2|0:0,0:0:0:0:
117,175,153715,5,0,3:2:0:0:
6,95,153944,1,0,1:2:0:0:
21,262,154173,1,8,0:2:0:0:
21,262,154402,2,0,P|81:279|141:299,1,125.999996154785,0|0,0:0|3:2,0:0:0:0:
180,146,154860,2,0,P|120:126|59:108,1,125.999996154785,0|8,1:2|0:2,0:0:0:0:
105,364,155318,5,0,0:0:0:0:
105,364,155547,2,0,B|131:376|131:376|264:349,1,125.999996154785,0|0,3:2|1:2,0:0:0:0:
464,353,155890,1,0,1:2:0:0:
464,353,156004,2,0,P|404:369|351:337,1,125.999996154785,8|0,0:2|0:0,0:0:0:0:
296,242,156462,2,0,P|310:180|324:119,1,125.999996154785,0|2,3:2|1:2,0:0:0:0:
511,58,156806,5,0,1:2:0:0:
511,58,156921,2,0,P|477:111|402:95,1,125.999996154785,10|0,0:2|0:0,0:0:0:0:
173,0,157378,2,0,P|223:36|238:95,1,125.999996154785,2|2,3:2|1:2,0:0:0:0:
150,203,157722,1,0,1:2:0:0:
150,203,157836,2,0,P|85:190|1:176,1,125.999996154785,10|0,0:2|0:0,0:0:0:0:
143,338,158295,1,6,0:2:0:0:
256,192,169287,12,0,171005,0:0:0:0:
429,64,171119,6,0,P|420:100|412:127,1,63,4|0,3:2|0:0,0:0:0:0:
429,242,172035,2,0,P|390:201|324:207,1,126,2|0,0:2|0:0,0:0:0:0:
142,245,172951,6,0,P|170:306|189:370,1,135.000005149842,6|2,3:2|1:2,0:0:0:0:
243,216,173295,1,0,1:2:0:0:
243,216,173409,2,0,P|254:179|288:125,1,67.5000025749208,10|0,0:2|0:0,0:0:0:0:
140,32,173638,2,0,P|154:62|164:94,1,67.5000025749208,2|0,0:2|0:0,0:0:0:0:
127,212,173867,2,0,P|63:233|-4:256,1,135.000005149842,2|2,3:2|1:2,0:0:0:0:
43,361,174211,1,0,1:2:0:0:
43,361,174325,2,0,P|106:339|170:318,1,135.000005149842,10|0,0:2|0:0,0:0:0:0:
469,373,174783,6,0,P|408:372|367:305,1,135.000005149842,2|2,3:2|1:2,0:0:0:0:
396,194,175126,1,0,1:2:0:0:
396,194,175241,2,0,P|404:159|419:130,1,67.5000025749208,10|0,0:2|0:0,0:0:0:0:
240,90,175470,2,0,P|255:119|262:152,1,67.5000025749208,2|0,0:2|0:0,0:0:0:0:
166,326,175699,2,0,P|136:260|155:198,1,135.000005149842,2|2,3:2|1:2,0:0:0:0:
341,298,176042,5,0,1:2:0:0:
341,298,176157,2,0,P|307:293|280:273,1,67.5000025749208,10|0,0:2|0:0,0:0:0:0:
254,68,176386,2,0,P|275:101|273:134,1,67.5000025749208,2|2,0:2|0:2,0:0:0:0:
152,202,176615,6,0,P|94:218|-17:247,2,135.000005149842,2|2|8,3:2|1:2|0:2,0:0:0:0:
329,30,177302,1,0,0:0:0:0:
397,276,177531,2,0,P|332:273|296:219,1,135.000005149842,0|0,3:2|1:2,0:0:0:0:
207,87,177874,1,0,1:2:0:0:
207,87,177989,2,0,P|171:93|136:106,1,67.5000025749208,8|0,0:2|0:0,0:0:0:0:
32,227,178218,2,0,P|67:233|102:246,1,67.5000025749208
284,384,178447,6,0,P|223:363|213:300,1,135.000005149842,0|2,3:2|1:2,0:0:0:0:
214,169,178790,1,0,1:2:0:0:
269,109,178905,1,10,0:2:0:0:
349,115,179019,1,0,0:0:0:0:
403,175,179134,1,2,0:2:0:0:
378,251,179248,1,0,0:0:0:0:
313,301,179363,2,0,P|261:314|221:326,1,67.5000025749208,2|0,3:2|0:0,0:0:0:0:
194,203,179592,2,0,P|226:194|259:186,1,67.5000025749208,2|0,1:2|1:2,0:0:0:0:
392,109,179821,5,10,0:2:0:0:
455,152,179936,1,0,0:0:0:0:
472,227,180050,2,0,P|459:257|451:304,1,67.5000025749208,2|0,0:2|0:0,0:0:0:0:
307,384,180279,2,0,P|289:319|255:260,1,135.000005149842,0|2,3:2|1:2,0:0:0:0:
75,74,180623,5,0,1:2:0:0:
75,74,180737,2,0,P|104:78|134:108,1,67.5000025749208,10|0,0:2|0:0,0:0:0:0:
286,107,180967,2,0,P|290:136|271:174,1,67.5000025749208,2|0,0:2|0:0,0:0:0:0:
240,368,181196,2,0,P|210:363|180:333,1,67.5000025749208,2|0,3:2|0:0,0:0:0:0:
49,337,181426,2,0,P|44:307|63:269,1,67.5000025749208,2|0,1:2|1:2,0:0:0:0:
3,146,181654,2,0,P|29:132|71:138,1,67.5000025749208,10|0,0:2|0:0,0:0:0:0:
285,228,181882,5,2,0:2:0:0:
280,240,181997,1,0,0:0:0:0:
276,253,182111,2,0,P|260:309|246:392,1,135.000005149842,0|2,3:2|1:2,0:0:0:0:
136,195,182455,5,0,1:2:0:0:
136,195,182569,2,0,P|121:151|103:123,1,67.5000025749208,10|0,0:2|0:0,0:0:0:0:
297,28,182799,2,0,P|280:57|271:90,1,67.5000025749208,2|0,0:2|0:0,0:0:0:0:
360,255,183027,2,0,P|425:269|502:294,1,135.000005149842,2|2,3:2|1:2,0:0:0:0:
483,106,183372,5,0,1:2:0:0:
483,106,183486,2,0,P|479:143|431:181,1,67.5000025749208,10|0,0:2|0:0,0:0:0:0:
294,338,183715,2,0,P|283:296|259:271,1,67.5000025749208,2|0,0:2|0:0,0:0:0:0:
23,257,183944,6,0,P|78:290|139:267,1,135.000005149842,0|2,3:2|1:2,0:0:0:0:
146,168,184287,1,0,1:2:0:0:
146,168,184402,2,0,P|123:86|107:63,1,67.5000025749208,8|0,0:2|0:0,0:0:0:0:
351,20,184631,2,0,P|340:52|336:85,1,67.5000025749208
233,253,184859,2,0,P|236:187|299:163,1,135.000005149842,2|2,3:2|1:2,0:0:0:0:
428,245,185203,1,0,1:2:0:0:
428,245,185318,2,0,P|401:308|381:383,1,135.000005149842,8|2,0:2|0:2,0:0:0:0:
147,384,185776,6,0,P|126:296|103:251,1,135.000005149842,0|2,3:2|1:2,0:0:0:0:
4,95,186119,1,0,1:2:0:0:
4,95,186234,2,0,L|160:123,1,135.000005149842,8|0,0:2|0:2,0:0:0:0:
353,6,186577,1,0,0:0:0:0:
353,6,186692,2,0,P|287:12|260:72,1,135.000005149842,0|0,3:2|1:2,0:0:0:0:
356,189,187035,1,0,1:2:0:0:
356,189,187150,2,0,L|524:159,2,135.000005149842,10|2|4,0:2|0:2|3:2,0:0:0:0:
