osu file format v14

[General]
AudioFilename: audio.mp3
AudioLeadIn: 0
PreviewTime: 3627
Countdown: 0
SampleSet: Normal
StackLeniency: 0.8
Mode: 0
LetterboxInBreaks: 0
WidescreenStoryboard: 0

[Editor]
Bookmarks: 24238,31511,33935,36360,45102
DistanceSpacing: 0.9
BeatDivisor: 4
GridSize: 4
TimelineZoom: 1.5

[Metadata]
Title:Breakawaii
TitleUnicode:Breakawaii
Artist:Lolishit
ArtistUnicode:Lolishit
Creator:Neeyko
Version:Kawaii
Source:
Tags:LOLI JUICE Lolishit Breakawaii Neeyko
BeatmapID:1406697
BeatmapSetID:664669

[Difficulty]
HPDrainRate:6
CircleSize:4.4
OverallDifficulty:8.5
ApproachRate:9.2
SliderMultiplier:2
SliderTickRate:1

[Events]
//Background and Video events
//Break Periods
2,49052,53282
//Storyboard Layer 0 (Background)
//Storyboard Layer 1 (Fail)
//Storyboard Layer 2 (Pass)
//Storyboard Layer 3 (Foreground)
//Storyboard Sound Samples

[TimingPoints]
4840,303.030303030303,4,1,0,70,1,0
4840,-100,4,1,0,70,0,0
36665,312.5,4,1,0,60,1,0
36977,-133.333333333333,4,1,0,60,0,0
38540,-133.333333333333,4,1,0,5,0,0
38852,-133.333333333333,4,1,0,60,0,0
41040,-133.333333333333,4,1,0,5,0,0
41352,-133.333333333333,4,1,0,60,0,0
45102,-100,4,1,0,60,0,0

[HitObjects]
355,116,4840,6,0,P|324:187|298:217,1,100
365,151,5143,2,0,P|322:215|292:241,1,100
373,188,5446,2,0,P|319:244|284:263,1,100
381,223,5749,2,0,P|318:268|281:281,1,100
147,172,6052,6,0,P|169:119|203:83,1,100
343,161,6355,2,0,P|319:211|279:254,1,100
94,287,6658,2,0,P|41:270|9:230,1,100
134,100,6961,2,0,P|194:77|244:77,1,100
373,178,7264,5,0,0:0:0:0:
359,197,7339,1,0,0:0:0:0:
344,216,7415,1,0,0:0:0:0:
327,233,7491,1,0,0:0:0:0:
309,249,7567,1,0,0:0:0:0:
289,263,7642,1,0,0:0:0:0:
269,275,7718,1,0,0:0:0:0:
247,286,7794,1,0,0:0:0:0:
228,291,7870,5,0,0:0:0:0:
222,267,7945,1,0,0:0:0:0:
212,245,8021,1,0,0:0:0:0:
200,224,8097,1,0,0:0:0:0:
185,206,8173,1,0,0:0:0:0:
168,189,8248,1,0,0:0:0:0:
148,175,8324,1,0,0:0:0:0:
127,164,8400,1,0,0:0:0:0:
107,162,8476,6,0,P|112:128|134:99,7,50
54,52,9082,5,0,0:0:0:0:
77,46,9157,1,0,0:0:0:0:
100,41,9233,1,0,0:0:0:0:
124,37,9309,1,0,0:0:0:0:
148,35,9385,1,0,0:0:0:0:
172,34,9460,1,0,0:0:0:0:
194,36,9536,2,0,P|247:46|268:58,1,50
354,85,9688,6,0,P|410:121|431:151,1,100
216,289,9991,1,0,0:0:0:0:
238,127,10143,1,0,0:0:0:0:
380,243,10294,2,0,P|424:278|453:321,1,100
122,344,10597,1,0,0:0:0:0:
291,206,10749,1,0,0:0:0:0:
128,99,10900,6,0,P|65:107|10:122,1,100
79,292,11203,1,0,0:0:0:0:
315,275,11355,1,0,0:0:0:0:
275,67,11506,2,0,P|219:38|169:33,1,100
111,218,11809,1,0,0:0:0:0:
382,185,11961,1,0,0:0:0:0:
173,179,12112,5,0,0:0:0:0:
284,167,12264,1,0,0:0:0:0:
149,223,12415,1,0,0:0:0:0:
308,123,12567,1,0,0:0:0:0:
126,267,12718,1,0,0:0:0:0:
331,79,12870,1,0,0:0:0:0:
103,311,13021,1,0,0:0:0:0:
354,35,13173,1,0,0:0:0:0:
131,140,13324,6,0,L|39:188,1,100
326,193,13627,2,0,L|417:145,1,100
195,106,13930,2,0,L|91:85,1,100
266,231,14233,2,0,L|370:252,1,100
382,130,14536,5,0,0:0:0:0:
171,130,14840,1,0,0:0:0:0:
327,205,15143,1,0,0:0:0:0:
181,48,15446,1,0,0:0:0:0:
162,233,15749,5,0,0:0:0:0:
25,131,16052,1,0,0:0:0:0:
59,224,16355,1,0,0:0:0:0:
98,58,16658,1,0,0:0:0:0:
121,183,16961,6,0,L|96:230,2,50
192,185,17264,2,0,L|167:232,2,50
263,185,17567,2,0,L|238:232,2,50
333,184,17870,2,0,L|308:231,2,50
445,246,18173,5,0,0:0:0:0:
445,246,18249,1,0,0:0:0:0:
445,246,18324,1,0,0:0:0:0:
344,299,18476,5,0,0:0:0:0:
344,299,18552,1,0,0:0:0:0:
344,299,18627,1,0,0:0:0:0:
227,313,18779,5,0,0:0:0:0:
227,313,18855,1,0,0:0:0:0:
227,313,18930,1,0,0:0:0:0:
107,288,19082,5,0,0:0:0:0:
107,288,19158,1,0,0:0:0:0:
107,288,19233,1,0,0:0:0:0:
244,162,19385,5,0,0:0:0:0:
328,351,19689,1,0,0:0:0:0:
232,282,19992,1,0,0:0:0:0:
451,312,20294,1,0,0:0:0:0:
255,144,20597,5,0,0:0:0:0:
444,185,20900,1,0,0:0:0:0:
340,221,21203,1,0,0:0:0:0:
448,57,21507,1,0,0:0:0:0:
336,144,21809,6,0,P|300:192|292:124,1,150
260,92,22112,2,0,P|223:43|216:112,1,150
184,144,22415,2,0,P|148:192|140:124,1,150
112,92,22718,2,0,P|75:43|68:112,1,150
60,152,23021,2,0,P|104:196|140:292,1,150
104,244,23324,2,0,P|160:270|227:348,1,150
192,312,23627,2,0,P|253:317|343:367,1,150
288,348,23930,2,0,P|348:331|449:348,1,150
388,348,24233,5,0,0:0:0:0:
432,192,24385,2,0,L|460:96,1,100
288,40,24688,1,0,0:0:0:0:
208,216,24840,2,0,L|168:308,1,100
40,336,25143,1,0,0:0:0:0:
108,60,25294,1,0,0:0:0:0:
200,320,25446,5,0,0:0:0:0:
348,80,25597,1,0,0:0:0:0:
412,320,25749,1,0,0:0:0:0:
228,96,25900,1,0,0:0:0:0:
96,300,26052,1,0,0:0:0:0:
152,64,26203,1,0,0:0:0:0:
292,320,26355,1,0,0:0:0:0:
432,176,26506,1,0,0:0:0:0:
164,204,26658,6,0,L|92:212,2,50
272,112,26961,1,0,0:0:0:0:
292,92,27036,1,0,0:0:0:0:
316,72,27112,1,0,0:0:0:0:
440,184,27264,6,0,L|496:240,2,50
328,304,27567,1,0,0:0:0:0:
312,327,27642,1,0,0:0:0:0:
294,352,27718,1,0,0:0:0:0:
152,348,27870,6,0,L|84:344,2,50
56,252,28173,1,0,0:0:0:0:
43,226,28248,1,0,0:0:0:0:
30,198,28324,1,0,0:0:0:0:
28,76,28476,6,0,L|32:24,2,50
160,148,28779,1,0,0:0:0:0:
184,163,28854,1,0,0:0:0:0:
210,180,28930,1,0,0:0:0:0:
348,272,29082,6,0,P|392:304|420:352,1,100
212,300,29385,2,0,P|168:264|144:216,1,100
364,100,29688,2,0,P|428:64|484:60,1,100
480,248,29991,2,0,P|472:312|440:360,1,100
228,296,30294,6,0,P|148:268|116:240,1,100
280,120,30597,2,0,P|332:80|372:68,1,100
376,272,30900,2,0,P|328:308|260:328,1,100
36,280,31203,2,0,P|72:228|104:208,1,100
235,168,31506,6,0,P|266:159|292:154,7,50
308,152,32112,1,0,0:0:0:0:
334,145,32187,1,0,0:0:0:0:
361,139,32263,1,0,0:0:0:0:
388,135,32339,1,0,0:0:0:0:
416,133,32415,1,0,0:0:0:0:
443,131,32490,1,0,0:0:0:0:
471,131,32566,1,0,0:0:0:0:
498,132,32642,1,0,0:0:0:0:
500,156,32718,6,0,P|492:192|485:206,7,50
472,216,33324,1,0,0:0:0:0:
451,234,33399,1,0,0:0:0:0:
429,250,33475,1,0,0:0:0:0:
405,263,33551,1,0,0:0:0:0:
379,273,33627,1,0,0:0:0:0:
353,281,33702,1,0,0:0:0:0:
326,286,33778,1,0,0:0:0:0:
298,287,33854,1,0,0:0:0:0:
272,284,33930,6,0,L|228:348,1,50
248,272,34082,2,0,L|232:328,1,50
220,272,34233,2,0,L|228:328,1,50
196,284,34385,2,0,L|228:336,1,50
176,304,34536,2,0,L|140:260,1,50
156,316,34688,2,0,L|136:264,1,50
132,320,34840,2,0,L|132:256,1,50
112,316,34991,2,0,L|128:264,1,50
76,292,35143,6,0,P|60:260|60:228,7,50
56,208,35749,1,0,0:0:0:0:
101,188,35824,1,0,0:0:0:0:
149,171,35900,1,0,0:0:0:0:
197,158,35976,1,0,0:0:0:0:
246,149,36052,1,0,0:0:0:0:
296,144,36127,1,0,0:0:0:0:
346,142,36203,1,0,0:0:0:0:
396,144,36279,1,0,0:0:0:0:
24,180,36665,5,0,0:0:0:0:
24,180,36977,2,0,L|184:152,1,150.000005722046
96,76,37446,1,0,0:0:0:0:
176,248,37915,1,0,0:0:0:0:
176,248,38227,2,0,P|272:320|472:320,1,300.000011444092
448,172,39165,5,0,0:0:0:0:
448,172,39477,2,0,L|472:8,1,150.000005722046
304,32,39946,1,0,0:0:0:0:
168,88,40415,1,0,0:0:0:0:
168,88,40727,2,0,P|48:184|4:324,1,300.000011444092
176,316,41665,5,0,0:0:0:0:
176,316,41977,2,0,P|260:296|316:264,1,150.000005722046
224,148,42446,1,0,0:0:0:0:
104,228,42915,1,0,0:0:0:0:
340,276,43227,2,0,L|400:288,7,37.5000014305115
368,312,43852,5,0,0:0:0:0:
424,148,44008,1,0,0:0:0:0:
312,176,44165,1,0,0:0:0:0:
388,32,44321,1,0,0:0:0:0:
240,296,44477,1,0,0:0:0:0:
192,152,44633,1,0,0:0:0:0:
104,208,44790,1,0,0:0:0:0:
68,60,44946,1,0,0:0:0:0:
288,304,45102,6,0,B|327:272|327:272|337:205,1,100
416,268,45415,2,0,B|442:224|442:224|428:158,1,100
216,280,45727,2,0,B|176:248|176:248|166:181,1,100
88,244,46040,2,0,B|61:200|61:200|75:134,1,100
288,256,46352,6,0,B|327:224|327:224|337:157,1,100
416,220,46665,2,0,B|442:176|442:176|428:110,1,100
216,232,46977,2,0,B|176:200|176:200|166:133,1,100
88,196,47290,2,0,B|61:152|61:152|75:86,1,100
240,188,47602,5,0,0:0:0:0:
334,165,47758,1,0,0:0:0:0:
415,112,47915,1,0,0:0:0:0:
475,35,48071,1,0,0:0:0:0:
284,56,48227,5,0,0:0:0:0:
216,125,48383,1,0,0:0:0:0:
175,213,48540,1,0,0:0:0:0:
165,310,48696,1,0,0:0:0:0:
420,248,48852,5,0,0:0:0:0:
208,248,53852,5,0,0:0:0:0:
472,112,54165,1,0,0:0:0:0:
120,152,54477,1,0,0:0:0:0:
