osu file format v14

[General]
AudioFilename: audio.mp3
AudioLeadIn: 0
PreviewTime: 3613
Countdown: 0
SampleSet: Normal
StackLeniency: 0.2
Mode: 0
LetterboxInBreaks: 0
WidescreenStoryboard: 0

[Editor]
Bookmarks: 28813,67213,86413,124813
DistanceSpacing: 1
BeatDivisor: 8
GridSize: 8
TimelineZoom: 2.5

[Metadata]
Title:why as soon as we became so close, we have to say goodbye?
TitleUnicode:why as soon as we became so close, we have to say goodbye?
Artist:Lolipusher
ArtistUnicode:Lolipusher
Creator:FuruSatori
Version:a burning desire to feel the warm endless comfort of another
Source:
Tags:breakcore break core lolicore loli tears tragic love story
BeatmapID:1211296
BeatmapSetID:571557

[Difficulty]
HPDrainRate:4
CircleSize:4
OverallDifficulty:8
ApproachRate:9.3
SliderMultiplier:1.4
SliderTickRate:1

[Events]
//Background and Video events
0,0,"emptiness-007.jpg",0,0
//Break Periods
2,67412,83459
//Storyboard Layer 0 (Background)
//Storyboard Layer 1 (Fail)
//Storyboard Layer 2 (Pass)
//Storyboard Layer 3 (Foreground)
//Storyboard Sound Samples

[TimingPoints]
28813,300,4,1,0,50,1,0
32693,292.682926829268,4,1,0,50,1,0
33613,300,4,1,0,50,1,0
84013,-100,4,1,0,15,0,0
86413,-200,4,1,0,50,0,0
88813,-100,4,1,0,50,0,0
97138,300,4,1,0,50,1,0
98413,300,4,1,0,50,1,0
122413,-200,4,1,0,50,0,0
124213,-100,4,1,0,50,0,0

[Colours]
Combo1 : 128,128,128
Combo2 : 192,192,192
Combo3 : 11,62,181
Combo4 : 255,255,255

[HitObjects]
397,136,28813,5,8,0:0:0:0:
315,162,28963,1,0,0:0:0:0:
221,112,29113,2,0,P|184:98|140:90,1,70,2|0,0:0|0:0,0:0:0:0:
79,225,29413,6,0,L|84:203,2,23.3333333333333
88,259,29563,1,2,3:0:0:0:
115,284,29638,1,2,3:0:0:0:
146,294,29713,1,2,3:0:0:0:
255,262,29863,1,0,0:0:0:0:
387,341,30013,5,8,0:0:0:0:
449,207,30163,1,0,0:0:0:0:
449,207,30238,1,0,0:0:0:0:
449,207,30313,1,0,0:0:0:0:
320,124,30463,1,8,0:0:0:0:
455,61,30613,5,8,0:0:0:0:
326,144,30763,1,8,0:0:0:0:
213,38,30913,2,0,P|204:31|190:24,6,17.5
155,96,31213,6,0,P|143:91|122:87,5,23.3333333333333
114,163,31513,6,0,P|91:173|78:186,2,35
147,324,31813,6,8,P|148:310|150:292,7,17.5
228,357,32113,6,8,P|235:342|255:321,3,35
276,235,32413,6,8,P|281:241|287:248,6,17.5
361,200,32693,6,8,P|364:178|368:165,5,35
450,113,33168,1,8,0:0:0:0:
325,38,33314,1,6,3:0:0:0:
325,38,33613,6,0,P|274:47|215:45,1,105
187,32,33913,1,8,0:0:0:0:
133,153,34063,1,8,0:0:0:0:
168,333,34213,6,0,P|161:323|156:306,2,23.3333333333333,0|0|0,3:0|3:0|3:0,3:0:0:0:
211,348,34363,1,0,3:0:0:0:
256,343,34438,1,0,3:0:0:0:
289,312,34513,1,0,3:0:0:0:
306,269,34588,1,0,3:0:0:0:
297,224,34663,1,0,3:0:0:0:
259,91,34813,6,0,P|296:99|334:117,1,70,2|0,3:0|3:0,3:0:0:0:
387,199,35038,1,0,3:0:0:0:
387,199,35113,2,0,P|395:244|409:276,1,70,2|0,3:0|3:0,3:0:0:0:
475,164,35338,1,0,3:0:0:0:
475,164,35413,2,0,P|480:120|478:90,1,70,2|0,3:0|3:0,3:0:0:0:
389,30,35638,1,0,3:0:0:0:
389,30,35713,2,0,P|351:43|313:44,1,70,2|0,3:0|3:0,3:0:0:0:
226,16,35938,1,0,3:0:0:0:
226,16,36013,5,8,0:0:0:0:
226,16,36163,1,8,0:0:0:0:
226,16,36313,1,8,0:0:0:0:
226,16,36463,1,8,0:0:0:0:
167,133,36613,6,0,L|173:150,4,17.5
151,253,36913,1,0,0:0:0:0:
266,196,37063,1,0,0:0:0:0:
236,359,37213,6,0,P|295:333|376:324,1,140,6|0,3:0|0:0,0:0:0:0:
406,334,37588,1,0,0:0:0:0:
438,354,37663,5,6,3:0:0:0:
346,238,37813,1,8,0:0:0:0:
486,205,37963,1,8,0:0:0:0:
271,275,38113,5,2,3:0:0:0:
263,237,38188,1,2,3:0:0:0:
271,199,38263,1,2,3:0:0:0:
296,169,38338,1,2,3:0:0:0:
331,154,38413,5,8,0:0:0:0:
426,254,38563,1,8,0:0:0:0:
458,127,38713,1,10,0:0:0:0:
283,91,38863,5,0,0:0:0:0:
258,95,38938,1,0,0:0:0:0:
233,92,39013,1,0,0:0:0:0:
209,83,39088,1,0,0:0:0:0:
189,68,39163,1,0,0:0:0:0:
255,0,39313,5,8,0:0:0:0:
289,183,39463,1,8,0:0:0:0:
143,137,39613,5,10,0:0:0:0:
355,221,39763,1,0,0:0:0:0:
363,199,39838,1,0,0:0:0:0:
364,175,39913,1,0,0:0:0:0:
359,152,39988,1,0,0:0:0:0:
348,131,40063,1,0,0:0:0:0:
185,318,40213,5,0,0:0:0:0:
180,327,40288,1,0,0:0:0:0:
176,336,40363,1,0,0:0:0:0:
172,345,40438,1,0,0:0:0:0:
168,354,40513,6,0,L|146:364,6,17.5
82,381,40813,5,8,0:0:0:0:
32,240,40963,1,8,0:0:0:0:
69,370,41113,5,8,0:0:0:0:
108,191,41263,1,8,0:0:0:0:
248,292,41413,6,8,P|261:314|266:334,3,35
188,227,41713,2,8,P|188:210|193:187,3,35
265,138,42013,5,10,0:0:0:0:
164,312,42163,1,0,0:0:0:0:
138,300,42238,1,0,0:0:0:0:
118,279,42313,1,0,0:0:0:0:
106,253,42388,1,0,0:0:0:0:
102,225,42463,1,0,0:0:0:0:
182,134,42613,5,0,0:0:0:0:
189,106,42688,1,0,0:0:0:0:
188,78,42763,1,0,0:0:0:0:
179,51,42838,1,0,0:0:0:0:
162,29,42913,5,0,0:0:0:0:
73,103,43063,1,10,0:0:0:0:
188,227,43213,5,4,3:0:0:0:
12,198,43363,1,0,0:0:0:0:
131,304,43513,2,0,P|155:317|199:322,1,70,8|0,0:0|0:0,0:0:0:0:
217,318,43738,1,0,0:0:0:0:
235,308,43813,1,0,0:0:0:0:
255,303,43888,1,0,0:0:0:0:
276,303,43963,1,0,0:0:0:0:
389,343,44113,5,0,0:0:0:0:
403,307,44188,1,0,0:0:0:0:
409,269,44263,1,0,0:0:0:0:
406,230,44338,1,0,0:0:0:0:
395,192,44413,6,0,P|415:174|460:157,1,70,6|0,3:0|0:0,0:0:0:0:
273,116,44713,2,0,P|304:131|346:143,1,70,6|0,3:0|0:0,0:0:0:0:
120,92,45013,1,4,3:0:0:0:
222,55,45163,1,4,3:0:0:0:
195,223,45313,2,0,L|190:248,6,17.5
167,317,45613,5,0,0:0:0:0:
300,309,45763,1,0,0:0:0:0:
114,243,45913,5,8,0:0:0:0:
243,375,46063,1,8,0:0:0:0:
327,222,46213,2,8,P|332:212|336:197,2,23.3333333333333
381,291,46363,2,8,P|400:276|426:265,4,46.6666666666667
411,369,46813,2,8,P|421:372|430:378,2,17.5
321,359,46963,6,8,P|302:355|250:351,1,70,10|10,0:0|0:0,0:0:0:0:
132,371,47263,1,0,0:0:0:0:
118,373,47338,1,0,0:0:0:0:
104,374,47413,1,0,0:0:0:0:
90,373,47488,1,0,0:0:0:0:
76,368,47563,5,8,0:0:0:0:
106,257,47713,1,8,0:0:0:0:
62,143,47863,1,8,0:0:0:0:
63,361,48013,5,6,3:0:0:0:
139,254,48163,1,0,0:0:0:0:
77,117,48313,1,0,0:0:0:0:
98,99,48388,1,0,0:0:0:0:
124,89,48463,5,4,3:0:0:0:
232,117,48613,1,0,0:0:0:0:
320,59,48763,1,0,0:0:0:0:
347,60,48838,1,0,0:0:0:0:
373,69,48913,2,0,P|391:85|406:102,1,35
427,227,49063,5,8,0:0:0:0:
361,349,49213,1,0,0:0:0:0:
350,335,49288,1,0,0:0:0:0:
339,321,49363,1,0,0:0:0:0:
252,190,49513,5,8,0:0:0:0:
201,373,49663,1,0,0:0:0:0:
187,363,49738,1,0,0:0:0:0:
172,352,49813,1,0,0:0:0:0:
42,257,49963,5,8,0:0:0:0:
21,77,50113,2,0,L|13:51,1,17.5,2|2,0:0|0:0,0:0:0:0:
44,64,50188,2,0,L|39:42,1,17.5,2|2,0:0|0:0,0:0:0:0:
73,61,50263,2,0,L|72:39,1,17.5,2|2,0:0|0:0,0:0:0:0:
102,61,50338,2,0,L|105:38,1,17.5,2|2,0:0|0:0,0:0:0:0:
127,65,50413,5,0,0:0:0:0:
208,117,50563,1,0,0:0:0:0:
282,58,50713,1,2,0:0:0:0:
292,56,50788,1,2,0:0:0:0:
302,54,50863,1,2,0:0:0:0:
312,52,50938,1,2,0:0:0:0:
322,51,51013,5,0,0:0:0:0:
316,187,51163,1,0,0:0:0:0:
322,51,51313,1,0,0:0:0:0:
314,209,51463,2,0,L|313:231,2,17.5
247,275,51613,6,0,L|230:253,6,17.5
231,358,51913,6,0,L|207:355,6,17.5
139,373,52213,5,0,0:0:0:0:
308,340,52363,1,0,0:0:0:0:
472,304,52513,1,0,0:0:0:0:
479,277,52588,1,0,0:0:0:0:
482,249,52663,2,0,L|507:243,1,17.5,2|2,0:0|0:0,0:0:0:0:
475,221,52738,2,0,L|499:211,1,17.5,2|2,0:0|0:0,0:0:0:0:
461,196,52813,5,0,0:0:0:0:
376,217,52963,1,0,0:0:0:0:
291,239,53113,1,10,0:0:0:0:
469,166,53263,5,0,0:0:0:0:
384,187,53413,1,0,0:0:0:0:
299,209,53563,1,10,0:0:0:0:
227,135,53713,5,0,0:0:0:0:
221,122,53788,1,0,0:0:0:0:
216,108,53863,1,0,0:0:0:0:
214,94,53938,1,0,0:0:0:0:
214,80,54013,1,0,0:0:0:0:
217,66,54088,1,0,0:0:0:0:
221,52,54163,1,0,0:0:0:0:
228,39,54238,1,0,0:0:0:0:
238,29,54313,5,8,0:0:0:0:
278,201,54463,1,0,0:0:0:0:
291,184,54538,1,0,0:0:0:0:
300,165,54613,1,0,0:0:0:0:
305,144,54688,1,0,0:0:0:0:
306,123,54763,5,8,0:0:0:0:
199,212,54913,2,0,P|193:207|184:197,6,17.5,2|2|2|2|2|2|2,0:0|0:0|0:0|0:0|0:0|0:0|0:0,0:0:0:0:
227,135,55213,5,4,3:0:0:0:
253,287,55363,1,4,3:0:0:0:
34,243,55513,1,8,0:0:0:0:
115,221,55663,1,8,0:0:0:0:
179,382,55813,5,0,0:0:0:0:
206,375,55888,1,0,0:0:0:0:
233,368,55963,1,0,0:0:0:0:
260,361,56038,1,0,0:0:0:0:
286,353,56113,2,8,L|292:371,6,17.5
259,259,56413,5,12,3:0:0:0:
381,329,56713,5,12,3:0:0:0:
82,216,57013,5,12,3:0:0:0:
170,197,57163,1,0,0:0:0:0:
445,207,57313,5,0,0:0:0:0:
419,194,57388,1,0,0:0:0:0:
395,178,57463,1,0,0:0:0:0:
374,159,57538,1,0,0:0:0:0:
358,136,57613,5,0,0:0:0:0:
406,33,57763,1,0,0:0:0:0:
475,121,57913,1,0,0:0:0:0:
328,57,58063,6,0,P|305:47|251:35,1,70,8|0,0:0|0:0,0:0:0:0:
233,36,58288,1,0,0:0:0:0:
205,41,58363,1,0,0:0:0:0:
179,53,58438,1,0,0:0:0:0:
159,73,58513,6,0,P|150:106|145:150,1,70
210,300,58813,1,8,0:0:0:0:
226,277,58888,1,8,0:0:0:0:
234,250,58963,1,8,0:0:0:0:
214,319,59113,5,8,0:0:0:0:
249,302,59188,1,8,0:0:0:0:
277,274,59263,1,8,0:0:0:0:
213,339,59413,5,8,0:0:0:0:
259,341,59488,1,8,0:0:0:0:
307,329,59563,1,8,0:0:0:0:
417,226,59713,6,0,P|425:195|429:153,1,70,8|8,0:0|0:0,0:0:0:0:
422,129,59938,1,8,0:0:0:0:
407,104,60013,6,8,L|423:90,1,17.5,8|8,0:0|0:0,0:0:0:0:
386,85,60088,2,8,L|394:65,1,17.5,8|8,0:0|0:0,0:0:0:0:
361,71,60163,2,8,L|364:53,1,17.5,8|8,0:0|0:0,0:0:0:0:
334,63,60238,2,8,L|330:43,1,17.5,8|8,0:0|0:0,0:0:0:0:
306,62,60313,6,8,P|282:65|262:65,1,35,8|8,0:0|0:0,0:0:0:0:
228,134,60463,2,8,P|206:141|184:141,1,35,8|8,0:0|0:0,0:0:0:0:
130,87,60613,2,8,P|109:83|91:82,1,35,8|8,0:0|0:0,0:0:0:0:
42,154,60763,1,12,0:0:0:0:
122,323,60913,5,8,0:0:0:0:
167,327,60988,1,8,0:0:0:0:
212,331,61063,1,8,0:0:0:0:
257,335,61138,1,8,0:0:0:0:
302,339,61213,5,8,0:0:0:0:
317,315,61288,1,8,0:0:0:0:
323,287,61363,1,8,0:0:0:0:
321,259,61438,1,8,0:0:0:0:
310,233,61513,6,8,L|282:219,6,17.5,8|8|8|8|8|8|8,0:0|0:0|0:0|0:0|0:0|0:0|0:0,0:0:0:0:
221,192,61813,5,8,0:0:0:0:
356,129,61963,1,8,0:0:0:0:
191,52,62113,5,8,0:0:0:0:
329,114,62263,2,0,L|324:92,2,17.5
311,20,62413,6,0,P|341:12|383:11,1,70,4|2,3:0|3:0,3:0:0:0:
453,56,62638,1,2,3:0:0:0:
480,136,62713,6,0,P|475:160|470:210,1,70,4|2,3:0|3:0,3:0:0:0:
499,285,62938,1,2,3:0:0:0:
434,342,63013,6,0,P|400:349|364:349,1,70,4|2,3:0|3:0,3:0:0:0:
337,341,63238,1,2,3:0:0:0:
312,326,63313,1,10,3:0:0:0:
381,183,63463,1,10,3:0:0:0:
227,336,63613,6,0,P|214:316|195:271,1,70
242,169,63913,2,0,P|255:146|272:99,1,70,8|0,0:0|0:0,0:0:0:0:
275,77,64138,1,0,0:0:0:0:
270,49,64213,5,0,0:0:0:0:
162,7,64363,1,4,3:0:0:0:
223,186,64513,2,0,L|224:207,1,17.5,2|2,0:0|0:0,0:0:0:0:
243,205,64588,2,0,L|252:231,1,17.5,2|2,0:0|0:0,0:0:0:0:
268,216,64663,2,0,L|281:241,1,17.5,2|2,0:0|0:0,0:0:0:0:
294,224,64738,2,0,L|308:244,1,17.5,2|2,0:0|0:0,0:0:0:0:
321,225,64813,5,0,0:0:0:0:
438,210,64963,1,0,0:0:0:0:
296,122,65113,2,8,L|292:140,4,17.5
304,95,65338,1,0,0:0:0:0:
288,71,65413,1,0,0:0:0:0:
263,57,65488,1,0,0:0:0:0:
235,50,65563,1,0,0:0:0:0:
207,48,65638,1,0,0:0:0:0:
179,54,65713,6,8,L|169:26,4,17.5
153,65,65938,1,0,0:0:0:0:
131,83,66013,1,0,0:0:0:0:
114,105,66088,1,0,0:0:0:0:
105,131,66163,1,0,0:0:0:0:
102,158,66238,1,0,0:0:0:0:
105,185,66313,6,8,L|127:181,4,17.5
198,164,66538,1,0,0:0:0:0:
198,164,66613,6,8,L|224:180,4,17.5
261,236,66838,1,0,0:0:0:0:
261,236,66913,6,8,L|259:263,8,17.5
353,57,84013,6,0,B|323:42|323:42|301:71|301:71|269:39|214:48,1,140
264,249,84913,6,0,P|278:205|236:117,1,140
190,197,85813,6,0,L|158:202,14,17.5
144,269,86413,5,2,0:0:0:0:
246,248,86713,1,2,0:0:0:0:
340,355,87013,1,10,0:0:0:0:
453,137,87313,6,0,P|426:139|416:142,1,35,2|0,0:0|0:0,0:0:0:0:
372,200,87613,2,0,P|356:205|331:205,1,35,2|0,0:0|0:0,0:0:0:0:
268,162,87913,1,2,0:0:0:0:
371,12,88213,1,10,0:0:0:0:
153,57,88513,5,0,0:0:0:0:
146,91,88663,1,0,0:0:0:0:
140,125,88813,5,0,0:0:0:0:
166,230,88963,1,8,0:0:0:0:
136,362,89113,1,0,0:0:0:0:
162,352,89188,1,0,0:0:0:0:
189,345,89263,1,0,0:0:0:0:
216,342,89338,1,0,0:0:0:0:
243,343,89413,5,8,0:0:0:0:
373,373,89563,1,0,0:0:0:0:
400,368,89638,1,0,0:0:0:0:
425,356,89713,1,0,0:0:0:0:
446,338,89788,1,0,0:0:0:0:
462,315,89863,5,8,0:0:0:0:
421,185,90013,1,0,0:0:0:0:
454,60,90163,6,8,P|441:54|430:49,2,17.5
358,88,90313,2,8,P|336:100|316:117,7,35
280,177,90913,6,0,L|307:188,1,17.5,2|2,0:0|0:0,0:0:0:0:
269,202,90988,2,0,L|299:217,1,17.5,2|2,0:0|0:0,0:0:0:0:
263,229,91063,6,0,L|236:234,1,17.5,2|2,0:0|0:0,0:0:0:0:
264,256,91138,2,0,L|240:268,1,17.5,2|2,0:0|0:0,0:0:0:0:
286,333,91213,6,0,P|289:345|291:357,6,17.5
207,365,91513,2,4,P|208:346|212:324,3,35
356,284,91813,5,8,0:0:0:0:
426,176,91963,1,0,0:0:0:0:
409,153,92038,1,0,0:0:0:0:
400,126,92113,1,0,0:0:0:0:
473,16,92263,2,8,L|471:41,4,17.5
487,116,92563,5,0,0:0:0:0:
372,45,92713,1,2,0:0:0:0:
344,38,92788,1,2,0:0:0:0:
316,38,92863,1,2,0:0:0:0:
288,43,92938,1,2,0:0:0:0:
262,54,93013,5,6,3:0:0:0:
339,232,93313,5,6,3:0:0:0:
75,279,93613,6,0,L|73:251,1,17.5,2|2,0:0|0:0,0:0:0:0:
106,264,93688,2,0,L|108:237,1,17.5,2|2,0:0|0:0,0:0:0:0:
140,256,93763,2,0,L|148:234,1,17.5,2|2,0:0|0:0,0:0:0:0:
175,254,93838,2,0,L|189:229,1,17.5,2|2,0:0|0:0,0:0:0:0:
210,257,93913,2,0,L|226:240,1,17.5,2|2,0:0|0:0,0:0:0:0:
243,268,93988,2,0,L|261:256,1,17.5,2|2,0:0|0:0,0:0:0:0:
274,284,94063,2,0,L|299:277,1,17.5,2|2,0:0|0:0,0:0:0:0:
302,306,94138,2,0,L|331:311,1,17.5,2|2,0:0|0:0,0:0:0:0:
325,332,94213,5,8,0:0:0:0:
359,297,94288,1,8,0:0:0:0:
379,252,94363,1,8,0:0:0:0:
388,203,94438,1,8,0:0:0:0:
383,154,94513,5,8,0:0:0:0:
409,162,94588,1,8,0:0:0:0:
432,176,94663,1,8,0:0:0:0:
450,196,94738,1,8,0:0:0:0:
462,220,94813,6,0,P|476:262|480:298,1,70
308,201,95113,1,8,0:0:0:0:
381,55,95263,1,0,3:0:0:0:
319,112,95413,1,0,3:0:0:0:
381,55,95563,1,0,0:0:0:0:
254,14,95713,5,8,0:0:0:0:
305,226,95863,1,0,0:0:0:0:
393,136,96013,5,8,0:0:0:0:
240,103,96163,1,8,0:0:0:0:
124,186,96313,1,0,0:0:0:0:
116,213,96388,1,0,0:0:0:0:
108,240,96463,1,0,0:0:0:0:
155,363,96613,6,8,L|147:342,2,17.5
226,318,96763,2,8,L|229:293,8,17.5
306,334,97138,1,0,0:0:0:0:
377,275,97213,6,8,L|357:263,4,17.5
372,187,97438,1,0,0:0:0:0:
321,115,97513,2,8,L|316:135,4,17.5
238,142,97738,1,0,0:0:0:0:
147,62,97888,5,10,0:0:0:0:
122,48,97963,1,10,0:0:0:0:
96,37,98038,1,10,0:0:0:0:
135,208,98188,2,8,L|140:230,4,17.5
48,167,98413,6,0,P|41:188|35:242,1,70,4|0,0:0|0:0,0:0:0:0:
102,335,98713,2,0,P|133:322|171:315,1,70,4|0,0:0|0:0,0:0:0:0:
276,345,99013,1,8,0:0:0:0:
358,285,99163,1,0,0:0:0:0:
368,258,99238,1,0,0:0:0:0:
371,230,99313,1,0,0:0:0:0:
339,127,99463,1,8,0:0:0:0:
184,143,99613,6,0,P|215:131|256:125,1,70,4|0,0:0|0:0,0:0:0:0:
167,233,99913,2,0,P|136:245|95:251,1,70,4|0,0:0|0:0,0:0:0:0:
101,82,100213,2,0,P|135:91|168:111,1,70,4|0,0:0|0:0,0:0:0:0:
253,283,100513,1,4,0:0:0:0:
193,370,100663,1,4,0:0:0:0:
113,167,100813,5,0,3:0:0:0:
164,89,100963,1,0,3:0:0:0:
249,121,101113,5,8,0:0:0:0:
323,35,101263,1,8,0:0:0:0:
386,171,101413,1,0,0:0:0:0:
389,191,101488,1,0,0:0:0:0:
390,211,101563,1,0,0:0:0:0:
388,231,101638,1,0,0:0:0:0:
382,251,101713,5,8,0:0:0:0:
289,202,101863,1,0,0:0:0:0:
477,166,102013,6,0,L|475:192,6,17.5
465,265,102313,2,0,P|469:288|477:311,3,35
429,370,102613,2,0,P|411:375|384:378,3,35
321,338,102913,6,0,L|325:314,1,17.5,2|2,0:0|0:0,0:0:0:0:
295,319,102988,2,0,L|294:295,1,17.5,2|2,0:0|0:0,0:0:0:0:
266,305,103063,2,0,L|259:279,1,17.5,2|2,0:0|0:0,0:0:0:0:
235,296,103138,2,0,L|226:273,1,17.5,2|2,0:0|0:0,0:0:0:0:
203,293,103213,5,0,0:0:0:0:
95,364,103363,2,8,L|90:339,2,17.5
53,277,103513,6,0,P|45:256|33:207,1,70,8|0,0:0|0:0,0:0:0:0:
71,101,103813,1,0,0:0:0:0:
162,193,103963,1,8,0:0:0:0:
243,34,104113,6,0,P|263:28|288:24,1,35,2|2,0:0|0:0,0:0:0:0:
348,71,104263,2,0,P|368:81|392:87,1,35,2|2,0:0|0:0,0:0:0:0:
461,38,104413,5,4,0:0:0:0:
506,167,104563,1,8,0:0:0:0:
408,307,104713,1,8,0:0:0:0:
417,178,104863,1,0,0:0:0:0:
495,366,105013,5,0,0:0:0:0:
313,341,105163,1,8,0:0:0:0:
167,379,105313,2,0,P|153:365|138:341,1,35,2|2,0:0|0:0,0:0:0:0:
84,295,105463,2,0,P|88:274|97:247,1,35,2|2,0:0|0:0,0:0:0:0:
150,202,105613,5,0,0:0:0:0:
251,247,105763,1,0,0:0:0:0:
312,162,105913,1,8,0:0:0:0:
272,308,106063,1,0,0:0:0:0:
262,277,106138,1,0,0:0:0:0:
251,247,106213,5,8,0:0:0:0:
210,103,106363,1,8,0:0:0:0:
160,301,106513,5,8,0:0:0:0:
296,69,106663,1,8,0:0:0:0:
403,279,106813,6,0,P|410:303|414:349,1,70
349,196,107113,1,2,0:0:0:0:
367,170,107188,1,2,0:0:0:0:
392,150,107263,1,2,0:0:0:0:
420,137,107338,1,2,0:0:0:0:
451,132,107413,5,10,0:0:0:0:
382,296,107563,1,0,0:0:0:0:
354,311,107638,1,0,0:0:0:0:
322,308,107713,2,0,L|317:329,6,17.5,2|2|2|2|2|2|2,0:0|0:0|0:0|0:0|0:0|0:0|0:0,0:0:0:0:
249,270,108013,6,0,P|224:256|182:240,1,70
153,238,108238,1,0,3:0:0:0:
123,248,108313,1,0,3:0:0:0:
100,269,108388,1,0,3:0:0:0:
42,352,108538,5,0,3:0:0:0:
20,328,108613,2,0,L|2:341,1,17.5,0|0,3:0|3:0,3:0:0:0:
7,299,108688,1,0,3:0:0:0:
0,268,108763,2,0,L|5:245,10,17.5,0|0|0|0|0|0|0|0|0|0|0,3:0|3:0|3:0|3:0|3:0|3:0|3:0|3:0|3:0|3:0|3:0,3:0:0:0:
30,182,109213,5,8,0:0:0:0:
112,109,109363,1,0,0:0:0:0:
122,117,109438,1,0,0:0:0:0:
132,125,109513,1,0,0:0:0:0:
166,5,109663,1,8,0:0:0:0:
272,193,109813,5,0,3:0:0:0:
252,113,109963,1,0,3:0:0:0:
211,323,110113,2,8,L|237:316,6,17.5
370,281,110413,5,4,0:0:0:0:
178,232,110638,1,0,0:0:0:0:
178,232,110713,2,0,P|163:203|152:161,1,70,8|0,0:0|0:0,0:0:0:0:
350,88,111013,2,0,L|347:108,6,17.5
331,180,111313,5,8,0:0:0:0:
329,214,111388,1,8,0:0:0:0:
336,248,111463,1,8,0:0:0:0:
353,278,111538,1,8,0:0:0:0:
379,300,111613,5,8,0:0:0:0:
461,250,111763,1,0,0:0:0:0:
260,152,111913,1,8,0:0:0:0:
225,155,111988,1,8,0:0:0:0:
194,171,112063,1,8,0:0:0:0:
169,195,112138,1,8,0:0:0:0:
153,226,112213,5,8,0:0:0:0:
235,369,112363,1,0,0:0:0:0:
260,344,112438,1,0,0:0:0:0:
273,311,112513,2,0,L|252:300,6,17.5,0|0|0|0|0|0|0,3:0|3:0|3:0|3:0|3:0|3:0|3:0,3:0:0:0:
180,303,112813,6,0,P|151:312|104:315,1,70
40,235,113113,1,8,0:0:0:0:
64,106,113263,1,0,0:0:0:0:
72,90,113338,1,0,0:0:0:0:
84,77,113413,1,0,0:0:0:0:
99,66,113488,1,0,0:0:0:0:
114,59,113563,5,4,0:0:0:0:
201,157,113713,1,8,0:0:0:0:
287,38,113863,1,0,0:0:0:0:
292,54,113938,1,0,0:0:0:0:
297,70,114013,5,4,0:0:0:0:
276,216,114163,1,4,0:0:0:0:
341,145,114313,1,4,0:0:0:0:
387,332,114463,1,4,0:0:0:0:
464,185,114613,6,0,L|459:202,4,17.5,2|2|2|2|2,3:0|3:0|3:0|3:0|3:0,3:0:0:0:
488,104,114838,1,0,3:0:0:0:
470,73,114913,6,0,L|468:47,1,17.5,2|2,3:0|3:0,3:0:0:0:
444,48,114988,2,0,L|436:28,1,17.5,2|2,3:0|3:0,3:0:0:0:
413,31,115063,2,0,L|399:12,1,17.5,2|2,3:0|3:0,3:0:0:0:
379,20,115138,2,0,L|363:3,1,17.5,2|2,3:0|3:0,3:0:0:0:
344,13,115213,5,0,0:0:0:0:
270,95,115363,1,0,0:0:0:0:
160,62,115513,1,0,0:0:0:0:
125,57,115588,1,0,0:0:0:0:
90,58,115663,1,0,0:0:0:0:
57,69,115738,1,0,0:0:0:0:
28,88,115813,5,8,0:0:0:0:
51,233,115963,1,0,0:0:0:0:
57,267,116038,1,0,0:0:0:0:
63,301,116113,1,0,0:0:0:0:
68,335,116188,1,0,0:0:0:0:
73,369,116263,1,8,0:0:0:0:
196,275,116413,5,0,0:0:0:0:
232,116,116563,1,0,0:0:0:0:
314,293,116713,1,0,0:0:0:0:
314,293,116788,1,0,0:0:0:0:
314,293,116863,1,0,0:0:0:0:
457,165,117013,6,4,P|464:147|467:123,3,35
406,76,117313,2,4,P|401:55|398:32,3,35
476,4,117613,5,0,0:0:0:0:
315,47,117763,1,0,0:0:0:0:
371,219,117913,1,8,0:0:0:0:
204,194,118063,1,8,0:0:0:0:
169,189,118138,1,0,0:0:0:0:
134,192,118213,1,8,0:0:0:0:
102,207,118288,1,0,0:0:0:0:
76,231,118363,5,8,0:0:0:0:
162,317,118513,1,0,0:0:0:0:
210,90,118663,1,8,0:0:0:0:
293,237,118813,6,0,P|299:248|305:265,2,17.5
306,328,118963,2,0,P|304:340|300:349,2,17.5
233,382,119113,6,8,P|224:383|214:382,6,17.5
151,339,119413,2,0,P|142:338|130:338,6,17.5
61,381,119713,2,4,P|39:379|19:374,3,35
7,212,120013,5,0,0:0:0:0:
138,263,120163,1,8,0:0:0:0:
172,255,120238,1,0,0:0:0:0:
206,247,120313,1,8,0:0:0:0:
240,240,120388,1,0,0:0:0:0:
273,231,120463,5,0,0:0:0:0:
386,310,120613,1,10,0:0:0:0:
258,149,120763,1,10,0:0:0:0:
197,347,120913,1,10,0:0:0:0:
376,175,121063,1,10,0:0:0:0:
154,87,121213,6,0,P|178:71|220:60,1,70
251,66,121438,2,0,L|256:42,1,17.5,0|0,3:0|3:0,3:0:0:0:
285,72,121513,6,0,P|323:74|364:68,1,70
388,60,121738,2,0,L|396:85,1,17.5,0|0,3:0|3:0,3:0:0:0:
415,38,121813,5,8,0:0:0:0:
440,80,121888,1,8,0:0:0:0:
452,127,121963,1,8,0:0:0:0:
417,293,122113,6,0,L|428:274,1,17.5,2|2,0:0|0:0,0:0:0:0:
390,270,122188,2,0,L|398:251,1,17.5,2|2,0:0|0:0,0:0:0:0:
357,255,122263,2,0,L|362:233,1,17.5,2|2,0:0|0:0,0:0:0:0:
323,246,122338,2,0,L|325:220,1,17.5,2|2,0:0|0:0,0:0:0:0:
288,245,122413,5,6,0:0:0:0:
172,344,122713,1,6,0:0:0:0:
116,130,123013,1,14,0:0:0:0:
352,46,123313,6,0,L|344:94,1,35,2|0,0:0|0:0,0:0:0:0:
393,151,123613,2,0,L|396:187,1,35,2|0,0:0|0:0,0:0:0:0:
347,264,123913,1,8,0:0:0:0:
383,343,124063,1,0,0:0:0:0:
485,211,124213,2,8,L|506:216,1,17.5
487,193,124288,1,8,0:0:0:0:
491,175,124363,1,8,0:0:0:0:
496,158,124438,1,8,0:0:0:0:
503,142,124513,5,8,0:0:0:0:
281,199,124663,1,8,0:0:0:0:
