osu file format v14

[General]
AudioFilename: audio.mp3
AudioLeadIn: 0
PreviewTime: 10313
Countdown: 0
SampleSet: Soft
StackLeniency: 0.7
Mode: 0
LetterboxInBreaks: 0
WidescreenStoryboard: 1

[Editor]
DistanceSpacing: 1.5
BeatDivisor: 4
GridSize: 4
TimelineZoom: 1.3

[Metadata]
Title:Smol and Squishy
TitleUnicode:Smol and Squishy
Artist:Loliconics
ArtistUnicode:Loliconics
Creator:Uta
Version:Bang
Source:
Tags:myaa_ne small watashi ni tenshi ga maiorita
BeatmapID:1984986
BeatmapSetID:950389

[Difficulty]
HPDrainRate:6
CircleSize:4.3
OverallDifficulty:8
ApproachRate:9.3
SliderMultiplier:2.3
SliderTickRate:1

[Events]
//Background and Video events
0,0,"bang your heart.png",0,0
//Break Periods
//Storyboard Layer 0 (Background)
//Storyboard Layer 1 (Fail)
//Storyboard Layer 2 (Pass)
//Storyboard Layer 3 (Foreground)
//Storyboard Sound Samples

[TimingPoints]
2423,500,4,2,1,50,1,0
16419,500,4,2,1,50,1,0
17888,500,4,2,1,50,1,0
18389,500,4,2,1,50,1,0

[Colours]
Combo1 : 255,221,117
Combo2 : 147,255,255
Combo3 : 255,174,255
Combo4 : 177,100,255

[HitObjects]
80,185,2923,6,0,L|141:187,1,57.5,0|0,1:0|0:0,0:0:0:0:
160,162,3173,1,0,1:0:0:0:
278,206,3423,2,0,L|276:77,1,115,2|0,1:0|1:0,0:0:0:0:
371,223,3923,1,8,0:0:0:0:
371,223,4048,1,0,0:0:0:0:
371,223,4173,1,0,1:0:0:0:
373,330,4423,5,2,1:0:0:0:
373,330,4548,1,0,0:0:0:0:
289,356,4673,2,0,L|283:295,1,57.5,0|0,1:0|0:0,0:0:0:0:
298,213,4923,1,8,0:0:0:0:
135,340,5173,6,0,L|211:336,1,76.6666666666667,0|0,1:0|0:0,0:0:0:0:
289,356,5423,6,0,P|345:303|270:213,1,172.5,2|0,1:0|0:0,0:0:0:0:
147,82,5923,2,0,L|220:93,1,57.5,8|0,0:0|0:0,0:0:0:0:
212,183,6173,1,0,0:0:0:0:
304,162,6298,1,0,0:0:0:0:
219,197,6423,6,0,P|149:185|64:172,1,115,2|0,1:0|0:0,0:0:0:0:
25,221,6923,1,8,0:0:0:0:
25,221,7048,1,0,0:0:0:0:
25,221,7173,1,0,0:0:0:0:
50,121,7423,6,0,L|66:53,1,57.5,2|0,1:0|0:0,0:0:0:0:
18,10,7673,1,0,0:0:0:0:
129,137,7923,2,0,P|214:157|261:124,1,115,8|0,0:0|0:0,0:0:0:0:
322,121,8423,6,0,L|333:198,1,57.5,2|0,1:0|0:0,0:0:0:0:
334,269,8673,1,0,0:0:0:0:
334,269,8798,1,0,0:0:0:0:
338,257,8923,2,0,L|346:313,1,57.5,8|0,0:0|0:0,0:0:0:0:
487,309,9173,6,0,L|420:290,1,57.5
265,353,9423,2,0,P|192:364|140:275,1,172.5,2|0,1:0|0:0,0:0:0:0:
237,189,9923,1,8,0:0:0:0:
237,189,10048,1,0,3:0:0:0:
139,124,10173,1,0,3:0:0:0:
154,215,10298,1,0,3:0:0:0:
61,190,10423,6,0,L|40:57,1,115,4|0,0:0|3:0,0:0:0:0:
117,21,10798,1,0,3:0:0:0:
117,21,10923,2,0,P|148:30|190:34,1,57.5,8|0,0:0|0:0,0:0:0:0:
354,67,11173,6,0,P|289:70|216:154,1,172.5,4|0,0:0|0:0,0:0:0:0:
227,244,11673,2,0,L|321:253,1,57.5,4|0,0:0|0:0,0:0:0:0:
310,345,11923,2,0,L|252:339,1,57.5,8|0,0:0|0:0,0:0:0:0:
446,205,12173,1,0,3:0:0:0:
402,293,12298,1,0,3:0:0:0:
354,210,12423,6,0,P|372:136|479:121,1,172.5,4|0,0:0|0:0,0:0:0:0:
509,108,12923,2,0,P|460:97|403:81,1,57.5,8|0,0:0|0:0,0:0:0:0:
306,75,13173,2,0,B|219:46|215:121|97:68,1,172.5,4|0,0:0|0:0,0:0:0:0:
27,78,13673,5,4,0:0:0:0:
27,78,13798,1,0,3:0:0:0:
27,78,13923,2,0,P|46:105|66:148,1,57.5,8|0,0:0|3:0,0:0:0:0:
175,262,14173,1,0,3:0:0:0:
87,319,14298,1,0,3:0:0:0:
92,222,14423,6,0,P|158:175|255:219,1,172.5,4|0,0:0|0:0,0:0:0:0:
315,279,14923,2,0,L|396:263,1,57.5,8|0,0:0|0:0,0:0:0:0:
452,315,15173,6,0,P|479:215|474:132,1,172.5,4|0,0:0|0:0,0:0:0:0:
314,222,15673,2,0,P|319:289|339:314,1,57.5,4|0,0:0|0:0,0:0:0:0:
380,157,15923,1,8,0:0:0:0:
380,157,16048,1,0,3:0:0:0:
270,206,16173,1,0,3:0:0:0:
270,206,16298,1,0,3:0:0:0:
270,206,16419,6,0,L|265:327,1,115,4|0,0:0|0:0,0:0:0:0:
81,297,16919,6,0,L|154:301,1,57.5,2|0,3:0|0:0,0:0:0:0:
143,338,17169,2,0,L|147:265,1,57.5,2|0,3:0|0:0,0:0:0:0:
39,154,17419,2,0,B|81:195|81:195|146:156|236:198,1,172.5,0|0,3:0|0:0,0:0:0:0:
289,228,17888,2,0,L|282:153,1,57.5,2|0,3:0|0:0,0:0:0:0:
293,164,18138,2,0,L|298:221,1,57.5,2|0,3:0|0:0,0:0:0:0:
269,255,18389,5,4,0:0:0:0:
288,128,18514,1,0,0:0:0:0:
322,337,18639,2,0,P|240:339|171:274,1,172.5
116,182,19139,5,4,0:0:0:0:
215,191,19264,1,0,0:0:0:0:
31,232,19389,2,0,P|23:199|34:134,1,57.5,2|0,0:0|0:0,0:0:0:0:
71,49,19639,5,4,0:0:0:0:
108,175,19764,1,0,0:0:0:0:
182,103,19889,2,0,P|237:99|248:103,1,57.5,8|0,0:0|0:0,0:0:0:0:
242,271,20139,2,0,P|187:275|176:271,1,57.5,2|0,0:0|0:0,0:0:0:0:
301,175,20389,5,4,0:0:0:0:
268,364,20514,1,0,0:0:0:0:
346,266,20639,2,0,P|429:246|518:288,1,172.5
471,352,21139,5,4,0:0:0:0:
438,208,21264,1,0,0:0:0:0:
471,352,21389,2,0,L|396:347,1,57.5,2|0,0:0|0:0,0:0:0:0:
245,266,21639,5,4,0:0:0:0:
375,277,21764,1,0,0:0:0:0:
235,350,21889,2,0,P|174:315|175:218,1,172.5,8|0,0:0|0:0,0:0:0:0:
271,141,22389,6,0,L|189:130,1,57.5,4|0,0:0|0:0,0:0:0:0:
142,66,22639,1,0,0:0:0:0:
172,221,22764,1,0,0:0:0:0:
340,96,22889,1,8,0:0:0:0:
214,133,23014,1,0,0:0:0:0:
386,169,23139,6,0,P|427:110|375:18,1,172.5,4|0,0:0|0:0,0:0:0:0:
249,48,23639,5,4,0:0:0:0:
340,96,23764,1,0,0:0:0:0:
273,166,23889,2,0,P|219:159|205:158,1,57.5,8|0,0:0|0:0,0:0:0:0:
111,88,24139,2,0,P|165:81|179:80,1,57.5,2|0,0:0|0:0,0:0:0:0:
26,68,24389,6,0,L|23:154,1,57.5,4|0,0:0|0:0,0:0:0:0:
96,227,24639,1,0,0:0:0:0:
136,46,24764,1,0,0:0:0:0:
111,218,24889,2,0,L|121:146,1,57.5,8|0,0:0|0:0,0:0:0:0:
257,99,25139,6,0,P|202:106|161:128,1,57.5
233,266,25389,2,0,L|313:275,1,57.5,2|0,0:0|0:0,0:0:0:0:
448,154,25639,5,4,0:0:0:0:
278,197,25764,1,0,0:0:0:0:
447,250,25889,1,8,0:0:0:0:
338,101,26014,1,0,0:0:0:0:
288,281,26139,1,2,0:0:0:0:
388,179,26264,1,0,0:0:0:0:
338,350,26389,6,0,P|260:373|169:317,1,172.5,4|0,0:0|0:0,0:0:0:0:
36,226,26889,1,8,0:0:0:0:
72,357,27014,1,0,0:0:0:0:
193,298,27139,6,0,L|113:295,1,57.5,4|0,0:0|0:0,0:0:0:0:
37,193,27389,1,2,0:0:0:0:
1,324,27514,1,0,0:0:0:0:
124,220,27639,6,0,L|181:217,1,57.5,4|0,0:0|0:0,0:0:0:0:
95,308,27889,2,0,P|51:223|78:135,1,172.5,8|0,0:0|0:0,0:0:0:0:
139,49,28389,6,0,L|220:68,1,57.5,4|0,0:0|0:0,0:0:0:0:
29,88,28639,1,0,0:0:0:0:
180,209,28764,1,0,0:0:0:0:
105,43,28889,1,8,0:0:0:0:
12,191,29014,1,0,0:0:0:0:
174,135,29139,6,0,P|263:147|280:155,1,57.5,4|0,0:0|0:0,0:0:0:0:
370,167,29389,2,0,P|281:179|264:187,1,57.5,2|0,0:0|0:0,0:0:0:0:
396,37,29639,6,0,P|485:49|502:57,1,57.5,4|0,0:0|0:0,0:0:0:0:
504,167,29889,1,8,0:0:0:0:
361,121,30014,1,0,0:0:0:0:
423,200,30139,1,2,0:0:0:0:
353,105,30264,1,0,0:0:0:0:
487,255,30389,6,0,P|422:284|344:216,1,172.5,4|0,0:0|0:0,0:0:0:0:
209,143,30889,2,0,L|304:157,1,57.5,8|0,0:0|0:0,0:0:0:0:
142,64,31139,5,4,0:0:0:0:
163,233,31264,1,0,0:0:0:0:
84,171,31389,2,0,L|-11:185,1,57.5,2|0,0:0|0:0,0:0:0:0:
25,325,31639,6,0,L|120:339,1,57.5,4|0,0:0|0:0,0:0:0:0:
219,224,31889,1,8,0:0:0:0:
79,248,32014,1,0,0:0:0:0:
227,309,32139,1,2,0:0:0:0:
203,142,32264,1,0,0:0:0:0:
165,370,32389,6,0,P|255:389|314:324,1,172.5,4|0,0:0|0:0,0:0:0:0:
444,182,32889,6,0,L|364:186,1,57.5,4|0,0:0|0:0,0:0:0:0:
323,262,33139,2,0,L|403:266,1,57.5,4|0,0:0|0:0,0:0:0:0:
384,100,33389,2,0,B|298:114|298:114|265:165|218:191,1,172.5,6|0,0:0|0:0,0:0:0:0:
156,234,33889,2,0,L|146:97,1,115,4|0,0:0|0:0,0:0:0:0:
