osu file format v14

[General]
AudioFilename: audio.mp3
AudioLeadIn: 0
PreviewTime: 47428
Countdown: 0
SampleSet: Soft
StackLeniency: 0.7
Mode: 0
LetterboxInBreaks: 0
WidescreenStoryboard: 0

[Editor]
Bookmarks: 9746,17550,25355,33160,40965,48770,56575,64380,72185,79989
DistanceSpacing: 1
BeatDivisor: 4
GridSize: 4
TimelineZoom: 1.9

[Metadata]
Title:Sevgingni Menga Ayt. (Cut Ver.)
TitleUnicode:Sevgingni Menga Ayt. (Cut Ver.)
Artist:Lola Yuldasheva
ArtistUnicode:Lola Yuldasheva
Creator:M a r v o l l o
Version:Ishongin sevgingga
Source:
Tags:shmiklak uzbek pop o'zbek Õzbek севгингни менга айт узбекский поп ўзбек ўзбекча o'zbekcha Õzbekcha Лола Юлдашева Youldasheva marvollo m_a_r_v_o_l_l_o gordon123 daycore ayt Yo'ldosheva
BeatmapID:3325460
BeatmapSetID:1628949

[Difficulty]
HPDrainRate:6
CircleSize:5
OverallDifficulty:8
ApproachRate:9.3
SliderMultiplier:2
SliderTickRate:1

[Events]
//Background and Video events
0,0,"lola.jpg",0,0
//Break Periods
//Storyboard Layer 0 (Background)
//Storyboard Layer 1 (Fail)
//Storyboard Layer 2 (Pass)
//Storyboard Layer 3 (Foreground)
//Storyboard Layer 4 (Overlay)
//Storyboard Sound Samples

[TimingPoints]
1941,487.80487804878,4,2,1,60,1,0
9746,-125,4,2,1,50,0,0
11452,-125,4,2,1,5,0,0
11697,-125,4,2,1,50,0,0
15354,-125,4,2,1,5,0,0
15599,-125,4,2,1,50,0,0
17550,-111.111111111111,4,2,1,60,0,0
18526,-125,4,2,1,60,0,0
21453,-111.111111111111,4,2,1,60,0,0
22429,-125,4,2,1,60,0,0
25355,-111.111111111111,4,2,1,75,0,0
39014,-83.3333333333333,4,2,1,75,0,0
39502,-62.5,4,2,1,75,0,0
40965,-62.5,4,2,1,60,0,0
48770,-40,4,2,2,90,0,1
49258,-1000,4,2,2,90,0,1
49624,-66.6666666666667,4,2,2,90,0,1
49989,-100,4,2,2,90,0,1
50355,-1000,4,2,2,90,0,1
50721,-43.4782608695652,4,2,2,90,0,1
51209,-71.4285714285714,4,2,2,90,0,1
51941,-142.857142857143,4,2,2,90,0,1
52307,-55.5555555555556,4,2,2,90,0,1
52672,-38.4615384615385,4,2,2,90,0,1
53282,-58.8235294117647,4,2,2,90,0,1
53526,-38.4615384615385,4,2,2,90,0,1
53892,-250,4,2,2,90,0,1
54258,-500,4,2,2,90,0,1
55111,-66.6666666666667,4,2,2,90,0,1
55355,-41.6666666666667,4,2,2,90,0,1
56331,-33.3333333333333,4,2,2,90,0,0
56575,-43.4782608695652,4,2,2,90,0,1
57063,-43.4782608695652,4,2,2,90,0,1
57429,-62.5,4,2,2,90,0,1
58282,-35.7142857142857,4,2,2,90,0,1
59014,-71.4285714285714,4,2,2,90,0,1
59746,-142.857142857143,4,2,2,90,0,1
60111,-55.5555555555556,4,2,2,90,0,1
60477,-41.6666666666667,4,2,2,90,0,1
61087,-58.8235294117647,4,2,2,90,0,1
61331,-41.6666666666667,4,2,2,90,0,1
61697,-250,4,2,2,90,0,1
62063,-500,4,2,2,90,0,1
62916,-66.6666666666667,4,2,2,90,0,1
63892,-1000,4,2,2,90,0,0
64380,-40,4,2,2,90,0,1
64868,-125,4,2,2,90,0,1
65233,-66.6666666666667,4,2,2,90,0,1
65599,-52.6315789473684,4,2,2,90,0,1
65965,-181.818181818182,4,2,2,90,0,1
66331,-52.6315789473684,4,2,2,90,0,1
67550,-40,4,2,2,90,0,1
67916,-62.5,4,2,2,90,0,1
68282,-37.037037037037,4,2,2,90,0,1
69502,-125,4,2,2,90,0,1
69868,-200,4,2,2,90,0,1
70721,-66.6666666666667,4,2,2,90,0,1
72062,-66.6666666666667,4,2,2,90,0,0
72184,-40,4,2,2,90,0,1
72672,-125,4,2,2,90,0,1
73038,-66.6666666666667,4,2,2,90,0,1
73404,-52.6315789473684,4,2,2,90,0,1
73770,-181.818181818182,4,2,2,90,0,1
74136,-52.6315789473684,4,2,2,90,0,1
75355,-40,4,2,2,90,0,1
75721,-62.5,4,2,2,90,0,1
76087,-37.037037037037,4,2,2,90,0,1
77307,-125,4,2,2,90,0,1
77672,-200,4,2,2,90,0,1
78526,-66.6666666666667,4,2,2,90,0,1
79989,-66.6666666666667,4,2,2,90,0,0

[Colours]
Combo1 : 155,192,249
Combo2 : 170,204,185
Combo3 : 249,220,176
Combo4 : 253,204,207

[HitObjects]
462,294,8282,5,8,0:1:0:0:
371,197,8526,1,8,0:1:0:0:
371,197,8648,1,8,0:1:0:0:
371,197,8770,2,0,L|381:145,1,50,8|8,0:1|0:1,0:0:0:0:
305,255,9014,2,0,L|295:203,1,50,8|0,0:1|0:0,0:0:0:0:
214,354,9258,2,0,L|237:251,1,100,8|2,0:1|0:2,0:0:0:0:
84,42,9746,6,0,P|119:83|130:123,1,80,6|0,3:2|0:0,0:0:0:0:
97,172,10111,1,2,0:1:0:0:
97,172,10233,2,0,L|3:156,1,80,0|2,3:0|0:1,0:0:0:0:
148,247,10721,1,0,3:0:0:0:
65,295,10965,1,2,0:1:0:0:
97,172,11209,1,0,3:0:0:0:
97,172,11331,2,0,P|109:177|100:176,1,40,2|0,0:1|0:0,0:0:0:0:
231,23,11697,6,0,L|217:112,1,80,2|0,3:1|0:0,0:0:0:0:
262,163,12063,1,2,0:1:0:0:
262,163,12185,2,0,P|302:147|356:147,1,80,0|2,3:0|0:1,0:0:0:0:
425,240,12672,1,2,3:2:0:0:
320,219,12916,1,2,0:1:0:0:
446,112,13160,1,2,3:2:0:0:
484,214,13404,1,2,0:2:0:0:
324,321,13648,6,0,P|283:314|235:277,1,80,2|0,3:2|0:0,0:0:0:0:
199,245,14014,1,2,0:1:0:0:
199,245,14136,2,0,L|99:257,1,80,2|2,3:2|0:1,0:0:0:0:
25,310,14624,1,2,3:2:0:0:
137,359,14868,1,2,0:1:0:0:
260,328,15111,1,0,3:2:0:0:
260,328,15233,2,0,P|258:343|254:335,1,40,2|0,0:1|0:0,0:0:0:0:
404,358,15599,6,0,P|403:316|418:269,1,80,2|0,3:1|0:0,0:0:0:0:
365,223,15965,1,2,0:1:0:0:
365,223,16087,2,0,P|323:224|276:209,1,80,0|2,3:0|0:1,0:0:0:0:
206,120,16575,1,0,3:0:0:0:
380,144,16819,1,2,0:1:0:0:
380,144,17185,5,0,0:0:0:0:
208,259,17550,6,0,B|135:277|164:211|75:234,1,135,6|2,3:2|0:1,0:0:0:0:
19,258,18038,1,8,3:2:0:0:
65,144,18282,1,2,0:1:0:0:
104,303,18526,2,0,P|98:339|79:389,1,80,0|2,3:0|0:1,0:0:0:0:
208,259,19014,2,0,P|197:225|189:178,1,80,8|2,3:2|0:0,0:0:0:0:
286,31,19502,6,0,L|371:19,1,80,2|0,3:1|0:0,0:0:0:0:
420,76,19868,1,2,0:1:0:0:
420,76,19989,2,0,L|411:161,1,80,8|2,3:2|0:1,0:0:0:0:
435,300,20477,1,2,3:2:0:0:
491,131,20721,1,2,0:1:0:0:
355,240,20965,1,8,3:2:0:0:
512,208,21209,1,2,0:2:0:0:
318,351,21453,6,0,B|246:368|274:303|186:326,1,135,2|2,3:2|0:1,0:0:0:0:
129,354,21941,1,10,3:2:0:0:
181,217,22185,1,2,0:0:0:0:
65,120,22429,2,0,P|59:156|47:218,1,80,2|2,3:2|0:1,0:0:0:0:
129,354,22916,2,0,P|121:314|114:275,1,80,8|0,3:2|0:0,0:0:0:0:
166,126,23404,6,0,P|210:128|251:138,1,80,2|0,3:1|0:0,0:0:0:0:
311,74,23770,1,2,0:1:0:0:
311,74,23892,2,0,L|302:14,1,40,8|0,3:1|0:0,0:0:0:0:
351,178,24136,2,0,L|345:217,1,40,10|8,0:1|0:1,0:0:0:0:
421,74,24380,1,8,3:1:0:0:
421,74,24502,1,8,0:1:0:0:
421,74,24624,2,0,L|412:14,1,40,10|0,0:1|0:0,0:0:0:0:
497,164,24868,2,0,L|484:244,1,80,8|2,3:1|0:0,0:0:0:0:
281,361,25355,6,0,P|234:328|187:317,1,90.0000000000001,6|0,3:2|0:0,0:0:0:0:
111,343,25721,1,2,0:1:0:0:
120,333,25843,2,0,L|133:229,1,90.0000000000001,10|2,3:2|0:1,0:0:0:0:
29,177,26209,1,0,0:0:0:0:
38,187,26331,2,0,L|51:291,1,90.0000000000001,0|2,3:2|0:1,0:0:0:0:
160,54,26819,1,8,3:2:0:0:
160,54,26941,2,0,L|153:114,1,45,2|0,0:1|0:0,0:0:0:0:
323,333,27307,6,0,P|367:320|394:320,1,45,2|0,3:2|0:0,0:0:0:0:
483,366,27550,1,0,0:0:0:0:
483,366,27672,1,2,0:1:0:0:
483,366,27794,2,0,P|471:319|462:251,1,90.0000000000001,10|2,3:2|0:1,0:0:0:0:
381,146,28282,2,0,P|393:99|402:31,1,90.0000000000001,2|2,3:2|0:1,0:0:0:0:
268,299,28770,2,0,P|256:252|247:184,1,90.0000000000001,10|2,3:2|0:0,0:0:0:0:
142,36,29258,6,0,P|133:108|109:183,1,135,2|2,3:2|0:1,0:0:0:0:
19,214,29746,2,0,P|87:194|129:193,1,90.0000000000001,10|2,3:2|0:1,0:0:0:0:
230,321,30233,1,2,3:2:0:0:
266,181,30477,1,2,0:1:0:0:
113,307,30721,1,8,3:2:0:0:
113,307,30843,2,0,L|120:364,1,45,2|0,0:1|0:0,0:0:0:0:
391,361,31209,6,0,P|337:339|309:317,1,90.0000000000001,0|0,3:2|0:0,0:0:0:0:
273,250,31575,1,2,0:1:0:0:
267,239,31697,2,0,L|276:132,1,90.0000000000001,8|2,3:2|0:1,0:0:0:0:
381,268,32185,1,0,3:2:0:0:
200,51,32429,5,2,0:1:0:0:
492,166,32794,1,2,0:1:0:0:
231,319,33160,2,0,P|237:273|243:204,1,90.0000000000001,6|0,3:2|0:0,0:0:0:0:
211,162,33526,5,2,0:1:0:0:
201,153,33648,2,0,P|155:159|86:165,1,90.0000000000001,8|2,3:2|0:1,0:0:0:0:
317,196,34136,2,0,P|361:201|406:207,1,90.0000000000001,2|2,3:2|0:1,0:0:0:0:
460,257,34502,1,0,0:0:0:0:
466,267,34624,2,0,L|455:320,1,45,8|2,3:2|0:1,0:0:0:0:
512,167,34868,2,0,L|506:123,1,45
394,39,35111,6,0,B|321:21|350:87|261:64,1,135,2|2,3:2|0:1,0:0:0:0:
262,62,35599,1,8,3:2:0:0:
361,206,35843,1,2,0:1:0:0:
361,206,35965,1,0,0:0:0:0:
361,206,36087,2,0,L|354:150,1,45,2|0,3:2|0:0,0:0:0:0:
267,277,36331,2,0,L|274:221,1,45,2|0,0:1|0:0,0:0:0:0:
414,361,36575,2,0,P|345:343|301:342,1,90.0000000000001,10|2,3:2|0:0,0:0:0:0:
48,363,37063,6,0,P|63:296|74:213,1,135,2|2,3:2|0:1,0:0:0:0:
107,62,37550,2,0,P|113:106|123:150,1,90.0000000000001,10|2,3:2|0:1,0:0:0:0:
210,262,38038,2,0,P|219:218|226:173,1,90.0000000000001,2|2,3:2|0:1,0:0:0:0:
348,352,38526,1,8,3:2:0:0:
337,346,38648,2,0,P|312:348|287:352,1,45,2|0,0:1|0:0,0:0:0:0:
46,289,39014,6,0,P|77:228|116:119,1,180,2|2,3:2|0:1,0:0:0:0:
47,375,39502,6,0,L|35:295,1,80,8|0,0:1|0:0,0:0:0:0:
131,33,39746,2,0,L|119:112,1,80,10|8,0:1|0:1,0:0:0:0:
190,317,39989,5,8,3:1:0:0:
179,296,40111,1,8,0:1:0:0:
223,237,40233,5,10,0:1:0:0:
234,216,40355,1,0,0:0:0:0:
204,140,40477,5,8,0:1:0:0:
499,218,40721,5,2,0:1:0:0:
100,286,40965,5,4,3:2:0:0:
256,192,41087,12,10,47794,0:0:0:0:
100,291,48770,6,0,B|241:28|-42:2|12:169|72:173,1,375,6|0,3:2|0:0,0:0:0:0:
212,242,49258,6,0,L|223:239,1,10,2|0,3:1|0:0,0:0:0:0:
371,308,49624,6,0,B|298:320|315:245|230:262,1,150,2|0,0:1|0:0,0:0:0:0:
253,361,49989,6,0,P|255:333|251:362,1,100,2|0,0:1|3:0,0:0:0:0:
360,235,50355,6,0,L|357:222,1,10,2|0,0:1|0:0,0:0:0:0:
512,126,50721,6,0,B|420:105|420:105|410:110|410:110|273:78,1,230,2|0,3:1|0:0,0:0:0:0:
128,183,51087,5,0,0:0:0:0:
235,260,51209,2,0,L|219:177,1,70,2|0,3:1|0:0,0:0:0:0:
40,102,51453,1,0,0:0:0:0:
147,25,51575,2,0,L|131:108,1,70,2|0,0:1|3:0,0:0:0:0:
133,102,51941,6,0,P|179:90|207:90,1,69.9999999999999,2|0,0:1|3:0,0:0:0:0:
374,167,52307,6,0,P|283:136|201:85,1,180,2|0,0:1|0:0,0:0:0:0:
512,195,52672,6,0,P|382:167|130:271,1,390,2|0,3:1|0:0,0:0:0:0:
38,335,53160,5,2,3:1:0:0:
141,265,53282,2,0,L|162:354,1,85
34,223,53526,2,0,L|49:63,1,130,2|0,0:1|3:0,0:0:0:0:
52,82,53892,6,0,L|63:128,1,40,2|0,0:1|3:0,0:0:0:0:
132,247,54258,6,0,L|137:225,1,20,2|0,0:1|0:0,0:0:0:0:
202,96,54624,5,2,3:1:0:0:
195,116,54746,1,0,0:0:0:0:
243,171,54868,1,0,0:0:0:0:
209,239,54989,1,2,0:1:0:0:
200,258,55111,2,0,P|248:234|273:232,1,75,0|0,3:1|0:0,0:0:0:0:
476,384,55355,6,0,P|429:375|356:318,1,120,2|0,0:1|0:1,0:0:0:0:
284,128,55599,5,0,3:0:0:0:
509,199,55843,1,2,0:1:0:0:
253,352,56087,5,0,3:0:0:0:
171,366,56209,1,2,0:1:0:0:
80,333,56331,2,0,P|52:296|88:330,1,150,2|0,0:1|0:0,0:0:0:0:
153,121,56575,6,0,P|99:205|78:336,1,230,6|0,3:2|0:0,0:0:0:0:
24,128,56941,5,0,0:0:0:0:
42,140,57063,2,0,P|109:138|158:119,1,115,10|0,3:1|0:0,0:0:0:0:
356,28,57307,1,0,0:0:0:0:
334,44,57429,2,0,P|283:37|241:17,1,80,2|0,0:1|3:0,0:0:0:0:
241,22,57794,6,0,P|304:122|311:185,1,160,2|8,0:1|3:1,0:0:0:0:
233,212,58160,5,2,0:1:0:0:
222,194,58282,2,0,P|261:190|377:237,1,140
474,381,58526,6,0,B|493:247|493:247|489:240|489:240|510:99,1,280,2|0,3:1|0:0,0:0:0:0:
387,26,58892,5,0,0:0:0:0:
342,151,59014,2,0,L|358:234,1,70,10|0,3:1|0:0,0:0:0:0:
192,81,59258,1,0,0:0:0:0:
318,12,59380,2,0,L|401:28,1,70,2|0,0:1|3:0,0:0:0:0:
398,36,59746,6,0,P|410:82|410:110,1,69.9999999999999,2|8,0:1|3:1,0:0:0:0:
331,278,60111,6,0,P|362:187|413:105,1,180,2|0,0:1|0:0,0:0:0:0:
378,346,60477,6,0,B|341:370|234:397|311:268|203:253|60:294|135:415|233:409|242:330,1,360,2|0,3:1|0:0,0:0:0:0:
258,208,60965,5,10,3:1:0:0:
155,108,61087,2,0,L|243:128,1,85
410,104,61331,2,0,L|429:254,1,120,2|0,0:1|3:0,0:0:0:0:
432,238,61697,6,0,L|443:186,1,40,2|8,0:1|3:1,0:0:0:0:
342,282,62063,6,0,L|347:305,1,20,2|0,0:1|0:0,0:0:0:0:
227,371,62429,5,2,3:1:0:0:
237,350,62550,1,0,0:0:0:0:
200,279,62672,5,0,0:0:0:0:
190,258,62794,1,2,0:1:0:0:
278,185,62916,6,0,L|271:278,1,75,8|0,3:1|0:0,0:0:0:0:
364,151,63160,6,0,L|357:58,1,75,10|8,0:1|0:1,0:0:0:0:
221,9,63404,5,8,3:1:0:0:
170,107,63526,1,8,0:1:0:0:
101,26,63648,1,10,0:1:0:0:
494,367,63892,6,0,L|491:352,1,15,8|0,3:1|0:0,0:0:0:0:
512,158,64380,6,0,B|308:191|388:-2|176:33,1,375,6|0,3:2|0:0,0:0:0:0:
41,204,64868,6,0,P|60:195|86:171,2,40,10|0|0,3:1|0:0|0:0,0:0:0:0:
26,95,65233,6,0,B|93:107|93:107|108:100|108:100|182:115,1,150,2|0,0:1|0:0,0:0:0:0:
396,154,65599,6,0,B|306:172|306:172|285:162|285:162|191:179,1,190,2|8,0:1|3:1,0:0:0:0:
507,226,65965,6,0,L|439:214,1,55.0000016784668,2|0,0:1|0:0,0:0:0:0:
365,341,66331,6,0,P|380:259|395:154,1,190,2|0,3:1|0:0,0:0:0:0:
269,24,66697,5,0,0:0:0:0:
191,147,66819,2,0,L|293:129,1,95,10|0,3:1|0:0,0:0:0:0:
177,274,67063,1,0,0:0:0:0:
284,351,67185,2,0,L|266:247,1,95,2|0,0:1|3:0,0:0:0:0:
263,253,67550,6,0,P|292:157|304:-17,1,250,2|8,0:1|3:1,0:0:0:0:
471,36,67916,6,0,P|391:43|317:16,1,160,2|0,0:1|0:0,0:0:0:0:
136,41,68282,6,0,B|282:-10|311:162|139:131|365:247|409:43|304:8,1,405,2|0,3:1|0:0,0:0:0:0:
79,100,68770,5,10,3:1:0:0:
57,212,68892,1,0,0:0:0:0:
85,91,69014,1,0,0:0:0:0:
51,226,69136,2,0,L|80:366,1,135,2|0,0:1|3:0,0:0:0:0:
86,370,69502,6,0,L|101:268,1,80,2|8,0:1|3:1,0:0:0:0:
162,190,69868,6,0,L|169:239,1,50,2|0,0:1|0:0,0:0:0:0:
227,325,70233,5,2,3:1:0:0:
248,335,70355,1,0,0:0:0:0:
334,295,70477,5,0,0:0:0:0:
355,285,70599,1,2,0:1:0:0:
443,309,70721,6,0,L|429:387,1,75,8|0,3:1|0:0,0:0:0:0:
485,213,70965,2,0,L|460:60,1,150,2|0,0:1|3:0,0:0:0:0:
469,53,71453,6,0,L|493:201,1,150,2|8,0:1|3:1,0:0:0:0:
362,317,71819,1,2,0:1:0:0:
318,231,71941,2,0,L|337:145,1,75,2|0,0:1|0:0,0:0:0:0:
195,266,72185,6,0,B|293:213|386:260|438:328|515:172|353:145|285:272,1,375,6|0,3:2|0:0,0:0:0:0:
264,330,72672,6,0,P|264:349|271:384,2,40,10|0|0,3:1|0:0|0:0,0:0:0:0:
317,230,73038,6,0,L|480:253,1,150,2|0,0:1|0:0,0:0:0:0:
361,151,73404,6,0,L|150:182,1,190,2|8,0:1|3:1,0:0:0:0:
16,232,73770,6,0,L|76:245,1,55.0000016784668,2|0,0:1|0:0,0:0:0:0:
145,334,74136,6,0,P|215:301|332:304,1,190,2|0,3:1|0:0,0:0:0:0:
481,350,74502,5,0,0:0:0:0:
403,227,74624,2,0,L|505:245,1,95,10|0,3:1|0:0,0:0:0:0:
389,100,74868,1,0,0:0:0:0:
496,23,74989,2,0,L|478:127,1,95,2|0,0:1|3:0,0:0:0:0:
471,125,75355,6,0,P|364:134|243:236,1,250,2|8,0:1|3:1,0:0:0:0:
100,245,75721,6,0,P|174:218|253:225,1,160,2|0,0:1|0:0,0:0:0:0:
285,354,76087,6,0,B|271:191|152:210|105:83|212:9|313:76|223:150,1,405,2|0,3:1|0:0,0:0:0:0:
136,234,76575,5,10,3:1:0:0:
23,179,76697,1,0,0:0:0:0:
143,229,76819,1,0,0:0:0:0:
27,188,76941,2,0,L|-2:48,1,135,2|0,0:1|3:0,0:0:0:0:
19,285,77307,6,0,L|34:183,1,80,2|8,0:1|3:1,0:0:0:0:
29,349,77672,6,0,L|22:300,1,50,2|0,0:1|0:0,0:0:0:0:
98,234,78038,5,2,3:1:0:0:
119,244,78160,1,0,0:0:0:0:
171,288,78282,5,0,0:0:0:0:
192,278,78404,1,2,0:1:0:0:
238,229,78526,6,0,L|316:243,1,75,8|0,3:1|0:0,0:0:0:0:
454,210,78770,1,2,0:1:0:0:
462,207,78892,1,2,0:1:0:0:
469,203,79014,2,0,L|395:216,1,75,0|0,3:0|0:0,0:0:0:0:
245,143,79258,2,0,L|319:156,1,75,2|0,0:1|0:0,0:0:0:0:
475,111,79502,2,0,L|401:124,1,75,2|2,0:0|0:1,0:0:0:0:
251,51,79746,2,0,L|325:64,1,75,2|0,0:1|0:0,0:0:0:0:
460,21,79989,5,6,0:1:0:0:
