osu file format v14

[General]
AudioFilename: audio.mp3
AudioLeadIn: 0
PreviewTime:47428
Countdown: 0
SampleSet: Soft
StackLeniency: 1
Mode: 0
LetterboxInBreaks: 0
WidescreenStoryboard: 1

[Editor]
Bookmarks: 9746,17550,25355,33160,40965,48770,56575,64380,72185,79989
DistanceSpacing: 0.1
BeatDivisor: 4
GridSize: 8
TimelineZoom: 1.6

[Metadata]
Title:Sevgingni Menga Ayt. (Cut Ver.)
TitleUnicode:Sevgingni Menga Ayt. (Cut Ver.)
Artist:Lola Yuldasheva
ArtistUnicode:Lola Yuldasheva
Creator:M a r v o l l o
Version:Daycore's Insane
Source:
Tags:shmiklak uzbek pop o'zbek Õzbek севгингни менга айт узбекский поп ўзбек ўзбекча o'zbekcha Õzbekcha Лола Юлдашева Youldasheva marvollo m_a_r_v_o_l_l_o gordon123 daycore ayt Yo'ldosheva
BeatmapID:3810335
BeatmapSetID:1628949

[Difficulty]
HPDrainRate:7
CircleSize:5
OverallDifficulty:8
ApproachRate:8.5
SliderMultiplier:2.5
SliderTickRate:1

[Events]
//Background and Video events
0,0,"lola.jpg",0,0
//Break Periods
//Storyboard Layer 0 (Background)
//Storyboard Layer 1 (Fail)
//Storyboard Layer 2 (Pass)
//Storyboard Layer 3 (Foreground)
//Storyboard Layer 4 (Overlay)
//Storyboard Sound Samples

[TimingPoints]
1941,487.80487804878,4,2,1,60,1,0
9746,-100,4,2,1,50,0,0
10477,-125,4,2,1,50,0,0
16819,-166.666666666667,4,2,1,50,0,0
17185,-100,4,2,1,50,0,0
17550,-66.6666666666667,4,2,1,60,0,0
18038,-133.333333333333,4,2,1,60,0,0
19136,-111.111111111111,4,2,1,60,0,0
19502,-76.9230769230769,4,2,1,60,0,0
19989,-111.111111111111,4,2,1,60,0,0
22185,-125,4,2,1,60,0,0
25355,-111.111111111111,4,2,1,75,0,0
32429,-142.857142857143,4,2,1,75,0,0
32794,-100,4,2,1,75,0,0
33160,-66.6666666666667,4,2,1,75,0,0
33648,-133.333333333333,4,2,1,75,0,0
39014,-83.3333333333333,4,2,1,75,0,0
40965,-111.111111111111,4,2,1,60,0,0
48770,-58.8235294117647,4,2,2,90,0,1
50843,-76.9230769230769,4,2,2,90,0,1
52429,-222.222222222221,4,2,2,90,0,1
52591,-222.222222222221,4,2,2,5,0,1
52672,-76.9230769230769,4,2,2,90,0,1
56331,-76.9230769230769,4,2,2,90,0,0
56575,-50,4,2,2,90,0,1
57063,-50,4,2,2,90,0,1
58648,-76.9230769230769,4,2,2,90,0,1
60111,-285.714285714284,4,2,2,90,0,1
60415,-285.714285714284,4,2,2,5,0,1
60477,-58.8235294117647,4,2,2,90,0,1
62550,-76.9230769230769,4,2,2,90,0,1
63892,-133.333333333333,4,2,2,90,0,0
64380,-50,4,2,2,90,0,1
66453,-76.9230769230769,4,2,2,90,0,1
67916,-62.5,4,2,2,90,0,1
68282,-76.9230769230769,4,2,2,90,0,1
72185,-50,4,2,2,90,0,1
74258,-76.9230769230769,4,2,2,90,0,1
76087,-50,4,2,2,90,0,1
79014,-71.4285714285714,4,2,2,90,0,1
79989,-100,4,2,2,90,0,0
80232,-100,4,2,2,5,0,0
80355,-166.666666666667,4,2,2,90,0,0
80964,-166.666666666667,4,2,2,5,0,0

[Colours]
Combo1 : 155,192,249
Combo2 : 170,204,185
Combo3 : 249,220,176
Combo4 : 253,204,207

[HitObjects]
119,104,8282,5,8,0:1:0:0:
210,88,8526,1,8,0:1:0:0:
210,88,8648,1,8,0:1:0:0:
302,76,8892,1,8,0:1:0:0:
302,76,9014,1,8,0:1:0:0:
366,13,9258,2,0,B|398:46|398:46|387:136,1,125,8|2,0:1|0:2,0:0:0:0:
362,319,9746,5,6,3:2:0:0:
393,128,10111,1,2,0:1:0:0:
393,128,10233,1,0,3:0:0:0:
406,237,10477,2,0,L|272:255,1,100,2|0,0:1|3:0,0:0:0:0:
170,162,10965,2,0,P|105:149|66:178,1,100,2|0,0:1|3:0,0:0:0:0:
125,216,11331,1,2,0:1:0:0:
133,370,11697,5,2,3:1:0:0:
174,165,12063,1,2,0:1:0:0:
174,165,12185,1,0,3:0:0:0:
243,295,12429,1,2,0:1:0:0:
239,301,12672,2,0,L|109:286,1,100,2|2,3:2|0:1,0:0:0:0:
233,102,13160,1,2,3:2:0:0:
273,176,13282,2,0,L|143:161,1,100,2|0,0:1|0:0,0:0:0:0:
235,81,13648,5,2,3:2:0:0:
354,245,14014,1,2,0:1:0:0:
354,245,14136,2,0,P|326:306|369:351,1,100,2|2,3:2|0:1,0:0:0:0:
386,165,14624,1,2,3:2:0:0:
394,175,14868,2,0,L|524:160,1,100,2|0,0:1|3:2,0:0:0:0:
434,102,15233,1,2,0:1:0:0:
235,81,15599,1,2,3:1:0:0:
294,21,15965,5,2,0:1:0:0:
235,81,16087,2,0,L|365:96,2,100,0|2|0,3:0|0:1|3:0,0:0:0:0:
58,146,16819,6,0,P|47:183|80:211,1,74.9999999999998,2|0,0:1|3:0,0:0:0:0:
142,212,17185,2,0,P|180:259|160:317,1,125,2|0,0:1|0:0,0:0:0:0:
90,348,17550,6,0,L|122:32,1,281.25,6|2,3:2|0:1,0:0:0:0:
108,1,18038,2,0,P|52:20|78:70,1,93.7500000000002,8|2,3:2|0:1,0:0:0:0:
234,126,18526,1,0,3:0:0:0:
211,49,18770,1,2,0:1:0:0:
211,49,18892,1,2,0:0:0:0:
313,156,19136,2,0,B|405:132|318:143|430:112,1,112.5,2|0,0:1|0:0,0:0:0:0:
449,51,19502,6,0,B|468:40|522:86|520:132|481:193,1,162.5,2|0,3:1|0:0,0:0:0:0:
489,178,19868,1,2,0:1:0:0:
489,178,19989,2,0,L|475:272,1,56.2500000000001,8|0,3:2|0:0,0:0:0:0:
416,115,20233,1,2,0:1:0:0:
338,302,20477,1,2,3:2:0:0:
277,229,20721,1,2,0:1:0:0:
277,229,20843,1,2,0:0:0:0:
410,288,21087,2,0,P|379:364|344:374,1,112.5,2|0,0:1|0:0,0:0:0:0:
338,302,21453,5,2,3:2:0:0:
211,161,21819,1,2,0:1:0:0:
211,161,21941,1,10,3:2:0:0:
277,229,22185,2,0,L|243:342,1,100,2|2,0:0|3:2,0:0:0:0:
91,272,22672,2,0,L|205:244,1,100,2|8,0:1|3:2,0:0:0:0:
188,249,23038,2,0,L|90:271,1,100,2|0,0:1|0:0,0:0:0:0:
24,231,23404,5,2,3:1:0:0:
160,331,23770,1,2,0:1:0:0:
160,331,23892,1,8,3:1:0:0:
97,278,24136,5,10,0:1:0:0:
97,278,24258,1,8,0:1:0:0:
122,245,24380,1,8,3:1:0:0:
108,206,24502,5,8,0:1:0:0:
108,206,24624,1,10,0:1:0:0:
167,145,24868,5,8,3:1:0:0:
167,145,24989,1,2,0:1:0:0:
107,87,25233,5,0,0:0:0:0:
107,87,25355,2,0,L|-13:109,1,112.5,6|0,3:2|0:0,0:0:0:0:
199,26,25721,1,2,0:1:0:0:
199,26,25843,2,0,L|79:4,1,112.5,10|2,3:2|0:1,0:0:0:0:
277,176,26331,1,0,3:2:0:0:
346,13,26575,2,0,L|325:141,1,112.5,2|8,0:1|3:2,0:0:0:0:
327,124,26941,2,0,L|346:13,1,112.5,2|0,0:1|0:0,0:0:0:0:
277,29,27307,6,0,P|261:52|267:83,1,56.2500000000001,2|0,3:2|0:0,0:0:0:0:
385,161,27550,1,0,0:0:0:0:
457,128,27672,1,2,0:1:0:0:
457,128,27794,2,0,L|447:228,1,56.2500000000001,10|0,3:2|0:0,0:0:0:0:
443,270,28038,2,0,L|432:382,1,112.5,2|2,0:1|3:2,0:0:0:0:
259,230,28526,5,2,0:1:0:0:
259,230,28648,1,0,0:0:0:0:
371,246,28892,1,2,0:1:0:0:
371,246,29014,1,2,0:0:0:0:
371,246,29136,1,0,0:0:0:0:
371,246,29258,6,0,L|240:228,1,112.5,2|0,3:2|0:0,0:0:0:0:
198,187,29624,2,0,P|187:251|233:300,1,112.5,2|0,0:1|0:0,0:0:0:0:
282,309,29989,1,2,0:1:0:0:
136,363,30233,1,2,3:2:0:0:
198,187,30477,6,0,P|174:171|120:168,1,56.2500000000001,2|0,0:1|0:0,0:0:0:0:
93,205,30721,1,8,3:2:0:0:
48,155,30843,2,0,L|60:299,1,112.5,2|0,0:1|0:0,0:0:0:0:
48,155,31209,6,0,P|115:141|159:188,1,112.5,0|0,3:2|0:0,0:0:0:0:
106,73,31575,2,0,P|84:138|21:152,1,112.5,2|0,0:1|0:0,0:0:0:0:
179,98,31941,1,2,0:1:0:0:
179,98,32063,1,0,0:0:0:0:
229,27,32307,5,0,0:0:0:0:
229,27,32429,2,0,L|323:34,1,87.4999999999999,2|8,0:1|3:2,0:0:0:0:
299,113,32794,2,0,L|430:103,1,125,2|0,0:1|0:0,0:0:0:0:
512,55,33160,6,0,L|209:32,1,281.25,6|2,3:2|0:1,0:0:0:0:
293,122,33648,2,0,L|414:112,1,93.7500000000002,8|2,3:2|0:1,0:0:0:0:
220,196,34136,1,2,3:2:0:0:
379,241,34380,1,2,0:1:0:0:
379,241,34502,1,0,0:0:0:0:
262,265,34746,1,2,0:1:0:0:
262,265,34868,1,0,0:0:0:0:
145,288,35111,6,0,P|102:307|47:283,1,93.7500000000002,2|0,3:2|0:0,0:0:0:0:
9,243,35477,2,0,P|52:224|106:247,1,93.7500000000002,2|0,0:1|0:0,0:0:0:0:
145,288,35843,1,2,0:1:0:0:
224,188,36087,1,2,3:2:0:0:
131,123,36331,1,2,0:1:0:0:
30,46,36575,1,10,3:2:0:0:
30,46,36697,1,2,0:1:0:0:
131,123,36941,1,0,0:0:0:0:
131,123,37063,6,0,L|207:30,1,93.7500000000002,2|0,3:2|0:0,0:0:0:0:
282,41,37429,2,0,L|222:113,1,93.7500000000002,2|0,0:1|0:0,0:0:0:0:
307,121,37794,1,2,0:1:0:0:
239,264,38038,1,2,3:2:0:0:
381,216,38282,1,2,0:1:0:0:
381,216,38404,2,0,L|351:179,1,46.8750000000001,0|8,0:0|3:2,0:0:0:0:
366,48,38648,2,0,L|306:120,1,93.7500000000002,2|0,0:1|0:0,0:0:0:0:
286,208,39014,6,0,L|386:331,1,150,2|0,3:2|0:0,0:0:0:0:
380,324,39380,1,2,0:1:0:0:
380,324,39502,2,0,L|427:265,1,75,8|0,0:1|0:0,0:0:0:0:
465,335,39746,1,10,0:1:0:0:
406,140,40111,5,8,0:1:0:0:
406,140,40233,1,10,0:1:0:0:
475,83,40477,5,8,0:1:0:0:
475,83,40599,1,2,0:1:0:0:
316,13,40843,5,0,0:0:0:0:
316,13,40965,2,0,B|297:61|320:111|320:111|251:45|207:150|98:90|101:19|173:-44|234:-13|237:76,1,450,4|10,3:2|0:0,0:0:0:0:
268,161,42185,1,2,3:2:0:0:
268,161,42429,2,0,B|185:181|185:181|173:230|173:230|-22:283,1,337.5,2|2,0:2|3:2,0:0:0:0:
116,175,43404,2,0,L|-10:210,1,112.5,2|10,3:2|0:3,0:0:0:0:
116,175,43892,1,10,0:2:0:0:
244,328,44136,2,0,B|271:313|271:313|238:216,1,112.5,2|2,3:2|0:2,0:0:0:0:
188,87,44624,1,4,0:3:0:0:
188,87,44746,1,4,0:3:0:0:
188,87,44868,6,0,L|322:100,1,112.5,4|2,3:3|0:2,0:0:0:0:
327,221,45355,2,0,L|461:208,1,112.5,2|10,3:2|0:3,0:0:0:0:
472,5,45843,1,10,0:2:0:0:
488,4,46087,2,0,B|477:67|477:67|473:70|473:70|520:100|520:100|506:199,1,225,2|4,3:2|0:3,0:0:0:0:
506,200,46697,1,4,0:3:0:0:
506,200,46819,6,0,L|522:86,1,112.5,6|0,0:3|3:0,0:0:0:0:
473,273,47307,1,0,3:0:0:0:
473,273,47550,2,0,P|412:249|391:257,1,56.2500000000001,10|0,0:3|0:0,0:0:0:0:
363,296,47794,1,10,0:0:0:0:
363,296,48770,6,0,P|305:352|153:307,1,212.5,6|0,3:2|0:0,0:0:0:0:
117,286,49136,1,0,0:0:0:0:
117,286,49258,1,2,3:1:0:0:
71,199,49502,5,0,0:0:0:0:
71,199,49624,1,2,0:1:0:0:
132,123,49868,5,0,0:0:0:0:
132,123,49989,1,2,0:1:0:0:
226,146,50233,5,0,3:0:0:0:
226,146,50355,1,2,0:1:0:0:
310,97,50599,5,0,0:0:0:0:
310,97,50721,1,2,3:1:0:0:
310,97,50843,2,0,L|294:6,1,81.25
363,170,51209,5,2,3:1:0:0:
363,170,51331,1,0,0:0:0:0:
462,185,51575,5,2,0:1:0:0:
462,185,51697,1,0,3:0:0:0:
477,284,51941,5,2,0:1:0:0:
477,284,52063,1,0,0:0:0:0:
396,337,52307,5,2,0:1:0:0:
396,337,52429,2,0,L|347:329,1,37.5000000000002
292,258,52672,6,0,L|312:75,1,162.5,2|0,3:1|0:0,0:0:0:0:
276,35,53038,1,0,0:0:0:0:
276,35,53160,1,2,3:1:0:0:
198,94,53404,5,0,0:0:0:0:
198,94,53526,1,2,0:1:0:0:
111,49,53770,5,0,0:0:0:0:
111,49,53892,1,2,0:1:0:0:
50,125,54136,5,0,3:0:0:0:
50,125,54258,1,2,0:1:0:0:
151,188,54502,5,0,0:0:0:0:
151,188,54624,1,2,3:1:0:0:
151,188,54746,1,0,0:0:0:0:
151,188,54868,1,0,0:0:0:0:
151,188,54989,1,2,0:1:0:0:
151,188,55111,1,0,3:1:0:0:
67,238,55355,6,0,P|62:293|86:327,1,81.25,2|0,0:1|0:1,0:0:0:0:
137,347,55599,2,0,P|142:292|118:258,1,81.25,0|0,3:0|0:0,0:0:0:0:
219,215,55843,2,0,P|214:270|238:304,1,81.25,2|0,0:1|0:0,0:0:0:0:
289,324,56087,1,0,3:0:0:0:
342,278,56209,1,2,0:1:0:0:
289,324,56331,2,0,P|294:269|270:235,1,81.25,2|0,0:1|0:0,0:0:0:0:
219,215,56575,6,0,P|377:172|378:64,1,250,6|0,3:2|0:0,0:0:0:0:
345,168,56941,1,0,0:0:0:0:
345,168,57063,1,10,3:1:0:0:
309,90,57307,5,0,0:0:0:0:
309,90,57429,1,2,0:1:0:0:
309,90,57550,1,0,3:0:0:0:
389,57,57794,5,2,0:1:0:0:
389,57,57916,1,0,0:0:0:0:
389,57,58038,1,8,3:1:0:0:
389,57,58160,1,2,0:1:0:0:
242,30,58404,5,0,0:0:0:0:
242,30,58526,1,2,3:1:0:0:
242,30,58648,2,0,B|143:24|253:34|128:25,1,81.25
27,106,59014,5,10,3:1:0:0:
27,106,59136,1,0,0:0:0:0:
112,79,59380,5,2,0:1:0:0:
112,79,59502,1,0,3:0:0:0:
112,79,59624,1,0,0:0:0:0:
112,79,59746,1,2,0:1:0:0:
91,159,59989,5,8,3:1:0:0:
91,159,60111,2,0,P|116:184|137:184,1,54.6875000000003,2|0,0:1|0:0,0:0:0:0:
180,107,60477,6,0,L|155:373,1,212.5,2|0,3:1|0:0,0:0:0:0:
208,251,60843,1,0,0:0:0:0:
208,251,60965,1,10,3:1:0:0:
256,355,61209,5,0,0:0:0:0:
256,355,61331,1,2,0:1:0:0:
256,355,61453,1,0,3:0:0:0:
291,223,61697,5,2,0:1:0:0:
291,223,61819,1,0,0:0:0:0:
291,223,61941,1,8,3:1:0:0:
291,223,62063,1,2,0:1:0:0:
325,94,62307,5,0,0:0:0:0:
325,94,62429,1,2,3:1:0:0:
325,94,62550,2,0,L|395:168,1,81.25
295,226,62794,5,2,0:1:0:0:
295,226,62916,1,8,3:1:0:0:
182,116,63160,5,10,0:1:0:0:
182,116,63282,1,8,0:1:0:0:
193,43,63404,1,8,3:1:0:0:
125,63,63526,1,8,0:1:0:0:
125,63,63648,1,10,0:1:0:0:
55,90,63892,6,0,L|170:200,1,140.625,8|0,3:1|0:0,0:0:0:0:
55,90,64380,6,0,P|164:159|92:321,1,250,6|0,3:2|0:0,0:0:0:0:
87,258,64746,1,0,0:0:0:0:
87,258,64868,1,10,3:1:0:0:
168,349,65111,5,0,0:0:0:0:
168,349,65233,1,2,0:1:0:0:
168,349,65355,1,0,3:0:0:0:
267,288,65599,5,2,0:1:0:0:
267,288,65721,1,0,0:0:0:0:
267,288,65843,1,8,3:1:0:0:
267,288,65965,1,2,0:1:0:0:
247,183,66209,5,0,0:0:0:0:
247,183,66331,1,2,3:1:0:0:
247,183,66453,2,0,L|302:102,1,81.25
216,83,66819,5,10,3:1:0:0:
216,83,66941,1,0,0:0:0:0:
304,11,67185,5,2,0:1:0:0:
304,11,67307,1,0,3:0:0:0:
304,11,67429,1,0,0:0:0:0:
304,11,67550,1,2,0:1:0:0:
412,68,67794,5,8,3:1:0:0:
412,68,67916,2,0,L|377:321,1,250,2|0,0:1|0:0,0:0:0:0:
419,254,68282,6,0,P|441:192|360:165,1,162.5,2|0,3:1|0:0,0:0:0:0:
336,94,68648,1,0,0:0:0:0:
336,94,68770,1,10,3:1:0:0:
258,176,69014,5,0,0:0:0:0:
258,176,69136,1,2,0:1:0:0:
258,176,69258,1,0,3:0:0:0:
191,83,69502,5,2,0:1:0:0:
191,83,69624,1,0,0:0:0:0:
191,83,69746,1,8,3:1:0:0:
191,83,69868,1,2,0:1:0:0:
144,193,70111,5,0,0:0:0:0:
144,193,70233,1,2,3:1:0:0:
144,193,70355,1,0,0:0:0:0:
144,193,70477,1,0,0:0:0:0:
144,193,70599,1,2,0:1:0:0:
144,193,70721,1,8,3:1:0:0:
215,281,70965,5,2,0:1:0:0:
215,281,71087,1,0,0:1:0:0:
215,281,71209,1,0,3:0:0:0:
215,281,71331,1,0,0:0:0:0:
215,281,71453,1,2,0:1:0:0:
101,290,71697,5,8,3:1:0:0:
101,290,71819,1,2,0:1:0:0:
101,290,71941,2,0,L|91:339,1,40.625,2|0,0:1|0:0,0:0:0:0:
20,176,72185,6,0,P|165:164|201:29,1,250,6|0,3:2|0:0,0:0:0:0:
147,135,72550,1,0,0:0:0:0:
147,135,72672,1,10,3:1:0:0:
55,67,72916,5,0,0:0:0:0:
55,67,73038,1,2,0:1:0:0:
55,67,73160,1,0,3:0:0:0:
164,23,73404,5,2,0:1:0:0:
164,23,73526,1,0,0:0:0:0:
164,23,73648,1,8,3:1:0:0:
164,23,73770,1,2,0:1:0:0:
286,88,74014,5,0,0:0:0:0:
286,88,74136,1,2,3:1:0:0:
286,88,74258,2,0,L|397:78,1,81.25
411,185,74624,5,10,3:1:0:0:
411,185,74746,1,0,0:0:0:0:
306,243,74989,5,2,0:1:0:0:
306,243,75111,1,0,3:0:0:0:
306,243,75233,1,0,0:0:0:0:
306,243,75355,1,2,0:1:0:0:
450,262,75599,5,8,3:1:0:0:
450,262,75721,1,2,0:1:0:0:
450,262,75843,1,0,0:0:0:0:
254,335,76087,6,0,L|293:31,1,250,2|0,3:1|0:0,0:0:0:0:
227,38,76453,1,0,0:0:0:0:
219,52,76575,1,10,3:1:0:0:
130,119,76819,5,0,0:0:0:0:
126,103,76941,1,2,0:1:0:0:
123,91,77063,1,0,3:0:0:0:
20,27,77307,5,2,0:1:0:0:
31,33,77429,1,0,0:0:0:0:
45,41,77550,1,8,3:1:0:0:
55,47,77672,1,2,0:1:0:0:
113,199,78038,5,2,3:1:0:0:
101,201,78160,1,0,0:0:0:0:
60,328,78404,5,2,0:1:0:0:
67,318,78526,1,8,3:1:0:0:
74,307,78648,1,0,0:0:0:0:
81,296,78770,1,2,0:1:0:0:
216,358,79014,6,0,P|179:370|123:343,1,87.5,0|0,3:0|0:0,0:0:0:0:
182,217,79258,2,0,L|175:337,1,87.5,2|0,0:1|0:0,0:0:0:0:
296,358,79502,2,0,P|333:370|389:343,1,87.5,2|2,0:0|0:1,0:0:0:0:
330,217,79746,2,0,L|337:337,1,87.5,2|0,0:1|0:0,0:0:0:0:
254,92,79989,6,0,P|252:50|257:92,1,125,6|0,0:1|0:0,0:0:0:0:
256,72,80355,2,0,L|256:280,1,187.5
