osu file format v14

[General]
AudioFilename: audio.mp3
AudioLeadIn: 0
PreviewTime: 39984
Countdown: 0
SampleSet: Normal
StackLeniency: 0.2
Mode: 1
LetterboxInBreaks: 0
WidescreenStoryboard: 1

[Editor]
Bookmarks: 747,12950,23797,34645,39391,40069,50916,53628,61763,63119,73967
DistanceSpacing: 0.8
BeatDivisor: 4
GridSize: 32
TimelineZoom: 2.3

[Metadata]
Title:Road to Master
TitleUnicode:Road to Master
Artist:Loki/Thaehan
ArtistUnicode:Loki/Thaehan
Creator:Hivie
Version:Kantan
Source:
Tags:fa featured artist electronic instrumental league of legends
BeatmapID:2325857
BeatmapSetID:1112834

[Difficulty]
HPDrainRate:8
CircleSize:3
OverallDifficulty:3
ApproachRate:9
SliderMultiplier:1.4
SliderTickRate:1

[Events]
//Background and Video events
0,0,"bruh.jpg",0,100
//Break Periods
//Storyboard Layer 0 (Background)
//Storyboard Layer 1 (Fail)
//Storyboard Layer 2 (Pass)
//Storyboard Layer 3 (Foreground)
//Storyboard Layer 4 (Overlay)
//Storyboard Sound Samples

[TimingPoints]
747,338.983050847458,4,1,0,100,1,0
747,-133.333333333333,4,1,0,100,0,0
40069,-133.333333333333,4,1,0,100,0,1
50916,-117.647058823529,4,1,0,100,0,0
53628,-133.333333333333,4,1,0,100,0,1
61763,-117.647058823529,4,1,0,100,0,0

[HitObjects]
256,192,747,5,4,0:0:0:0:
256,192,1424,1,8,0:0:0:0:
256,192,1763,1,0,0:0:0:0:
256,192,2102,1,8,0:0:0:0:
256,192,2780,1,8,0:0:0:0:
256,192,3119,1,0,0:0:0:0:
256,192,3458,1,8,0:0:0:0:
256,192,4136,1,8,0:0:0:0:
256,192,4814,1,8,0:0:0:0:
256,192,5492,1,8,0:0:0:0:
256,192,6848,1,8,0:0:0:0:
256,192,7187,1,0,0:0:0:0:
256,192,7526,1,8,0:0:0:0:
256,192,8204,1,8,0:0:0:0:
256,192,8543,1,0,0:0:0:0:
256,192,8882,1,8,0:0:0:0:
256,192,9560,1,8,0:0:0:0:
256,192,9899,1,8,0:0:0:0:
256,192,10238,1,0,0:0:0:0:
256,192,10916,1,8,0:0:0:0:
256,192,11255,1,0,0:0:0:0:
256,192,12950,5,4,0:0:0:0:
256,192,13628,1,0,0:0:0:0:
256,192,14306,1,0,0:0:0:0:
256,192,14984,1,0,0:0:0:0:
256,192,15323,1,8,0:0:0:0:
256,192,15662,1,0,0:0:0:0:
256,192,16340,1,8,0:0:0:0:
256,192,17018,1,0,0:0:0:0:
256,192,17696,1,8,0:0:0:0:
256,192,18035,1,8,0:0:0:0:
256,192,18374,1,0,0:0:0:0:
256,192,19391,1,8,0:0:0:0:
256,192,19730,1,0,0:0:0:0:
256,192,20408,1,0,0:0:0:0:
256,192,20747,1,8,0:0:0:0:
256,192,21085,1,0,0:0:0:0:
256,192,21763,1,8,0:0:0:0:
256,192,22441,1,0,0:0:0:0:
256,192,22780,1,8,0:0:0:0:
256,192,23119,1,0,0:0:0:0:
256,192,23797,1,4,0:0:0:0:
256,192,24814,1,8,0:0:0:0:
256,192,25153,1,0,0:0:0:0:
256,192,25831,1,0,0:0:0:0:
256,192,26170,1,8,0:0:0:0:
256,192,26509,1,0,0:0:0:0:
256,192,27187,1,8,0:0:0:0:
256,192,27865,1,8,0:0:0:0:
256,192,28543,1,8,0:0:0:0:
256,192,28882,1,8,0:0:0:0:
256,192,29221,1,0,0:0:0:0:
256,192,29899,1,0,0:0:0:0:
256,192,30577,1,8,0:0:0:0:
256,192,31255,1,0,0:0:0:0:
256,192,31594,1,8,0:0:0:0:
256,192,31933,1,0,0:0:0:0:
256,192,32950,1,8,0:0:0:0:
256,192,33289,1,0,0:0:0:0:
256,192,33967,1,0,0:0:0:0:
256,192,34306,1,8,0:0:0:0:
256,192,34645,1,4,0:0:0:0:
256,192,36001,1,8,0:0:0:0:
256,192,37357,1,0,0:0:0:0:
256,192,38035,1,8,0:0:0:0:
256,192,38713,1,0,0:0:0:0:
256,192,39052,1,8,0:0:0:0:
256,192,39391,1,0,0:0:0:0:
256,192,39730,1,8,0:0:0:0:
256,192,40069,1,12,0:0:0:0:
256,192,41085,1,0,0:0:0:0:
256,192,41424,1,8,0:0:0:0:
256,192,42102,1,8,0:0:0:0:
256,192,42441,1,0,0:0:0:0:
256,192,42780,1,8,0:0:0:0:
256,192,43458,1,8,0:0:0:0:
256,192,43797,1,0,0:0:0:0:
256,192,44136,1,8,0:0:0:0:
256,192,44814,1,8,0:0:0:0:
256,192,45153,1,8,0:0:0:0:
256,192,45492,1,8,0:0:0:0:
256,192,46170,1,8,0:0:0:0:
256,192,46509,1,0,0:0:0:0:
256,192,46848,1,8,0:0:0:0:
256,192,47526,1,8,0:0:0:0:
256,192,47865,1,0,0:0:0:0:
256,192,48204,1,8,0:0:0:0:
256,192,49221,1,0,0:0:0:0:
256,192,49560,1,8,0:0:0:0:
256,192,50238,1,8,0:0:0:0:
256,192,50577,1,0,0:0:0:0:
256,192,50916,1,12,0:0:0:0:
256,192,51594,1,8,0:0:0:0:
256,192,52272,1,8,0:0:0:0:
256,192,52950,1,8,0:0:0:0:
256,192,53289,1,0,0:0:0:0:
256,192,53628,1,12,0:0:0:0:
256,192,54645,1,8,0:0:0:0:
256,192,54984,1,0,0:0:0:0:
256,192,55662,1,8,0:0:0:0:
256,192,56001,1,8,0:0:0:0:
256,192,56340,1,8,0:0:0:0:
256,192,57018,1,8,0:0:0:0:
256,192,57357,1,0,0:0:0:0:
256,192,57696,1,8,0:0:0:0:
256,192,58374,1,8,0:0:0:0:
256,192,58713,1,0,0:0:0:0:
256,192,59052,1,8,0:0:0:0:
256,192,59730,1,8,0:0:0:0:
256,192,60069,1,8,0:0:0:0:
256,192,60408,1,8,0:0:0:0:
256,192,61085,1,8,0:0:0:0:
256,192,61424,1,8,0:0:0:0:
415,114,61763,2,0,B|286:154|318:58|158:122,2,238.00000453949
256,192,64136,1,8,0:0:0:0:
256,192,64475,5,0,0:0:0:0:
256,192,65153,1,0,0:0:0:0:
256,192,65492,1,8,0:0:0:0:
256,192,65831,1,0,0:0:0:0:
256,192,66509,1,8,0:0:0:0:
256,192,67187,1,0,0:0:0:0:
256,192,67865,1,8,0:0:0:0:
256,192,68204,1,8,0:0:0:0:
256,192,68543,1,0,0:0:0:0:
256,192,69560,1,8,0:0:0:0:
256,192,69899,1,0,0:0:0:0:
256,192,70577,1,0,0:0:0:0:
256,192,70916,1,8,0:0:0:0:
256,192,71255,1,0,0:0:0:0:
256,192,71933,1,8,0:0:0:0:
256,192,72611,1,0,0:0:0:0:
256,192,72950,1,8,0:0:0:0:
256,192,73289,1,0,0:0:0:0:
256,192,73628,1,8,0:0:0:0:
256,192,73967,1,0,0:0:0:0:
256,192,74136,12,0,76679,0:0:0:0:
