osu file format v14

[General]
AudioFilename: audio.mp3
AudioLeadIn: 0
PreviewTime: 84957
Countdown: 1
SampleSet: Soft
StackLeniency: 0.7
Mode: 2
LetterboxInBreaks: 0
WidescreenStoryboard: 1

[Editor]
DistanceSpacing: 0.8
BeatDivisor: 4
GridSize: 8
TimelineZoom: 3.399999

[Metadata]
Title:Wizard's Tower
TitleUnicode:Wizard's Tower
Artist:Loki
ArtistUnicode:Loki
Creator:Verti
Version:Salad
Source:
Tags:osu!catch world cup 2022 CWC2022 RO32 Round of 32 DT1 DoubleTime Thaehan featured artist FA Tales of the Mountains symphonic Metal Instrumental wiwit juansy
BeatmapID:3634932
BeatmapSetID:1769773

[Difficulty]
HPDrainRate:3
CircleSize:3
OverallDifficulty:7
ApproachRate:7
SliderMultiplier:1.45
SliderTickRate:1

[Events]
//Background and Video events
0,0,"33238.jpeg",0,0
//Break Periods
//Storyboard Layer 0 (Background)
//Storyboard Layer 1 (Fail)
//Storyboard Layer 2 (Pass)
//Storyboard Layer 3 (Foreground)
//Storyboard Layer 4 (Overlay)
//Storyboard Sound Samples

[TimingPoints]
53,342.857142857143,4,2,1,75,1,0
5538,-100,4,2,1,75,0,1
11024,-100,4,2,1,85,0,0
16510,-100,4,2,1,85,0,1
21995,-100,4,2,1,70,0,0
26110,-100,4,2,1,60,0,0
37081,-100,4,2,1,65,0,0
48053,-100,4,2,1,60,0,0
69995,-100,4,2,1,65,0,0
73424,-100,4,2,1,70,0,0
74110,-100,4,2,1,75,0,0
79595,-100,4,2,1,75,0,1
85081,-100,4,2,1,85,0,0
90567,-100,4,2,1,85,0,1
96053,-100,4,2,1,50,0,0
96738,-100,4,2,2,50,0,0
98795,-100,4,2,3,60,0,0
99138,-100,4,2,1,60,0,0
109767,-100,4,2,1,65,0,0
120738,-100,4,2,1,70,0,0
131710,-100,4,2,1,65,0,0
131881,-100,4,2,1,68,0,0
132053,-100,4,2,1,71,0,0
132224,-100,4,2,1,74,0,0
132395,-100,4,2,1,77,0,0
132567,-100,4,2,1,80,0,0
132738,-100,4,2,1,83,0,0
132910,-100,4,2,1,86,0,0
133081,-100,4,2,1,89,0,0
133253,-100,4,2,1,92,0,0
133424,-100,4,2,1,95,0,0
133595,-100,4,2,1,70,0,0
133938,-100,4,2,1,75,0,0
134281,-100,4,2,1,80,0,0
134453,-100,4,2,1,85,0,0
159138,-100,4,2,1,80,0,0
160510,-100,4,2,1,80,0,0
161881,-100,4,2,1,80,0,0
163253,-100,4,2,1,80,0,0
164624,-100,4,2,1,80,0,0
165995,-100,4,2,1,80,0,0

[Colours]
Combo1 : 150,178,208
Combo2 : 100,132,129
Combo3 : 75,91,91
Combo4 : 59,155,246

[HitObjects]
136,296,53,6,0,L|136:144,1,145,4|2,3:1|2:1,0:0:0:0:
216,136,567,1,2,2:1:0:0:
296,136,738,1,10,2:1:0:0:
136,112,1081,1,0,3:3:0:0:
392,264,1424,6,0,L|392:104,1,145,0|2,3:3|2:1,0:0:0:0:
232,96,2110,2,0,L|152:96,2,72.5,10|8|2,2:1|2:1|3:1,0:0:0:0:
304,96,2624,1,2,3:1:0:0:
136,264,2795,6,0,L|136:112,1,145,2|2,3:1|2:1,0:0:0:0:
208,128,3310,1,2,2:1:0:0:
128,128,3481,1,10,2:1:0:0:
288,112,3824,1,0,3:3:0:0:
32,192,4167,6,0,L|32:48,1,145,0|2,3:3|2:1,0:0:0:0:
192,192,4853,1,10,2:1:0:0:
264,192,5024,1,8,2:1:0:0:
192,192,5195,1,0,3:3:0:0:
120,192,5367,1,0,3:3:0:0:
288,296,5538,6,0,L|440:296,1,145,4|2,3:1|3:1,0:0:0:0:
296,288,6224,2,0,L|144:288,1,145,2|2,3:1|3:1,0:0:0:0:
408,216,6910,6,0,L|408:64,1,145,0|2,3:3|3:1,0:0:0:0:
264,72,7595,2,0,L|416:72,1,145,2|2,3:1|3:1,0:0:0:0:
152,184,8281,6,0,L|152:24,1,145,0|2,3:3|3:1,0:0:0:0:
304,80,8967,2,0,L|448:80,1,145,2|2,3:1|3:1,0:0:0:0:
192,248,9653,6,0,L|352:248,1,145,0|2,3:3|3:1,0:0:0:0:
192,248,10338,2,0,L|192:96,1,145,2|2,3:1|3:1,0:0:0:0:
264,144,10853,1,2,3:1:0:0:
448,184,11024,6,0,L|448:32,1,145,4|10,3:1|2:1,0:0:0:0:
368,168,11538,1,2,3:1:0:0:
288,160,11710,1,2,3:1:0:0:
448,184,12053,1,8,2:1:0:0:
200,136,12395,6,0,L|360:136,1,145,0|10,3:3|2:1,0:0:0:0:
192,216,13081,1,2,3:1:0:0:
120,192,13253,1,2,3:1:0:0:
120,128,13424,1,10,2:1:0:0:
192,136,13595,1,2,3:1:0:0:
376,176,13767,6,0,L|376:32,1,145,0|10,3:3|2:1,0:0:0:0:
296,88,14281,1,2,3:1:0:0:
376,88,14453,1,2,3:1:0:0:
216,168,14795,1,8,2:1:0:0:
472,232,15138,6,0,L|472:80,1,145,0|10,3:3|2:1,0:0:0:0:
320,160,15824,1,2,3:1:0:0:
392,160,15995,1,8,2:1:0:0:
464,160,16167,1,2,3:1:0:0:
392,160,16338,1,2,3:1:0:0:
208,216,16510,6,0,L|48:216,1,145,12|8,3:1|2:1,0:0:0:0:
208,216,17195,2,0,L|376:216,1,145,8|10,2:1|2:1,0:0:0:0:
96,280,17881,6,0,L|96:128,1,145,8|8,2:1|2:1,0:0:0:0:
240,104,18567,2,0,L|80:104,1,145,8|10,2:1|2:1,0:0:0:0:
352,264,19253,6,0,L|352:112,1,145,0|2,3:3|3:1,0:0:0:0:
208,72,19938,2,0,L|360:72,1,145,2|2,3:1|3:1,0:0:0:0:
96,184,20624,6,0,L|96:32,1,145,0|2,3:3|3:1,0:0:0:0:
248,144,21310,2,0,L|392:144,1,145,2|2,3:1|3:1,0:0:0:0:
320,104,21824,1,0,3:3:0:0:
152,240,21995,5,4,3:1:0:0:
80,216,22167,1,0,3:3:0:0:
80,144,22338,1,0,3:3:0:0:
152,120,22510,1,0,3:3:0:0:
320,224,22681,2,0,L|320:64,1,145,8|0,2:1|3:3,0:0:0:0:
168,56,23367,6,0,B|400:57|400:57|168:56,1,435,4|0,3:1|0:0,0:0:0:0:
456,264,24738,6,0,L|456:192,1,72.5,0|0,3:3|3:3,0:0:0:0:
384,168,25081,1,0,3:3:0:0:
240,120,25424,2,0,L|400:120,1,145,8|0,2:1|3:3,0:0:0:0:
128,224,26110,6,0,L|128:144,1,72.5,4|8,3:1|2:1,0:0:0:0:
288,144,26624,2,0,L|368:144,2,72.5,10|2|8,2:1|3:1|2:1,0:0:0:0:
32,136,27310,5,8,2:1:0:0:
104,136,27481,1,2,3:1:0:0:
176,136,27653,1,8,2:1:0:0:
320,144,27995,2,0,L|392:144,2,72.5,10|2|8,2:1|3:1|2:1,0:0:0:0:
64,136,28681,6,0,L|64:56,1,72.5,8|2,2:1|3:1,0:0:0:0:
144,56,29024,1,8,2:1:0:0:
304,40,29367,1,10,2:1:0:0:
224,40,29538,1,2,3:1:0:0:
144,40,29710,1,8,2:1:0:0:
392,168,30053,6,0,L|392:96,1,72.5,8|2,2:1|3:1,0:0:0:0:
320,72,30395,1,8,2:1:0:0:
168,64,30738,2,0,L|168:144,1,72.5,10|2,2:1|3:1,0:0:0:0:
248,64,31081,2,0,L|320:64,2,72.5,8|8|8,2:1|2:1|2:1,0:0:0:0:
64,176,31595,6,0,L|64:88,1,72.5,2|8,3:1|2:1,0:0:0:0:
216,56,32110,1,10,2:1:0:0:
144,56,32281,1,2,3:1:0:0:
72,56,32453,1,8,2:1:0:0:
328,184,32795,6,0,L|400:184,2,72.5,8|2|8,2:1|3:1|2:1,0:0:0:0:
176,88,33481,2,0,L|104:88,2,72.5,10|2|8,2:1|3:1|2:1,0:0:0:0:
424,184,34167,5,8,2:1:0:0:
352,184,34338,1,2,3:1:0:0:
280,184,34510,1,8,2:1:0:0:
424,168,34853,1,10,2:1:0:0:
424,112,35024,1,2,3:1:0:0:
352,96,35195,1,8,2:1:0:0:
280,80,35367,2,0,L|280:168,1,72.5,2|8,3:1|2:1,0:0:0:0:
464,208,35710,6,0,L|464:120,1,72.5,2|8,3:1|2:1,0:0:0:0:
312,104,36224,1,10,2:1:0:0:
384,104,36395,1,2,3:1:0:0:
456,104,36567,1,8,2:1:0:0:
384,104,36738,1,0,3:3:0:0:
312,104,36910,1,0,3:3:0:0:
496,224,37081,6,0,L|496:144,1,72.5,4|8,3:1|2:1,0:0:0:0:
424,136,37424,1,2,3:1:0:0:
280,160,37767,1,2,3:1:0:0:
352,152,37938,1,8,2:1:0:0:
424,136,38110,1,2,3:1:0:0:
352,152,38281,1,8,2:1:0:0:
168,128,38453,6,0,L|168:56,1,72.5,2|0,3:1|0:0,0:0:0:0:
320,96,38967,2,0,L|320:176,1,72.5,8|2,2:1|3:1,0:0:0:0:
248,96,39310,1,8,2:1:0:0:
176,96,39481,2,0,L|176:176,1,72.5,2|8,3:1|2:1,0:0:0:0:
360,264,39824,6,0,L|360:176,1,72.5,2|8,3:1|2:1,0:0:0:0:
288,160,40167,1,2,3:1:0:0:
216,144,40338,2,0,L|216:72,1,72.5,8|2,2:1|3:1,0:0:0:0:
288,160,40681,1,8,2:1:0:0:
360,152,40853,2,0,L|360:72,1,72.5,2|8,3:1|2:1,0:0:0:0:
176,96,41195,6,0,L|104:96,1,72.5,2|0,3:1|0:0,0:0:0:0:
248,176,41710,1,8,2:1:0:0:
176,176,41881,1,2,3:1:0:0:
104,176,42053,1,8,2:1:0:0:
176,176,42224,1,10,2:1:0:0:
248,176,42395,1,8,2:1:0:0:
64,248,42567,6,0,L|64:168,1,72.5,4|8,3:1|2:1,0:0:0:0:
136,144,42910,1,2,3:1:0:0:
288,168,43253,2,0,L|368:168,2,72.5,2|8|2,3:1|2:1|3:1,0:0:0:0:
40,184,43938,5,2,3:1:0:0:
112,176,44110,1,8,2:1:0:0:
184,168,44281,1,2,3:1:0:0:
40,184,44624,2,0,L|40:104,1,72.5,2|8,3:1|2:1,0:0:0:0:
112,96,44967,1,2,3:1:0:0:
368,176,45310,6,0,L|448:176,2,72.5,2|8|2,3:1|2:1|3:1,0:0:0:0:
216,168,45995,1,2,3:1:0:0:
144,144,46167,1,8,2:1:0:0:
144,72,46338,1,2,3:1:0:0:
216,104,46510,1,8,2:1:0:0:
400,224,46681,6,0,L|400:152,1,72.5,2|8,3:1|2:1,0:0:0:0:
320,160,47024,2,0,L|320:80,1,72.5,2|8,3:1|2:1,0:0:0:0:
400,224,47367,1,2,3:1:0:0:
240,168,47710,2,0,L|168:168,1,72.5,0|0,3:3|3:3,0:0:0:0:
352,296,48053,6,0,L|352:136,1,145,4|8,3:1|2:1,0:0:0:0:
280,144,48567,1,0,3:3:0:0:
128,144,48910,2,0,L|224:144,1,72.5,0|8,3:3|2:1,0:0:0:0:
280,144,49253,1,0,3:3:0:0:
96,248,49424,6,0,L|96:104,1,145,0|8,3:3|2:1,0:0:0:0:
168,88,49938,1,0,3:3:0:0:
320,176,50281,1,0,3:3:0:0:
400,176,50453,1,8,2:1:0:0:
480,176,50624,1,0,3:3:0:0:
296,176,50795,6,0,L|128:176,1,145,0|8,3:3|2:1,0:0:0:0:
224,160,51310,1,0,3:3:0:0:
368,88,51653,2,0,L|288:88,1,72.5,0|0,3:3|0:0,0:0:0:0:
224,96,51995,1,0,3:3:0:0:
480,192,52338,6,0,L|480:112,1,72.5,8|0,3:1|2:1,0:0:0:0:
408,88,52681,1,8,3:1:0:0:
264,80,53024,2,0,L|176:80,1,72.5,0|8,3:3|3:1,0:0:0:0:
120,80,53367,1,0,3:3:0:0:
304,256,53538,6,0,L|304:112,1,145,4|8,3:1|2:1,0:0:0:0:
224,96,54053,1,0,3:3:0:0:
368,104,54395,2,0,L|448:104,2,72.5,0|8|0,3:3|2:1|3:3,0:0:0:0:
184,256,54910,6,0,L|184:112,1,145,0|8,3:3|2:1,0:0:0:0:
264,96,55425,1,0,3:3:0:0:
120,104,55767,2,0,L|40:104,2,72.5,0|8|0,3:3|2:1|3:3,0:0:0:0:
304,288,56281,6,0,L|304:128,1,145,12|8,2:1|2:1,0:0:0:0:
224,184,56795,1,4,3:1:0:0:
376,120,57138,2,0,L|448:120,2,72.5,0|8|0,3:3|2:1|3:3,0:0:0:0:
192,272,57653,6,0,L|120:272,2,72.5,4|8|8,3:1|2:1|2:1,0:0:0:0:
264,120,58167,1,4,3:1:0:0:
408,120,58510,1,0,3:3:0:0:
336,120,58681,1,8,3:1:0:0:
264,120,58853,1,0,3:3:0:0:
448,296,59024,6,0,L|448:152,1,145,4|8,3:1|2:1,0:0:0:0:
376,152,59538,1,0,3:3:0:0:
232,128,59881,2,0,L|304:128,1,72.5,0|8,3:3|2:1,0:0:0:0:
376,152,60224,1,0,3:3:0:0:
192,208,60395,6,0,L|40:208,1,145,0|8,3:3|2:1,0:0:0:0:
120,160,60910,1,0,3:3:0:0:
272,152,61253,2,0,L|344:152,2,72.5,0|8|0,3:3|2:1|3:3,0:0:0:0:
88,288,61767,6,0,L|88:128,1,145,0|8,3:3|2:1,0:0:0:0:
160,128,62281,1,0,3:3:0:0:
304,144,62624,2,0,L|216:144,1,72.5,0|0,3:3|0:0,0:0:0:0:
160,128,62967,1,0,3:3:0:0:
416,240,63310,6,0,L|416:144,1,72.5,8|0,3:1|3:3,0:0:0:0:
344,144,63653,1,8,3:1:0:0:
200,96,63995,2,0,L|288:96,1,72.5,0|8,3:3|3:1,0:0:0:0:
344,96,64338,1,0,3:3:0:0:
160,248,64510,6,0,L|160:104,1,145,4|8,3:1|2:1,0:0:0:0:
232,104,65024,1,0,3:3:0:0:
80,88,65367,2,0,L|160:88,1,72.5,0|8,3:3|2:1,0:0:0:0:
232,104,65710,1,0,3:3:0:0:
416,240,65881,6,0,L|416:96,1,145,0|8,3:3|2:1,0:0:0:0:
344,96,66395,1,0,3:3:0:0:
496,80,66738,2,0,L|416:80,1,72.5,0|8,3:3|2:1,0:0:0:0:
344,96,67081,1,0,3:3:0:0:
160,176,67253,6,0,L|160:320,1,145,12|8,2:1|2:1,0:0:0:0:
232,176,67767,1,0,3:3:0:0:
88,176,68110,2,0,L|88:96,1,72.5,0|8,3:3|2:1,0:0:0:0:
160,80,68453,1,0,3:3:0:0:
344,136,68624,6,0,L|416:136,2,72.5,12|8|0,2:1|2:1|3:3,0:0:0:0:
272,144,69138,2,0,L|424:144,1,145,8|0,2:1|3:3,0:0:0:0:
344,104,69653,1,8,3:1:0:0:
272,104,69824,1,0,3:3:0:0:
456,240,69995,6,0,L|456:168,1,72.5,12|0,3:1|3:3,0:0:0:0:
304,152,70510,1,4,3:1:0:0:
456,192,70853,2,0,L|456:120,1,72.5,8|0,3:1|3:3,0:0:0:0:
384,80,71195,1,0,3:3:0:0:
200,200,71367,6,0,P|48:200|16:88,2,290,4|2|2,3:1|2:1|2:1,0:0:0:0:
344,96,73424,2,0,L|344:240,1,145,2|2,3:1|3:1,0:0:0:0:
96,280,74110,6,0,L|96:128,1,145,4|2,3:1|2:1,0:0:0:0:
176,176,74624,1,2,2:1:0:0:
256,168,74795,1,10,2:1:0:0:
96,280,75138,1,0,3:3:0:0:
352,232,75481,6,0,L|192:232,1,145,0|2,3:3|2:1,0:0:0:0:
352,232,76167,1,10,2:1:0:0:
432,216,76338,1,10,2:1:0:0:
432,144,76510,1,2,3:1:0:0:
360,120,76681,1,2,3:1:0:0:
176,144,76853,6,0,L|24:144,1,145,0|2,3:3|2:1,0:0:0:0:
104,96,77367,1,2,2:1:0:0:
176,96,77538,1,10,2:1:0:0:
32,96,77881,1,0,3:3:0:0:
288,248,78224,6,0,L|288:104,1,145,0|2,3:3|2:1,0:0:0:0:
136,112,78910,1,10,2:1:0:0:
208,112,79081,1,8,2:1:0:0:
280,112,79253,1,2,3:1:0:0:
208,112,79424,1,2,3:1:0:0:
24,240,79595,6,0,L|24:88,1,145,4|2,3:1|3:1,0:0:0:0:
176,96,80281,2,0,L|16:96,1,145,2|2,3:1|3:1,0:0:0:0:
288,264,80967,6,0,L|440:264,1,145,0|2,3:3|3:1,0:0:0:0:
288,264,81653,2,0,L|128:264,1,145,2|2,3:1|3:1,0:0:0:0:
392,232,82338,6,0,L|392:88,1,145,0|2,3:3|3:1,0:0:0:0:
240,80,83024,2,0,L|384:80,1,145,2|2,3:1|3:1,0:0:0:0:
128,240,83710,6,0,L|128:96,1,145,0|2,3:3|3:1,0:0:0:0:
280,184,84395,2,0,L|280:40,1,145,2|2,3:1|3:1,0:0:0:0:
200,176,84910,1,2,3:1:0:0:
16,232,85081,6,0,L|16:64,1,145,4|10,3:1|2:1,0:0:0:0:
88,184,85595,1,2,3:1:0:0:
160,176,85767,1,2,3:1:0:0:
16,232,86110,1,8,2:1:0:0:
272,232,86453,6,0,L|432:232,1,145,0|10,3:3|2:1,0:0:0:0:
272,232,87138,1,2,3:1:0:0:
200,208,87310,1,2,3:1:0:0:
200,144,87481,1,10,2:1:0:0:
272,120,87653,1,2,3:1:0:0:
456,184,87824,6,0,L|456:40,1,145,0|10,3:3|2:1,0:0:0:0:
384,184,88338,1,2,3:1:0:0:
312,184,88510,1,2,3:1:0:0:
456,184,88853,1,8,2:1:0:0:
200,168,89195,6,0,L|360:168,1,145,0|10,3:3|2:1,0:0:0:0:
200,216,89881,2,0,L|200:128,1,72.5,2|8,3:1|2:1,0:0:0:0:
272,144,90224,2,0,L|272:64,1,72.5,0|0,3:3|3:3,0:0:0:0:
88,248,90567,6,0,L|88:96,1,145,12|8,3:1|2:1,0:0:0:0:
240,88,91253,2,0,L|96:88,1,145,8|10,2:1|2:1,0:0:0:0:
352,272,91938,6,0,L|352:120,1,145,8|8,2:1|2:1,0:0:0:0:
208,112,92624,2,0,L|64:112,1,145,8|8,2:1|2:1,0:0:0:0:
320,288,93310,6,0,L|320:144,1,145,0|2,3:3|3:1,0:0:0:0:
176,160,93995,2,0,L|176:8,1,145,2|2,3:1|3:1,0:0:0:0:
432,200,94681,6,0,L|272:200,1,145,0|2,3:3|3:1,0:0:0:0:
432,200,95367,2,0,L|432:352,1,145,2|2,3:1|3:1,0:0:0:0:
176,280,96053,5,6,3:1:0:0:
96,256,96224,1,2,2:1:0:0:
96,184,96395,1,2,2:1:0:0:
176,192,96567,1,2,2:1:0:0:
256,192,96738,6,0,L|256:112,1,72.5,6|2,2:1|2:1,0:0:0:0:
176,152,97081,2,0,L|176:72,1,72.5,2|2,2:1|2:1,0:0:0:0:
256,192,97424,5,6,2:1:0:0:
328,160,97595,1,2,2:1:0:0:
328,88,97767,1,2,2:1:0:0:
256,144,97938,1,2,2:1:0:0:
184,168,98110,6,0,L|184:88,1,72.5,2|2,2:1|2:1,0:0:0:0:
256,144,98453,2,0,L|256:64,1,72.5,2|2,2:1|2:1,0:0:0:0:
72,304,98795,6,0,L|72:144,1,145,12|8,2:1|2:2,0:0:0:0:
144,160,99310,1,8,2:2:0:0:
216,144,99481,1,8,2:2:0:0:
72,168,99824,1,8,2:2:0:0:
144,160,99995,1,8,2:2:0:0:
216,144,100167,1,8,2:2:0:0:
72,168,100510,5,8,2:2:0:0:
144,160,100681,1,8,2:2:0:0:
216,144,100853,1,8,2:2:0:0:
72,168,101195,1,10,2:2:0:0:
328,272,101538,6,0,L|328:112,1,145,12|8,2:2|2:2,0:0:0:0:
256,120,102053,1,8,2:2:0:0:
184,112,102224,1,8,2:2:0:0:
328,128,102567,1,8,2:2:0:0:
256,120,102738,1,8,2:2:0:0:
184,112,102910,1,8,2:2:0:0:
328,128,103253,5,8,2:2:0:0:
184,112,103595,1,8,2:2:0:0:
328,128,103938,1,10,2:2:0:0:
72,304,104281,6,0,L|72:144,1,145,12|8,2:2|2:2,0:0:0:0:
144,184,104795,1,8,2:2:0:0:
216,176,104967,1,8,2:2:0:0:
72,144,105310,1,8,2:2:0:0:
144,128,105481,1,8,2:2:0:0:
216,112,105653,1,8,2:2:0:0:
72,144,105995,5,8,2:2:0:0:
144,128,106167,1,8,2:2:0:0:
216,112,106338,1,8,2:2:0:0:
72,144,106681,1,10,2:2:0:0:
328,296,107024,6,0,L|328:152,1,145,12|8,2:2|2:2,0:0:0:0:
248,136,107538,1,8,2:2:0:0:
168,128,107710,1,8,2:2:0:0:
328,88,108053,1,10,2:2:0:0:
80,272,108395,6,0,L|80:120,1,145,12|8,2:2|2:2,0:0:0:0:
160,120,108910,1,8,2:2:0:0:
240,120,109081,2,0,B|96:120|96:120|96:32,1,217.5,8|8,2:2|2:2,0:0:0:0:
264,240,109767,6,0,L|416:240,1,145,4|0,3:1|0:0,0:0:0:0:
336,184,110281,1,0,0:0:0:0:
264,184,110453,1,8,2:1:0:0:
416,112,110795,2,0,L|488:112,2,72.5,0|0|0,0:0|0:0|3:3,0:0:0:0:
256,80,111481,5,0,0:0:0:0:
328,72,111653,1,0,0:0:0:0:
400,64,111824,1,8,2:1:0:0:
256,80,112167,1,0,0:0:0:0:
496,184,112510,6,0,L|496:32,1,145,0|0,3:3|0:0,0:0:0:0:
424,176,113024,1,0,0:0:0:0:
352,168,113195,1,8,2:1:0:0:
496,288,113538,2,0,L|496:208,1,72.5,0|0,0:0|0:0,0:0:0:0:
424,200,113881,1,0,3:3:0:0:
272,168,114224,5,0,0:0:0:0:
120,136,114567,1,8,2:1:0:0:
272,168,114910,1,0,0:0:0:0:
16,240,115253,6,0,L|16:96,1,145,0|0,3:3|0:0,0:0:0:0:
88,232,115767,1,0,0:0:0:0:
160,224,115938,1,8,2:1:0:0:
16,224,116281,2,0,L|16:144,1,72.5,0|0,0:0|0:0,0:0:0:0:
88,128,116624,1,0,3:3:0:0:
232,104,116967,5,0,0:0:0:0:
160,96,117138,1,0,0:0:0:0:
88,88,117310,1,8,2:1:0:0:
344,80,117653,1,4,3:1:0:0:
88,248,117995,6,0,L|264:248,1,145,4|0,3:1|0:0,0:0:0:0:
160,192,118510,1,0,0:0:0:0:
88,192,118681,1,8,2:1:0:0:
336,160,119024,1,4,3:1:0:0:
88,272,119367,6,0,L|88:120,1,145,4|0,3:1|0:0,0:0:0:0:
160,136,119881,1,0,0:0:0:0:
232,136,120053,1,8,2:1:0:0:
304,136,120224,1,8,3:2:0:0:
232,136,120395,1,8,3:2:0:0:
160,136,120567,1,8,3:2:0:0:
344,232,120738,6,0,L|488:232,1,145,4|0,3:1|0:0,0:0:0:0:
416,176,121253,1,0,0:0:0:0:
344,168,121424,1,8,2:1:0:0:
488,264,121767,2,0,L|488:176,1,72.5,0|0,0:0|0:0,0:0:0:0:
416,176,122110,1,0,3:3:0:0:
264,128,122453,5,0,0:0:0:0:
192,128,122624,1,0,0:0:0:0:
264,128,122795,1,8,2:1:0:0:
408,120,123138,1,0,0:0:0:0:
160,288,123481,6,0,L|160:144,1,145,4|0,3:1|0:0,0:0:0:0:
232,144,123995,1,0,0:0:0:0:
304,136,124167,1,8,2:1:0:0:
152,80,124510,2,0,L|64:80,2,72.5,0|0|0,0:0|0:0|3:3,0:0:0:0:
296,72,125195,5,0,0:0:0:0:
144,80,125538,1,8,2:1:0:0:
296,72,125881,1,0,0:0:0:0:
40,256,126224,6,0,L|40:112,1,145,4|0,3:1|0:0,0:0:0:0:
112,112,126738,1,0,0:0:0:0:
184,112,126910,1,8,2:1:0:0:
40,176,127253,2,0,L|40:96,1,72.5,0|0,0:0|0:0,0:0:0:0:
112,96,127595,1,0,3:3:0:0:
264,152,127938,6,0,L|336:152,2,72.5,0|0|8,0:0|0:0|2:1,0:0:0:0:
16,160,128624,1,4,3:1:0:0:
256,160,128967,6,0,L|416:160,1,145,4|0,3:1|0:0,0:0:0:0:
328,112,129481,1,0,0:0:0:0:
256,112,129653,1,8,2:1:0:0:
496,184,129995,1,0,3:3:0:0:
256,184,130338,6,0,L|112:184,1,145,4|0,3:1|0:0,0:0:0:0:
256,248,131024,1,8,2:1:0:0:
328,232,131195,1,0,3:3:0:0:
328,168,131367,1,0,3:3:0:0:
256,160,131538,1,0,3:3:0:0:
72,184,131710,6,0,L|72:112,1,72.5,8|8,3:1|3:1,0:0:0:0:
152,112,132053,2,0,L|224:112,1,72.5,8|8,3:1|3:1,0:0:0:0:
152,112,132395,2,0,L|80:112,1,72.5,8|8,3:1|3:1,0:0:0:0:
152,112,132738,2,0,L|224:112,1,72.5,8|8,3:1|3:1,0:0:0:0:
40,240,133081,6,0,L|40:160,1,72.5,8|8,3:1|3:1,0:0:0:0:
112,144,133424,1,8,3:1:0:0:
184,128,133595,2,0,L|24:128,1,145,2|2,3:1|3:1,0:0:0:0:
184,192,134281,1,2,3:1:0:0:
368,208,134453,6,0,L|368:56,1,145,4|8,3:1|2:1,0:0:0:0:
296,64,134967,2,0,L|224:64,2,72.5,0|0|0,3:3|0:0|3:3,0:0:0:0:
368,64,135481,1,8,2:1:0:0:
112,168,135824,6,0,L|40:168,2,72.5,0|0|8,0:0|3:3|2:1,0:0:0:0:
184,168,136338,2,0,L|32:168,1,145,0|0,3:3|3:3,0:0:0:0:
112,112,136853,1,8,2:1:0:0:
296,192,137024,6,0,L|456:192,1,145,0|0,3:3|3:3,0:0:0:0:
368,144,137538,1,8,2:1:0:0:
296,144,137710,1,0,3:3:0:0:
224,144,137881,1,0,0:0:0:0:
296,144,138053,1,0,3:3:0:0:
368,144,138224,1,8,2:1:0:0:
112,80,138567,6,0,L|32:80,2,72.5,0|0|8,0:0|3:3|2:1,0:0:0:0:
184,80,139081,2,0,L|336:80,1,145,0|0,3:3|3:3,0:0:0:0:
256,136,139595,1,8,2:1:0:0:
184,144,139767,1,8,2:1:0:0:
368,288,139938,6,0,L|368:144,1,145,4|8,3:1|2:1,0:0:0:0:
288,128,140453,2,0,L|144:128,1,145,0|0,3:3|3:3,0:0:0:0:
64,128,140967,1,8,2:1:0:0:
320,256,141310,5,8,2:1:0:0:
392,232,141481,1,8,2:1:0:0:
392,160,141653,1,0,3:3:0:0:
320,128,141824,1,4,2:1:0:0:
168,144,142167,2,0,L|168:64,1,72.5,8|8,2:1|2:1,0:0:0:0:
352,160,142510,6,0,L|496:160,1,145,4|0,3:1|3:3,0:0:0:0:
424,112,143024,1,8,2:1:0:0:
352,104,143195,2,0,L|184:104,1,145,0|0,3:3|3:3,0:0:0:0:
280,48,143710,1,8,2:1:0:0:
352,40,143881,1,0,0:0:0:0:
168,184,144053,6,0,L|168:104,1,72.5,0|0,3:3|3:3,0:0:0:0:
320,88,144567,1,2,3:1:0:0:
168,160,144910,2,0,L|80:160,2,72.5,10|2|2,2:1|3:1|3:1,0:0:0:0:
352,320,145424,6,0,L|352:176,1,145,4|8,3:1|2:1,0:0:0:0:
272,176,145938,2,0,L|272:104,1,72.5,0|0,3:3|0:0,0:0:0:0:
352,120,146281,2,0,L|352:48,1,72.5,0|8,3:3|2:1,0:0:0:0:
104,176,146795,6,0,L|104:96,1,72.5,0|0,0:0|3:3,0:0:0:0:
176,88,147138,1,8,2:1:0:0:
248,80,147310,2,0,L|96:80,1,145,0|0,3:3|3:3,0:0:0:0:
176,144,147824,1,8,2:1:0:0:
360,184,147995,6,0,L|360:40,1,145,0|0,3:3|3:3,0:0:0:0:
280,168,148510,2,0,L|200:168,2,72.5,8|0|0,2:1|3:3|0:0,0:0:0:0:
360,160,149024,2,0,L|360:64,1,72.5,0|8,3:3|2:1,0:0:0:0:
120,208,149538,6,0,L|216:208,1,72.5,0|0,0:0|3:3,0:0:0:0:
264,200,149881,1,8,2:1:0:0:
192,200,150053,2,0,L|40:200,1,145,0|0,3:3|3:3,0:0:0:0:
128,168,150567,1,8,2:1:0:0:
208,160,150738,1,8,2:1:0:0:
24,232,150910,6,0,L|24:88,1,145,4|8,3:1|2:1,0:0:0:0:
104,176,151424,2,0,L|272:176,1,145,0|0,3:3|3:3,0:0:0:0:
328,176,151938,1,8,2:1:0:0:
88,264,152281,5,8,2:1:0:0:
16,224,152453,1,8,2:1:0:0:
16,160,152624,1,0,3:3:0:0:
88,112,152795,1,12,2:1:0:0:
240,168,153138,2,0,L|240:96,1,72.5,8|8,2:1|2:1,0:0:0:0:
56,280,153481,6,0,L|56:120,1,145,4|0,3:1|3:3,0:0:0:0:
128,168,153995,1,8,2:1:0:0:
200,160,154167,2,0,L|200:304,1,145,0|0,3:3|3:3,0:0:0:0:
128,168,154681,1,8,2:1:0:0:
56,168,154853,1,0,0:0:0:0:
240,168,155024,6,0,L|240:96,1,72.5,4|0,3:1|0:0,0:0:0:0:
168,80,155367,1,8,2:1:0:0:
96,80,155538,2,0,L|256:80,1,145,4|0,3:1|3:3,0:0:0:0:
168,144,156053,2,0,L|168:64,1,72.5,0|0,3:3|3:3,0:0:0:0:
352,184,156395,6,0,L|352:80,1,72.5,4|0,3:1|0:0,0:0:0:0:
280,80,156738,1,0,3:3:0:0:
208,72,156910,1,12,2:1:0:0:
280,64,157081,1,0,3:3:0:0:
352,56,157253,1,8,2:1:0:0:
280,152,157424,2,0,L|280:80,1,72.5,0|0,3:3|3:3,0:0:0:0:
464,264,157767,6,0,L|464:120,1,145,4|8,3:1|2:1,0:0:0:0:
392,112,158281,1,0,3:3:0:0:
240,144,158624,2,0,L|144:144,1,72.5,0|8,3:3|2:1,0:0:0:0:
424,208,159138,5,4,2:1:0:0:
256,192,159481,12,0,165995,0:0:0:0:
