osu file format v14

[General]
AudioFilename: audio.mp3
AudioLeadIn: 0
PreviewTime: 85028
Countdown: 0
SampleSet: Soft
StackLeniency: 0.7
Mode: 0
LetterboxInBreaks: 0
WidescreenStoryboard: 1

[Editor]
Bookmarks: 37542
DistanceSpacing: 0.8
BeatDivisor: 6
GridSize: 16
TimelineZoom: 2

[Metadata]
Title:Wizard's Tower
TitleUnicode:Wizard's Tower
Artist:Loki
ArtistUnicode:Loki
Creator:Minorsonek
Version:Seolv's Hyper
Source:osu!
Tags:Loki's "Tales of the Mountains" Beatmap Pack FA Featured Artist Gremio Mappers' Guild MG M2Usonek walaowey TheShadowOfDark Lukas Selov [_L_u_k_a_s_] Symphonic Metal Instrumental Thaehan Rock
BeatmapID:2238400
BeatmapSetID:1064248

[Difficulty]
HPDrainRate:5.5
CircleSize:3.7
OverallDifficulty:7.5
ApproachRate:9
SliderMultiplier:1.75
SliderTickRate:1

[Events]
//Background and Video events
0,0,"33238.jpeg",0,0
//Break Periods
2,98942,109114
//Storyboard Layer 0 (Background)
//Storyboard Layer 1 (Fail)
//Storyboard Layer 2 (Pass)
//Storyboard Layer 3 (Foreground)
//Storyboard Layer 4 (Overlay)
//Storyboard Sound Samples

[TimingPoints]
0,342.857142857143,4,2,1,65,1,0
5485,-100,4,2,1,75,0,0
10971,-100,4,2,1,65,0,0
16457,-100,4,2,1,75,0,0
21942,-100,4,2,1,50,0,0
22114,-100,4,2,1,55,0,0
22285,-100,4,2,1,60,0,0
22457,-100,4,2,1,65,0,0
22628,-100,4,2,1,60,0,0
22971,-100,4,2,1,75,0,0
23314,-133.333333333333,4,2,1,70,0,0
24685,-133.333333333333,4,2,1,60,0,0
26057,-133.333333333333,4,2,1,40,0,0
31542,-133.333333333333,4,2,1,50,0,0
37028,-117.647058823529,4,2,1,60,0,0
47571,-117.647058823529,4,2,1,5,0,0
47657,-117.647058823529,4,2,1,60,0,0
48000,-200,4,2,1,50,0,0
58971,-166.666666666667,4,2,1,50,0,0
69942,-125,4,2,1,50,0,0
71314,-125,4,2,1,30,0,0
74057,-100,4,2,1,65,0,0
79542,-100,4,2,1,75,0,0
85028,-100,4,2,1,65,0,0
90514,-100,4,2,1,75,0,0
96000,-200,4,2,1,40,0,0
97371,-200,4,2,1,20,0,0
98742,-200,4,2,1,50,0,0
109714,-200,4,2,1,55,0,0
120685,-200,4,2,1,60,0,0
131657,-200,4,2,1,20,0,0
132000,-166.666666666667,4,2,1,20,0,0
132342,-142.857142857143,4,2,1,40,0,0
132685,-125,4,2,1,40,0,0
133028,-111.111111111111,4,2,1,60,0,0
133371,-100,4,2,1,60,0,0
133542,-100,4,2,1,50,0,0
134400,-100,4,2,1,70,0,0
144171,-100,4,2,1,50,0,0
145371,-100,4,2,1,70,0,0
158485,-100,4,2,1,5,0,0
158571,-100,4,2,1,70,0,0
159085,-192.307692307692,4,2,1,60,0,0
160457,-192.307692307692,4,2,1,50,0,0
161828,-192.307692307692,4,2,1,40,0,0
162514,-192.307692307692,4,2,1,30,0,0
162857,-192.307692307692,4,2,3,5,0,0
162942,-192.307692307692,4,2,1,30,0,0
163200,-192.307692307692,4,2,1,20,0,0
163885,-192.307692307692,4,2,1,10,0,0
165257,-192.307692307692,4,2,1,5,0,0

[Colours]
Combo1 : 255,128,128
Combo2 : 0,128,64
Combo3 : 125,125,125
Combo4 : 0,128,255
Combo5 : 255,0,0
Combo6 : 0,232,116
Combo7 : 192,192,192
Combo8 : 74,134,255

[HitObjects]
497,279,0,6,0,P|445:244|351:306,1,175,6|0,1:2|1:0,0:0:0:0:
412,208,514,1,0,1:0:0:0:
292,185,685,2,0,L|313:376,2,175,10|0|2,1:2|1:0|1:2,0:0:0:0:
291,176,1714,85,0,1:0:0:0:
341,109,1885,1,0,1:0:0:0:
214,59,2057,1,10,1:2:0:0:
214,144,2228,1,10,1:2:0:0:
297,38,2400,1,0,1:0:0:0:
293,27,2571,1,0,1:0:0:0:
214,144,2742,22,0,P|152:151|44:108,1,175,6|0,1:2|1:0,0:0:0:0:
25,29,3257,1,0,1:0:0:0:
135,116,3428,2,0,P|117:173|-2:182,2,175,10|0|2,1:2|1:0|1:2,0:0:0:0:
135,104,4457,85,0,1:0:0:0:
233,56,4628,2,0,L|244:9,2,43.75,0|0|10,1:0|1:0|1:2,0:0:0:0:
305,137,4971,2,0,B|345:119|345:119|399:130,2,87.5,10|0|0,1:2|1:0|1:0,0:0:0:0:
194,195,5485,53,4,1:0:0:0:
215,280,5657,1,8,1:0:0:0:
224,232,5828,1,0,1:0:0:0:
186,309,6000,1,8,1:0:0:0:
111,189,6171,53,0,1:0:0:0:
73,266,6343,1,8,1:0:0:0:
82,218,6514,1,0,1:0:0:0:
103,303,6686,1,8,1:0:0:0:
210,199,6857,54,0,P|208:158|172:113,1,87.5,0|8,1:0|1:0,0:0:0:0:
233,47,7200,2,0,P|196:28|139:36,1,87.5,0|8,1:0|1:0,0:0:0:0:
210,199,7542,54,0,P|244:176|265:123,1,87.5,0|8,1:0|1:0,3:0:0:0:
353,142,7885,2,0,P|351:101|315:55,1,87.5,0|8,1:0|1:0,3:0:0:0:
210,199,8228,53,0,1:0:0:0:
259,264,8400,1,8,1:0:0:0:
189,174,8571,1,0,1:0:0:0:
238,239,8743,1,8,1:0:0:0:
124,249,8914,53,0,1:0:0:0:
173,314,9086,1,8,1:0:0:0:
103,224,9257,1,0,1:0:0:0:
152,289,9429,1,8,1:0:0:0:
17,223,9600,54,0,L|34:321,1,87.5,0|8,1:0|1:0,0:0:0:0:
138,162,9942,2,0,L|121:260,1,87.5,0|8,1:0|1:0,0:0:0:0:
17,111,10285,70,0,L|34:209,1,87.5,0|8,1:0|1:0,0:0:0:0:
138,50,10628,2,0,L|127:122,3,43.75,8|0|0|0,1:0|1:0|1:0|1:0,0:0:0:0:
127,117,10971,5,6,1:2:0:0:
127,117,11314,1,8,1:0:0:0:
250,88,11485,1,0,1:0:0:0:
297,212,11657,2,0,B|359:202|359:202|375:182|375:182|475:168,2,175,2|8|2,1:2|1:0|1:2,0:0:0:0:
288,200,12685,85,8,1:0:0:0:
223,250,12857,1,0,1:0:0:0:
233,335,13028,1,2,1:2:0:0:
307,367,13200,1,2,1:2:0:0:
308,358,13285,1,0,0:0:0:0:
309,349,13371,1,8,1:0:0:0:
57,227,13714,21,2,1:2:0:0:
57,227,14057,1,8,1:0:0:0:
143,269,14228,1,0,1:0:0:0:
203,192,14400,2,0,P|221:104|160:45,2,175,2|8|2,1:2|1:0|1:2,0:0:0:0:
195,213,15428,85,8,1:0:0:0:
289,206,15600,1,0,1:0:0:0:
349,277,15771,1,2,1:2:0:0:
432,323,15943,1,10,1:2:0:0:
500,266,16114,1,0,1:0:0:0:
429,215,16285,53,0,1:0:0:0:
423,204,16371,1,0,1:0:0:0:
417,194,16457,2,0,L|430:92,1,87.5,12|0,1:0|1:0,0:0:0:0:
294,43,16800,2,0,L|305:130,1,87.5,8|0,1:0|1:0,0:0:0:0:
408,191,17142,54,0,L|421:89,1,87.5,8|0,1:0|1:0,0:0:0:0:
285,40,17485,2,0,L|296:127,1,87.5,8|0,1:0|1:0,0:0:0:0:
328,297,17828,54,0,P|288:282|236:290,1,87.5,8|0,1:0|1:0,0:0:0:0:
134,205,18171,2,0,P|177:209|217:194,1,87.5,8|0,1:0|1:0,0:0:0:0:
329,307,18514,54,0,P|289:292|237:300,1,87.5,8|0,1:0|1:0,0:0:0:0:
135,215,18857,2,0,P|178:219|218:204,1,87.5,8|0,1:0|1:0,0:0:0:0:
257,108,19200,53,0,1:0:0:0:
198,40,19371,2,0,P|154:35|114:50,2,87.5,8|0|8,1:0|1:0|1:0,0:0:0:0:
260,120,19885,53,0,1:0:0:0:
319,52,20057,2,0,P|362:47|402:62,2,87.5,8|0|8,1:0|1:0|1:0,0:0:0:0:
261,148,20571,54,0,L|275:252,1,87.5,0|8,1:0|1:0,0:0:0:0:
360,315,20914,2,0,L|371:228,1,87.5,0|8,1:0|1:0,0:0:0:0:
251,150,21257,70,0,L|265:254,1,87.5,0|8,1:0|1:0,0:0:0:0:
350,317,21600,2,0,L|361:230,1,87.5,8|0,1:0|1:0,0:0:0:0:
365,218,21857,1,0,1:0:0:0:
367,205,21942,53,4,1:0:0:0:
459,182,22114,1,0,1:0:0:0:
348,127,22285,53,4,1:0:0:0:
443,97,22457,1,0,1:0:0:0:
332,39,22628,54,0,B|242:31|272:107|170:95,1,175,12|4,1:0|1:0,0:0:0:0:
45,40,23314,86,0,P|91:60|45:336,1,393.750015020371,4|0,1:0|0:0,0:0:0:0:
55,332,24685,5,8,1:0:0:0:
55,332,24771,1,8,1:0:0:0:
55,332,24857,1,0,1:0:0:0:
55,332,24942,1,0,1:0:0:0:
55,332,25028,1,0,1:0:0:0:
162,384,25200,1,0,1:0:0:0:
200,299,25371,1,12,1:0:0:0:
201,288,25714,1,4,1:0:0:0:
357,369,26057,37,4,1:0:0:0:
409,291,26228,2,0,P|350:319|272:329,1,131.25000500679,8|8,1:0|1:0,0:0:0:0:
205,283,26742,53,2,1:2:0:0:
153,205,26914,2,0,P|212:233|290:243,1,131.25000500679,8|8,1:0|1:0,0:0:0:0:
349,199,27428,53,2,1:2:0:0:
401,121,27599,2,0,P|342:149|264:159,1,131.25000500679,8|8,1:0|1:0,0:0:0:0:
201,118,28114,53,2,1:2:0:0:
149,40,28285,2,0,P|208:68|286:78,1,131.25000500679,8|8,1:0|1:0,0:0:0:0:
368,0,28800,53,2,1:2:0:0:
442,68,28971,2,0,L|462:215,1,131.25000500679,8|8,1:0|1:0,0:0:0:0:
393,301,29485,53,2,1:2:0:0:
325,227,29657,2,0,L|178:207,1,131.25000500679,8|8,1:0|1:0,0:0:0:0:
120,277,30171,53,2,1:2:0:0:
194,209,30342,2,0,L|214:62,1,131.25000500679,8|8,1:0|1:0,0:0:0:0:
137,0,30857,53,2,1:2:0:0:
63,68,31028,2,0,L|50:146,1,65.6250025033952,8|10,1:0|1:2,0:0:0:0:
18,246,31371,5,8,1:0:0:0:
18,246,31457,1,8,1:0:0:0:
18,246,31542,1,6,1:2:0:0:
78,318,31714,2,0,P|152:328|187:268,1,131.25000500679,8|8,1:0|1:0,0:0:0:0:
244,177,32228,53,6,1:2:0:0:
302,232,32400,2,0,L|271:96,1,131.25000500679,8|8,1:0|1:0,0:0:0:0:
379,210,32914,53,6,1:2:0:0:
406,142,33086,2,0,P|480:132|515:192,1,131.25000500679,8|8,1:0|1:0,0:0:0:0:
506,326,33600,53,6,1:2:0:0:
432,372,33771,2,0,L|274:357,1,131.25000500679,8|8,1:0|1:0,0:0:0:0:
246,278,34285,53,2,1:2:0:0:
156,365,34457,2,0,L|147:294,1,65.6250025033952,8|2,1:0|1:2,0:0:0:0:
144,277,34714,1,0,1:0:0:0:
144,277,34800,1,8,1:0:0:0:
133,179,34971,53,2,1:2:0:0:
42,269,35142,1,8,1:0:0:0:
0,162,35314,1,2,1:2:0:0:
0,162,35400,1,0,1:0:0:0:
0,162,35485,2,0,P|30:171|58:197,1,65.6250025033952,8|2,1:0|1:2,0:0:0:0:
120,309,35828,54,0,L|132:178,1,131.25000500679,8|8,1:0|1:0,0:0:0:0:
144,73,36342,1,2,1:2:0:0:
227,138,36514,1,8,1:0:0:0:
282,85,36685,102,0,L|273:37,3,32.8125012516976,0|0|0|0,1:0|1:0|1:0|1:0,0:0:0:0:
271,32,37028,69,4,1:0:0:0:
398,29,37200,1,8,1:0:0:0:
365,145,37371,1,2,1:0:0:0:
365,145,37457,1,0,1:0:0:0:
365,145,37542,1,8,1:0:0:0:
227,138,37714,2,0,L|241:231,1,74.3750014185906,2|8,1:0|1:0,0:0:0:0:
322,316,38057,2,0,L|333:242,1,74.3750014185906,2|8,1:0|1:0,0:0:0:0:
227,138,38400,53,2,1:0:0:0:
149,235,38571,2,0,B|39:218|103:171|0:160,1,148.750002837181,8|8,1:0|1:0,0:0:0:0:
6,77,39085,1,2,1:0:0:0:
93,49,39257,2,0,P|131:47|167:22,1,74.3750014185906,8|2,1:0|1:0,0:0:0:0:
200,140,39600,1,8,1:0:0:0:
272,75,39771,53,2,1:0:0:0:
341,137,39942,1,8,1:0:0:0:
343,236,40114,1,2,1:0:0:0:
343,236,40200,1,0,1:0:0:0:
343,236,40285,1,8,1:0:0:0:
410,287,40457,2,0,P|454:265|485:258,1,74.3750014185906,2|8,1:0|1:0,0:0:0:0:
512,345,40800,2,0,P|468:367|437:374,1,74.3750014185906,2|8,1:0|1:0,0:0:0:0:
343,236,41142,54,0,L|180:220,1,148.750002837181,2|2,1:0|1:0,0:0:0:0:
120,291,41657,1,8,1:0:0:0:
29,260,41828,2,0,P|7:211|21:174,1,74.3750014185906,2|8,1:0|1:0,0:0:0:0:
120,291,42171,1,10,1:0:0:0:
117,309,42256,1,8,1:0:0:0:
115,327,42342,1,8,1:0:0:0:
112,346,42428,1,8,1:0:0:0:
110,364,42513,53,6,1:0:0:0:
226,353,42685,1,8,1:0:0:0:
280,249,42857,1,2,1:0:0:0:
271,234,43028,1,8,1:0:0:0:
159,259,43200,53,6,1:0:0:0:
226,353,43372,1,8,1:0:0:0:
343,348,43542,1,2,1:0:0:0:
352,333,43715,1,8,1:0:0:0:
216,201,43885,53,6,1:0:0:0:
176,282,44057,1,8,1:0:0:0:
226,353,44229,1,2,1:0:0:0:
240,354,44400,1,8,1:0:0:0:
138,212,44571,53,6,1:0:0:0:
58,217,44743,1,8,1:0:0:0:
26,286,44915,1,2,1:0:0:0:
32,297,45086,1,8,1:0:0:0:
138,212,45257,54,0,L|145:121,1,74.3750014185906,2|8,1:0|1:0,0:0:0:0:
215,37,45600,1,2,1:0:0:0:
215,37,45685,1,0,1:0:0:0:
215,37,45771,1,8,1:0:0:0:
292,125,45942,2,0,P|352:118|383:100,1,74.3750014185906,2|8,1:0|1:0,0:0:0:0:
492,202,46285,2,0,P|457:190|420:190,1,74.3750014185906,2|8,1:0|1:0,0:0:0:0:
332,280,46628,5,2,1:0:0:0:
212,170,46800,2,0,B|219:245|219:245|210:257|210:257|220:334,1,148.750002837181,12|8,1:0|1:0,0:0:0:0:
112,369,47314,70,0,P|56:340|10:345,1,111.562502127886,14|0,1:0|0:0,0:0:0:0:
14,357,47657,6,0,P|43:301|38:273,1,74.3750014185906,2|0,1:0|1:0,0:0:0:0:
7,163,48000,37,6,1:2:0:0:
332,100,48514,1,2,1:2:0:0:
199,246,48857,1,0,1:0:0:0:
199,246,48942,1,0,1:0:0:0:
199,246,49028,2,0,L|202:187,1,43.75,8|0,1:0|1:0,0:0:0:0:
209,118,49371,53,2,1:2:0:0:
312,376,49714,1,8,1:0:0:0:
209,372,49885,1,2,1:2:0:0:
394,142,50228,53,0,1:0:0:0:
439,225,50399,2,0,L|436:268,1,43.75,8|0,1:0|1:0,0:0:0:0:
435,285,50657,1,0,1:0:0:0:
434,302,50742,53,2,1:2:0:0:
97,218,51085,1,8,1:0:0:0:
264,196,51256,1,2,1:2:0:0:
49,358,51599,53,0,1:0:0:0:
57,340,51684,1,0,1:0:0:0:
66,323,51770,2,0,L|69:264,1,43.75,8|0,1:0|1:0,0:0:0:0:
221,17,52285,85,2,1:2:0:0:
211,173,52457,1,8,1:0:0:0:
374,140,52628,2,0,P|387:93|381:52,1,87.5,2|0,1:2|1:0,0:0:0:0:
211,173,53142,2,0,L|217:226,1,43.75,10|0,1:2|1:0,0:0:0:0:
216,229,53400,1,0,1:0:0:0:
222,246,53485,21,6,1:2:0:0:
40,8,53999,1,2,1:2:0:0:
39,201,54342,1,0,1:0:0:0:
56,206,54427,1,0,1:0:0:0:
74,213,54513,2,0,L|77:154,1,43.75,8|0,1:0|1:0,0:0:0:0:
21,100,54856,53,2,1:2:0:0:
223,292,55199,1,8,1:0:0:0:
99,349,55370,1,2,1:2:0:0:
328,179,55713,53,0,1:0:0:0:
397,274,55885,2,0,L|394:317,1,43.75,8|0,1:0|1:0,0:0:0:0:
393,336,56142,1,0,1:0:0:0:
392,353,56227,85,6,1:2:0:0:
470,179,56570,1,8,1:0:0:0:
390,118,56741,1,6,1:2:0:0:
153,253,57085,53,0,1:0:0:0:
163,246,57171,1,0,1:0:0:0:
171,238,57257,2,0,L|174:179,1,43.75,8|0,1:0|1:0,0:0:0:0:
124,88,57600,5,6,1:2:0:0:
241,117,57771,1,8,1:0:0:0:
241,117,57857,1,8,1:0:0:0:
241,117,57942,1,8,1:0:0:0:
312,40,58114,2,0,P|386:32|409:37,1,87.5,6|0,1:2|1:0,0:0:0:0:
479,82,58628,2,0,L|469:118,2,21.875,8|0|0,1:0|1:0|1:0,0:0:0:0:
482,211,58971,70,0,P|418:165|391:160,1,104.999996795654,6|8,1:2|1:0,0:0:0:0:
314,245,59485,2,0,L|329:314,1,52.4999983978272,2|2,1:2|1:0,0:0:0:0:
212,188,59828,1,0,1:0:0:0:
212,188,59914,1,0,1:0:0:0:
212,188,60000,2,0,L|227:119,1,52.4999983978272,8|0,1:0|1:0,0:0:0:0:
153,22,60342,54,0,P|103:37|64:72,1,104.999996795654,2|8,1:2|1:0,0:0:0:0:
34,157,60856,2,0,L|49:226,1,52.4999983978272,2|2,1:2|1:0,0:0:0:0:
96,328,61199,1,0,1:0:0:0:
211,233,61371,1,8,1:0:0:0:
220,329,61542,53,0,1:0:0:0:
220,329,61628,1,0,1:0:0:0:
220,329,61714,2,0,L|337:320,1,104.999996795654,2|8,1:2|1:0,0:0:0:0:
397,283,62228,2,0,P|406:248|391:215,1,52.4999983978272,2|2,1:2|1:0,0:0:0:0:
305,157,62571,1,0,1:0:0:0:
305,157,62657,1,0,1:0:0:0:
305,157,62743,2,0,L|320:88,1,52.4999983978272,8|0,1:0|1:0,0:0:0:0:
318,99,63257,85,10,1:2:0:0:
222,206,63428,1,0,1:0:0:0:
152,95,63600,2,0,L|44:111,1,104.999996795654,10|0,1:2|1:0,0:0:0:0:
1,39,64114,1,14,1:2:0:0:
5,183,64285,21,0,1:0:0:0:
9,196,64371,1,0,1:0:0:0:
14,210,64457,2,0,P|78:164|105:159,1,104.999996795654,6|8,1:2|1:0,0:0:0:0:
172,245,64971,2,0,L|187:314,1,52.4999983978272,2|2,1:2|1:0,0:0:0:0:
260,372,65314,1,0,1:0:0:0:
260,372,65400,1,0,1:0:0:0:
260,372,65486,2,0,L|275:303,1,52.4999983978272,8|0,1:0|1:0,0:0:0:0:
297,208,65828,54,0,P|361:254|388:259,1,104.999996795654,2|8,1:2|1:0,0:0:0:0:
480,207,66342,2,0,L|495:138,1,52.4999983978272,2|2,1:2|1:0,0:0:0:0:
502,78,66685,1,0,1:0:0:0:
402,168,66857,1,8,1:0:0:0:
336,75,67028,21,0,1:0:0:0:
335,64,67114,1,0,1:0:0:0:
337,53,67200,1,6,1:2:0:0:
273,145,67371,1,0,0:0:0:0:
218,41,67542,1,8,1:0:0:0:
136,133,67714,2,0,L|151:202,1,52.4999983978272,6|0,1:2|0:0,0:0:0:0:
216,283,68057,1,0,1:0:0:0:
216,283,68143,1,0,1:0:0:0:
216,283,68229,2,0,L|231:214,1,52.4999983978272,8|0,1:0|1:0,0:0:0:0:
103,299,68571,69,6,1:2:0:0:
221,368,68742,1,8,1:0:0:0:
221,368,68828,1,8,1:0:0:0:
221,368,68914,1,8,1:0:0:0:
144,222,69085,1,6,1:2:0:0:
144,222,69428,54,0,L|147:183,1,26.2499991989136,0|0,1:0|1:0,0:0:0:0:
89,114,69600,1,8,1:0:0:0:
252,152,69771,1,0,1:0:0:0:
252,152,69857,1,0,1:0:0:0:
252,152,69942,101,4,1:0:0:0:
211,46,70114,1,0,1:0:0:0:
310,296,70457,1,4,1:0:0:0:
418,37,70800,5,8,1:0:0:0:
449,53,70886,1,0,1:0:0:0:
474,77,70971,1,0,1:0:0:0:
492,108,71057,1,0,1:0:0:0:
499,142,71143,1,0,1:0:0:0:
498,176,71228,1,0,1:0:0:0:
490,201,71314,1,4,1:0:0:0:
256,192,71400,12,4,72685,0:0:0:0:
317,290,73371,101,2,1:2:0:0:
316,279,73714,53,2,1:2:0:0:
314,265,74057,86,0,B|243:302|243:302|138:288,1,175,6|4,1:2|1:0,0:0:0:0:
92,209,74572,1,0,1:0:0:0:
183,197,74743,2,0,L|204:388,2,175,10|4|6,1:2|1:0|1:2,0:0:0:0:
398,46,75771,85,4,1:0:0:0:
369,131,75943,1,0,1:0:0:0:
399,36,76115,1,10,1:2:0:0:
469,126,76286,1,10,1:2:0:0:
429,217,76457,1,4,1:0:0:0:
428,206,76629,1,0,1:0:0:0:
369,131,76800,22,0,P|307:138|199:95,1,175,6|4,1:2|1:0,0:0:0:0:
150,2,77315,1,0,1:0:0:0:
115,120,77485,2,0,P|193:83|280:87,2,175,10|4|6,1:2|1:0|1:2,0:0:0:0:
87,299,78515,85,4,1:0:0:0:
156,356,78685,2,0,L|203:367,2,43.75,0|0|10,1:0|1:0|1:2,0:0:0:0:
87,299,79029,2,0,B|0:305,2,87.5,10|0|0,1:2|1:0|1:0,0:0:0:0:
143,228,79543,53,4,1:0:0:0:
214,280,79714,1,8,1:0:0:0:
223,194,79886,1,0,1:0:0:0:
143,228,80057,1,8,1:0:0:0:
214,280,80229,53,0,1:0:0:0:
155,147,80400,1,8,1:0:0:0:
219,290,80572,1,0,1:0:0:0:
149,139,80743,1,8,1:0:0:0:
315,196,80914,54,0,P|313:155|277:110,1,87.5,0|8,1:0|1:0,0:0:0:0:
343,51,81257,2,0,P|306:32|249:40,1,87.5,0|8,1:0|1:0,0:0:0:0:
352,271,81600,54,0,P|386:248|407:195,1,87.5,0|8,1:0|1:0,3:0:0:0:
456,143,81943,2,0,P|454:102|418:56,1,87.5,0|8,1:0|1:0,3:0:0:0:
288,106,82286,53,0,1:0:0:0:
370,125,82457,1,8,1:0:0:0:
279,106,82629,1,0,1:0:0:0:
378,126,82800,1,8,1:0:0:0:
222,197,82972,53,0,1:0:0:0:
313,186,83143,1,8,1:0:0:0:
273,274,83315,1,0,1:0:0:0:
222,197,83486,1,8,1:0:0:0:
313,186,83657,54,0,P|327:244|359:268,1,87.5,0|8,1:0|1:0,0:0:0:0:
423,229,84000,2,0,P|409:171|377:147,1,87.5,0|8,1:0|1:0,0:0:0:0:
416,323,84343,70,0,L|502:308,1,87.5,0|8,1:0|1:0,0:0:0:0:
512,179,84686,2,0,L|505:135,3,43.75,8|0|0|0,1:0|1:0|1:0|1:0,0:0:0:0:
501,122,85029,5,6,1:2:0:0:
501,122,85372,1,8,1:0:0:0:
391,63,85543,1,0,1:0:0:0:
330,182,85714,2,0,P|268:152|159:176,2,175,2|8|2,1:2|1:0|1:2,0:0:0:0:
330,182,86743,85,8,1:0:0:0:
286,271,86915,1,0,1:0:0:0:
199,308,87086,1,2,1:2:0:0:
292,282,87257,1,2,1:2:0:0:
350,348,87429,1,8,1:0:0:0:
299,269,87600,1,0,1:0:0:0:
337,186,87772,21,2,1:2:0:0:
337,186,88115,1,8,1:0:0:0:
222,166,88286,1,0,1:0:0:0:
106,154,88457,2,0,L|305:108,2,175,2|8|2,1:2|1:0|1:2,0:0:0:0:
106,154,89486,85,8,1:0:0:0:
57,246,89657,1,0,1:0:0:0:
125,313,89829,1,2,1:2:0:0:
49,244,90000,1,10,1:2:0:0:
115,152,90172,1,0,1:0:0:0:
219,171,90343,53,0,1:0:0:0:
226,179,90429,1,0,1:0:0:0:
233,189,90514,1,12,1:0:0:0:
303,139,90685,1,0,1:0:0:0:
388,180,90857,1,8,1:0:0:0:
384,271,91028,1,0,1:0:0:0:
478,232,91200,53,8,1:0:0:0:
394,168,91371,1,0,1:0:0:0:
305,231,91542,1,8,1:0:0:0:
319,333,91714,1,0,1:0:0:0:
211,294,91885,53,8,1:0:0:0:
226,377,92056,1,0,1:0:0:0:
210,280,92228,1,8,1:0:0:0:
226,384,92399,1,0,1:0:0:0:
126,328,92571,53,8,1:0:0:0:
129,358,92742,1,0,1:0:0:0:
45,269,92913,53,8,1:0:0:0:
38,301,93085,1,0,1:0:0:0:
138,248,93257,69,0,1:0:0:0:
166,158,93428,1,8,1:0:0:0:
100,84,93600,1,0,1:0:0:0:
125,0,93771,1,8,1:0:0:0:
219,71,93942,53,0,1:0:0:0:
136,4,94113,1,8,1:0:0:0:
233,78,94285,1,0,1:0:0:0:
323,6,94456,1,8,1:0:0:0:
247,99,94628,53,0,1:0:0:0:
263,179,94799,1,8,1:0:0:0:
330,127,94971,1,0,1:0:0:0:
247,99,95142,1,8,1:0:0:0:
348,136,95313,53,0,1:0:0:0:
183,167,95484,1,8,1:0:0:0:
289,291,95656,1,8,1:0:0:0:
348,136,95827,1,0,1:0:0:0:
268,68,96000,70,0,L|262:10,3,43.75,2|2|2|2,1:2|1:2|1:2|1:2,0:0:0:0:
204,169,96685,2,0,L|210:111,3,43.75,2|2|2|2,1:2|1:2|1:2|1:2,0:0:0:0:
93,262,97371,70,0,L|87:204,3,43.75,2|2|2|2,1:0|1:0|1:0|1:0,0:0:0:0:
183,290,98057,2,0,L|178:333,1,43.75,2|2,1:0|1:0,0:0:0:0:
266,253,98400,2,0,L|261:209,1,43.75,2|2,1:0|1:0,0:0:0:0:
359,277,98742,69,6,1:2:0:0:
126,59,109714,86,0,L|135:152,1,87.5,6|0,1:2|1:0,0:0:0:0:
267,292,110400,2,0,L|276:205,1,87.5,10|0,1:2|1:0,0:0:0:0:
117,62,111085,54,0,L|126:155,1,87.5,2|0,1:2|1:0,0:0:0:0:
274,300,111771,1,10,1:2:0:0:
266,94,112114,1,2,1:2:0:0:
273,310,112457,54,0,L|366:301,1,87.5,2|0,1:2|1:0,0:0:0:0:
430,246,112971,1,0,1:0:0:0:
362,175,113143,2,0,L|275:166,1,87.5,10|0,1:2|1:0,0:0:0:0:
225,104,113657,1,0,1:0:0:0:
297,57,113828,69,2,1:2:0:0:
260,249,114171,1,2,1:2:0:0:
297,57,114514,1,10,1:2:0:0:
260,249,114857,1,2,1:2:0:0:
61,82,115200,38,0,P|108:62|148:73,1,87.5,6|0,1:2|1:0,0:0:0:0:
204,130,115714,1,0,1:0:0:0:
287,92,115886,2,0,L|295:4,1,87.5,10|0,1:2|1:0,0:0:0:0:
380,0,116400,1,0,1:0:0:0:
445,51,116571,54,0,L|454:144,1,87.5,2|0,1:2|1:0,0:0:0:0:
463,217,117085,1,0,1:0:0:0:
391,178,117257,1,10,1:2:0:0:
312,377,117600,1,6,1:2:0:0:
148,250,117942,22,0,L|139:162,1,87.5,6|0,1:2|1:0,0:0:0:0:
197,100,118456,1,0,1:0:0:0:
147,30,118628,1,10,1:2:0:0:
267,223,118971,1,6,1:2:0:0:
355,24,119314,54,0,P|345:68|364:117,1,87.5,6|0,1:2|1:0,0:0:0:0:
416,183,119827,1,0,1:0:0:0:
372,263,119999,1,8,1:0:0:0:
412,342,120171,1,8,1:3:0:0:
368,255,120342,1,12,1:3:0:0:
423,176,120514,1,4,1:3:0:0:
344,111,120685,85,6,1:2:0:0:
252,340,121028,2,0,L|261:278,1,43.75,0|0,1:0|1:0,0:0:0:0:
270,207,121371,1,14,1:2:0:0:
56,384,121714,2,0,L|47:322,1,43.75,0|0,1:0|1:0,0:0:0:0:
34,255,122057,1,6,1:2:0:0:
263,338,122400,2,0,L|272:276,1,43.75,0|0,1:0|1:0,0:0:0:0:
285,210,122742,1,14,1:2:0:0:
132,384,123085,1,2,1:2:0:0:
43,170,123428,53,6,1:2:0:0:
229,24,123771,2,0,L|291:33,1,43.75,0|0,1:0|1:0,0:0:0:0:
321,104,124114,1,14,1:2:0:0:
171,241,124457,2,0,L|233:250,1,43.75,0|0,1:0|1:0,0:0:0:0:
286,208,124800,5,6,1:2:0:0:
139,336,125142,1,2,1:2:0:0:
286,208,125485,1,14,1:2:0:0:
139,336,125828,1,2,1:2:0:0:
152,146,126171,37,6,1:2:0:0:
272,346,126514,2,0,L|281:284,1,43.75,0|0,1:0|1:0,0:0:0:0:
293,220,126857,1,14,1:2:0:0:
443,376,127200,2,0,L|452:314,1,43.75,0|0,1:0|1:0,0:0:0:0:
469,250,127543,1,6,1:2:0:0:
262,347,127886,2,0,L|271:285,1,43.75,0|0,1:0|1:0,0:0:0:0:
284,207,128228,1,14,1:2:0:0:
127,376,128571,1,6,1:2:0:0:
57,145,128914,85,6,1:2:0:0:
171,305,129257,2,0,L|180:243,1,43.75,0|0,1:0|1:0,0:0:0:0:
179,170,129600,1,14,1:2:0:0:
224,365,129942,1,6,1:2:0:0:
353,181,130285,53,6,1:2:0:0:
133,319,130628,1,0,1:0:0:0:
190,238,130800,1,0,1:0:0:0:
120,171,130971,2,0,L|117:132,1,21.875,8|8,1:0|1:0,0:0:0:0:
157,67,131142,69,0,1:0:0:0:
157,67,131228,1,0,1:0:0:0:
157,67,131314,1,0,1:0:0:0:
157,67,131400,1,0,1:0:0:0:
157,67,131485,1,0,1:0:0:0:
157,67,131571,1,0,1:0:0:0:
157,67,131657,70,0,L|219:57,1,43.75,8|8,1:0|1:0,0:0:0:0:
179,157,132000,54,0,L|253:148,1,52.4999983978272,8|8,1:0|1:0,0:0:0:0:
201,243,132342,86,0,L|290:234,1,61.2499981307984,8|8,1:0|1:0,0:0:0:0:
221,334,132685,54,0,L|317:325,1,70,8|8,1:0|1:0,0:0:0:0:
464,229,133028,70,0,P|420:216|385:222,1,78.7499975967408,8|8,1:0|1:0,0:0:0:0:
417,326,133371,1,8,1:0:0:0:
459,198,133542,2,0,B|355:182|404:244|287:222,1,175,2|2,1:0|1:0,0:0:0:0:
187,39,134228,1,2,1:0:0:0:
102,122,134400,38,0,P|127:143|138:210,1,87.5,6|0,1:2|0:0,0:0:0:0:
90,302,134742,1,8,1:0:0:0:
145,210,134914,1,0,1:0:0:0:
201,323,135085,1,2,1:2:0:0:
261,213,135257,1,0,1:0:0:0:
325,327,135428,2,0,L|428:333,1,87.5,8|0,1:0|1:0,0:0:0:0:
496,384,135771,53,2,1:0:0:0:
474,222,135942,1,2,1:2:0:0:
412,332,136114,1,8,1:0:0:0:
384,164,136285,2,0,L|293:157,1,87.5,2|2,1:2|1:0,0:0:0:0:
231,234,136628,1,0,1:0:0:0:
153,153,136800,1,8,1:0:0:0:
107,248,136971,2,0,P|122:170|70:89,1,175,2|0,1:2|1:0,0:0:0:0:
21,0,137485,53,8,1:0:0:0:
173,29,137657,1,0,1:0:0:0:
74,91,137828,1,2,1:2:0:0:
181,17,138000,1,0,1:0:0:0:
256,106,138171,2,0,P|248:149|250:192,1,87.5,8|0,1:0|1:0,0:0:0:0:
408,275,138514,53,2,1:0:0:0:
350,189,138685,1,2,1:2:0:0:
294,286,138857,1,8,1:0:0:0:
436,192,139028,2,0,L|443:91,1,87.5,2|2,1:2|1:0,0:0:0:0:
468,3,139371,1,2,1:0:0:0:
335,90,139542,5,8,1:0:0:0:
323,107,139628,1,8,1:0:0:0:
304,115,139714,1,8,1:0:0:0:
281,114,139800,1,8,1:0:0:0:
256,110,139885,38,0,L|170:129,1,87.5,6|0,1:2|0:0,0:0:0:0:
134,202,140228,1,8,1:0:0:0:
54,76,140400,2,0,P|48:119|28:157,1,87.5,2|2,1:2|1:0,0:0:0:0:
108,283,140742,2,0,P|113:239|133:201,1,87.5,0|8,1:0|1:0,0:0:0:0:
252,110,141085,1,2,1:2:0:0:
250,204,141257,69,10,1:0:0:0:
307,34,141428,1,8,1:0:0:0:
252,224,141600,1,0,1:0:0:0:
311,25,141771,1,6,1:2:0:0:
450,283,142114,37,8,1:0:0:0:
378,338,142285,1,8,1:0:0:0:
281,323,142457,2,0,P|329:303|395:201,1,175,6|0,1:2|1:0,0:0:0:0:
315,142,142971,1,8,1:0:0:0:
214,139,143142,2,0,P|187:200|189:227,1,87.5,2|2,1:2|1:0,0:0:0:0:
203,310,143485,1,0,1:0:0:0:
116,223,143657,1,8,1:0:0:0:
66,364,143828,54,0,P|50:323|26:287,1,87.5,2|2,1:2|1:0,0:0:0:0:
0,197,144171,1,0,1:0:0:0:
276,214,144514,1,0,1:0:0:0:
0,197,144857,1,8,1:0:0:0:
85,167,145028,2,0,L|89:96,1,43.75,0|0,1:0|1:0,0:0:0:0:
128,55,145200,2,0,L|132:-16,1,43.75,0|0,1:0|1:0,0:0:0:0:
209,83,145371,54,0,L|318:78,1,87.5,6|0,1:2|0:0,0:0:0:0:
414,69,145713,1,8,1:0:0:0:
304,159,145885,1,0,1:0:0:0:
357,11,146056,1,2,1:2:0:0:
402,165,146228,1,0,1:0:0:0:
296,78,146399,2,0,L|290:181,1,87.5,8|0,1:0|1:0,0:0:0:0:
166,303,146742,53,2,1:0:0:0:
332,333,146913,1,2,1:2:0:0:
175,192,147085,1,8,1:0:0:0:
253,309,147256,2,0,L|162:302,1,87.5,2|2,1:2|1:0,0:0:0:0:
288,205,147599,1,0,1:0:0:0:
332,333,147771,1,8,1:0:0:0:
428,247,147942,54,0,L|421:72,1,175,2|0,1:2|1:0,0:0:0:0:
339,11,148456,1,8,1:0:0:0:
263,51,148628,1,0,1:0:0:0:
379,138,148799,1,2,1:2:0:0:
236,181,148971,1,2,1:0:0:0:
341,241,149142,2,0,P|412:243|467:261,1,87.5,8|0,1:0|1:0,0:0:0:0:
445,339,149485,53,2,1:0:0:0:
463,173,149657,1,2,1:2:0:0:
450,356,149828,1,8,1:0:0:0:
337,241,149999,2,0,L|236:234,1,87.5,2|2,1:2|1:0,0:0:0:0:
173,336,150342,1,2,1:0:0:0:
77,186,150513,5,8,1:0:0:0:
77,186,150600,1,8,1:0:0:0:
77,186,150685,1,8,1:0:0:0:
77,186,150771,1,8,1:0:0:0:
77,186,150856,38,0,L|180:163,1,87.5,6|0,1:2|0:0,0:0:0:0:
221,248,151199,1,8,1:0:0:0:
303,104,151371,2,0,P|281:149|278:189,1,87.5,2|2,1:2|1:0,0:0:0:0:
246,329,151713,2,0,P|240:285|220:247,1,87.5,0|8,1:0|1:0,0:0:0:0:
154,182,152056,1,2,1:2:0:0:
141,271,152228,69,10,1:0:0:0:
277,185,152399,1,8,1:0:0:0:
175,342,152571,1,0,1:0:0:0:
225,124,152742,1,6,1:2:0:0:
351,327,153085,101,8,1:0:0:0:
418,278,153256,1,8,1:0:0:0:
278,253,153428,2,0,P|326:233|392:131,1,175,6|0,1:2|1:0,0:0:0:0:
353,32,153942,1,8,1:0:0:0:
260,65,154113,2,0,P|233:126|235:153,1,87.5,2|2,1:2|1:0,0:0:0:0:
278,253,154456,1,0,1:0:0:0:
146,199,154628,1,8,1:0:0:0:
140,349,154800,1,0,1:0:0:0:
27,284,154971,22,0,L|44:109,1,175,6|8,1:2|1:0,0:0:0:0:
163,24,155485,2,0,L|145:206,1,175,4|0,1:0|1:0,0:0:0:0:
181,293,156000,1,8,1:0:0:0:
248,222,156171,101,0,1:0:0:0:
248,222,156257,1,0,1:0:0:0:
248,222,156342,1,14,1:2:0:0:
457,303,156685,5,0,1:0:0:0:
424,169,156857,1,12,1:0:0:0:
383,249,157028,1,0,1:0:0:0:
496,106,157200,101,8,1:0:0:0:
452,100,157285,1,8,1:0:0:0:
409,95,157371,1,4,1:3:0:0:
365,89,157457,1,4,1:3:0:0:
318,88,157542,2,0,L|327:157,1,43.75,8|8,1:3|1:3,0:0:0:0:
292,230,157714,70,0,P|221:189|194:188,1,87.5,6|0,1:2|0:0,0:0:0:0:
184,278,158057,1,8,1:0:0:0:
172,84,158228,2,0,P|79:143|18:151,1,131.25,4|0,1:0|0:0,0:0:0:0:
40,143,158571,1,0,1:0:0:0:
74,256,158742,1,12,1:0:0:0:
229,14,159085,70,0,B|263:87|350:101|416:33|416:33|466:84|489:191|423:243|423:243|410:276|294:343|243:254|280:149|355:141|425:159|457:310|449:349|449:349|322:395|219:355|201:257|228:180|228:180|204:138|152:111|85:122|51:158|42:213|63:267|120:283|120:283|118:246|146:223,1,1637.99999000244,6|0,1:0|0:0,0:0:0:0:
