osu file format v14

[General]
AudioFilename: audio.mp3
AudioLeadIn: 0
PreviewTime: 85028
Countdown: 0
SampleSet: Soft
StackLeniency: 0.7
Mode: 0
LetterboxInBreaks: 0
WidescreenStoryboard: 1

[Editor]
Bookmarks: 165942
DistanceSpacing: 1
BeatDivisor: 2
GridSize: 8
TimelineZoom: 1

[Metadata]
Title:Wizard's Tower
TitleUnicode:Wizard's Tower
Artist:Loki
ArtistUnicode:Loki
Creator:Minorsonek
Version:Normal
Source:osu!
Tags:Loki's "Tales of the Mountains" Beatmap Pack FA Featured Artist Gremio Mappers' Guild MG M2Usonek walaowey TheShadowOfDark Lukas Selov [_L_u_k_a_s_] Symphonic Metal Instrumental Thaehan Rock
BeatmapID:2231701
BeatmapSetID:1064248

[Difficulty]
HPDrainRate:3
CircleSize:3
OverallDifficulty:4
ApproachRate:5.4
SliderMultiplier:1.1
SliderTickRate:1

[Events]
//Background and Video events
0,0,"33238.jpeg",0,0
//Break Periods
//Storyboard Layer 0 (Background)
//Storyboard Layer 1 (Fail)
//Storyboard Layer 2 (Pass)
//Storyboard Layer 3 (Foreground)
//Storyboard Layer 4 (Overlay)
//Storyboard Sound Samples

[TimingPoints]
0,342.857142857143,4,2,1,65,1,0
0,-100,4,2,1,65,0,0
5485,-100,4,2,1,75,0,0
10971,-100,4,2,1,65,0,0
16457,-100,4,2,1,75,0,0
21942,-100,4,2,1,50,0,0
22114,-100,4,2,1,55,0,0
22285,-100,4,2,1,60,0,0
22457,-100,4,2,1,65,0,0
22628,-100,4,2,1,60,0,0
22971,-100,4,2,1,75,0,0
23314,-100,4,2,1,70,0,0
24685,-100,4,2,1,60,0,0
26057,-100,4,2,1,40,0,0
31542,-100,4,2,1,50,0,0
37028,-100,4,2,1,60,0,0
48000,-100,4,2,1,50,0,0
71314,-100,4,2,1,30,0,0
74057,-100,4,2,1,65,0,0
79542,-100,4,2,1,75,0,0
85028,-100,4,2,1,65,0,0
90514,-100,4,2,1,75,0,0
96000,-100,4,2,1,40,0,0
97371,-100,4,2,1,20,0,0
98742,-100,4,2,1,50,0,0
109714,-100,4,2,1,55,0,0
120685,-100,4,2,1,60,0,0
131657,-100,4,2,1,20,0,0
132342,-100,4,2,1,40,0,0
133028,-100,4,2,1,60,0,0
133542,-100,4,2,1,50,0,0
134400,-100,4,2,1,70,0,0
144171,-100,4,2,1,50,0,0
145371,-100,4,2,1,70,0,0
159085,-119.047619047619,4,2,1,60,0,0
160457,-119.047619047619,4,2,1,50,0,0
161828,-119.047619047619,4,2,1,40,0,0
162514,-119.047619047619,4,2,1,30,0,0
162857,-119.047619047619,4,2,3,5,0,0
162942,-119.047619047619,4,2,1,30,0,0
163200,-119.047619047619,4,2,1,20,0,0
163885,-119.047619047619,4,2,1,10,0,0
165257,-119.047619047619,4,2,1,5,0,0

[Colours]
Combo1 : 255,128,128
Combo2 : 0,128,64
Combo3 : 125,125,125
Combo4 : 0,128,255
Combo5 : 255,0,0
Combo6 : 0,232,116
Combo7 : 192,192,192
Combo8 : 74,134,255

[HitObjects]
189,128,0,6,0,L|318:146,1,110,6|0,1:2|1:0,0:0:0:0:
370,226,685,2,0,L|241:244,2,110,10|0|2,1:2|1:0|1:2,0:0:0:0:
448,147,1714,1,0,1:0:0:0:
368,71,2057,86,0,L|308:62,1,55,10|10,1:2|1:2,0:0:0:0:
264,87,2400,2,0,L|204:95,1,55,0|0,1:0|1:0,0:0:0:0:
158,75,2742,21,6,1:2:0:0:
85,158,3085,2,0,L|70:289,1,110,0|10,1:0|1:2,0:0:0:0:
148,347,3771,1,0,1:0:0:0:
218,262,4114,2,0,L|351:252,1,110,2|0,1:2|1:0,0:0:0:0:
437,242,4800,86,0,L|446:182,1,55,10|10,1:2|1:2,0:0:0:0:
421,138,5143,2,0,L|413:78,1,55,0|0,1:0|1:0,0:0:0:0:
433,32,5485,53,4,1:0:0:0:
331,75,5828,1,0,1:0:0:0:
225,43,6171,2,0,L|109:66,1,110,0|0,1:0|1:0,0:0:0:0:
62,53,6685,1,8,1:0:0:0:
62,53,6857,2,0,L|32:173,1,110,0|0,1:0|1:0,0:0:0:0:
24,213,7371,1,8,1:0:0:0:
24,213,7542,1,0,1:0:0:0:
114,275,7885,1,0,1:0:0:0:
206,215,8228,54,0,L|329:200,1,110,0|0,1:0|1:0,0:0:0:0:
244,117,8914,2,0,L|121:102,1,110,0|0,1:0|1:0,0:0:0:0:
102,59,9428,1,8,1:0:0:0:
142,20,9600,2,0,L|251:33,1,110,0|0,1:0|1:0,0:0:0:0:
359,52,10285,6,0,L|370:125,1,55,0|8,1:0|1:0,0:0:0:0:
419,124,10628,2,0,B|413:155|413:155|414:165|414:165|408:197,1,55,8|0,1:0|1:0,0:0:0:0:
405,233,10971,5,6,1:2:0:0:
345,325,11314,2,0,P|289:348|226:337,1,110,8|2,1:0|1:2,0:0:0:0:
275,238,12000,2,0,P|220:234|170:256,1,110,8|2,1:0|1:2,0:0:0:0:
92,333,12685,1,8,1:0:0:0:
30,241,13028,86,0,P|27:199|35:171,1,55,2|2,1:2|1:2,0:0:0:0:
44,133,13371,2,0,P|47:91|39:63,1,55,8|0,1:0|1:0,0:0:0:0:
25,26,13714,21,2,1:2:0:0:
134,39,14057,2,0,P|186:79|197:129,1,110,8|2,1:0|1:2,0:0:0:0:
168,225,14742,1,8,1:0:0:0:
266,274,15085,2,0,P|320:258|352:201,1,110,2|8,1:2|1:0,0:0:0:0:
381,109,15771,86,0,P|339:112|311:104,1,55,2|10,1:2|1:2,0:0:0:0:
273,95,16114,2,0,P|231:92|203:100,1,55,0|0,1:0|1:0,0:0:0:0:
166,114,16457,53,12,1:0:0:0:
122,214,16800,1,8,1:0:0:0:
13,194,17142,2,0,P|19:256|54:304,1,110,8|8,1:0|1:0,0:0:0:0:
87,329,17657,1,0,1:0:0:0:
87,329,17828,2,0,P|153:309|206:318,1,110,8|8,1:0|1:0,0:0:0:0:
243,336,18342,1,0,1:0:0:0:
243,336,18514,1,8,1:0:0:0:
347,302,18857,1,8,1:0:0:0:
446,349,19200,54,0,P|454:283|422:227,1,110,0|0,1:0|1:0,0:0:0:0:
365,160,19885,2,0,P|299:168|243:136,1,110,0|0,1:0|1:0,0:0:0:0:
221,111,20400,1,8,1:0:0:0:
178,145,20571,2,0,P|137:177|72:172,1,110,0|0,1:0|1:0,0:0:0:0:
2,253,21257,6,0,P|-1:286|8:326,1,55,0|8,1:0|1:0,0:0:0:0:
32,354,21600,1,8,1:0:0:0:
140,335,21942,54,0,L|210:345,1,55,4|0,1:0|1:0,0:0:0:0:
241,371,22285,2,0,L|311:361,1,55,4|0,1:0|1:0,0:0:0:0:
349,351,22628,1,12,1:0:0:0:
328,242,22971,1,4,1:0:0:0:
222,267,23314,85,4,1:0:0:0:
222,267,24685,6,0,P|259:250|168:197,1,220,8|12,1:0|1:0,0:0:0:0:
116,276,25714,1,4,1:0:0:0:
19,253,26057,37,4,1:0:0:0:
19,253,26228,2,0,P|21:189|86:103,1,165,8|2,1:0|1:2,0:0:0:0:
127,84,26914,1,8,1:0:0:0:
284,34,27428,1,2,1:2:0:0:
284,34,27600,2,0,L|459:48,1,165,8|2,1:0|1:2,0:0:0:0:
502,54,28285,1,8,1:0:0:0:
382,168,28800,53,2,1:2:0:0:
382,168,28971,2,0,B|388:219|388:219|427:263|427:263|434:321,1,165,8|2,1:0|1:2,0:0:0:0:
444,371,29657,1,8,1:0:0:0:
310,284,30171,1,2,1:2:0:0:
310,284,30343,2,0,L|135:270,1,165,8|2,1:0|1:2,0:0:0:0:
36,256,31200,2,0,B|34:234|34:234|39:225|39:225|36:196,1,55,10|8,1:2|1:0,0:0:0:0:
34,147,31542,70,0,L|107:155,1,55,6|8,1:2|1:0,0:0:0:0:
225,60,32228,2,0,L|152:68,1,55,6|8,1:2|1:0,0:0:0:0:
297,171,32914,2,0,L|370:179,1,55,6|8,1:2|1:0,0:0:0:0:
488,84,33600,2,0,L|415:92,1,55,6|8,1:2|1:0,0:0:0:0:
473,249,34285,53,2,1:2:0:0:
473,249,34457,2,0,L|361:261,1,110,8|8,1:0|1:0,0:0:0:0:
309,270,34971,1,2,1:2:0:0:
231,348,35314,2,0,L|158:340,1,55,2|8,1:2|1:0,0:0:0:0:
121,336,35657,53,2,1:2:0:0:
121,336,35829,2,0,L|108:224,1,110,8|8,1:0|1:0,0:0:0:0:
104,171,36343,1,2,1:2:0:0:
11,111,36685,1,0,1:0:0:0:
104,53,37028,54,0,B|203:23|211:141|311:111,2,220,4|2|2,1:0|1:0|1:0,0:0:0:0:
129,160,38742,2,0,P|143:210|185:279,1,110,2|2,1:0|1:0,0:0:0:0:
274,222,39428,1,2,1:0:0:0:
377,258,39771,54,0,P|436:214|339:175,2,220,2|2|2,1:0|1:0|1:0,0:0:0:0:
313,348,41485,2,0,P|261:365|206:371,1,110,2|2,1:0|1:0,3:0:0:0:
171,267,42171,2,0,B|149:269|149:269|140:264|140:264|111:267,1,55,10|8,1:0|1:0,0:0:0:0:
62,269,42513,54,0,P|74:233|70:196,1,55,6|8,1:0|1:0,0:0:0:0:
0,68,43200,2,0,P|25:96|59:111,1,55,6|8,1:0|1:0,0:0:0:0:
204,113,43885,2,0,P|166:120|136:142,1,55,6|8,1:0|1:0,0:0:0:0:
62,269,44571,2,0,P|74:233|70:196,1,55,6|8,1:0|1:0,0:0:0:0:
184,339,45257,54,0,P|213:346|239:343,1,55,2|8,1:0|1:0,0:0:0:0:
289,325,45600,2,0,P|316:322|342:329,1,55,2|8,1:0|1:0,0:0:0:0:
390,355,45942,1,2,1:0:0:0:
476,287,46285,1,2,1:0:0:0:
433,185,46628,70,0,L|420:113,1,55,2|12,1:0|1:0,0:0:0:0:
461,90,46971,2,0,L|448:18,1,55,2|8,1:0|1:0,0:0:0:0:
486,1,47314,1,14,1:0:0:0:
277,53,48000,6,0,B|204:14|184:83|105:37,2,165,6|2|8,1:2|1:2|1:0,0:0:0:0:
232,153,49371,2,0,B|161:196|211:248|132:293,2,165,2|2|8,1:2|1:2|1:0,0:0:0:0:
296,241,50742,2,0,B|298:323|368:306|368:397,2,165,2|2|8,1:2|1:2|1:0,0:0:0:0:
391,105,52285,86,0,L|272:78,2,110,2|2|0,1:2|1:2|1:0,0:0:0:0:
391,160,53142,1,10,1:2:0:0:
345,260,53485,22,0,B|418:299|438:229|517:276,2,165,6|2|8,1:2|1:2|1:0,0:0:0:0:
255,195,54857,2,0,B|182:155|162:225|82:179,2,165,2|2|8,1:2|1:2|1:0,0:0:0:0:
344,130,56228,2,0,B|417:90|437:160|516:114,2,165,6|6|8,1:2|1:2|1:0,0:0:0:0:
260,58,57600,38,0,L|146:78,1,110,6|8,1:2|1:0,0:0:0:0:
98,90,58114,2,0,B|137:163|68:183|114:262,1,165,6|8,1:2|1:0,0:0:0:0:
137,296,58800,1,0,1:0:0:0:
137,296,58971,70,0,P|207:278|166:204,2,165,6|2|8,1:2|1:2|1:0,0:0:0:0:
73,206,60342,2,0,P|0:193|19:122,2,165,2|2|8,1:2|1:2|1:0,0:0:0:0:
133,113,61714,2,0,P|203:95|162:21,2,165,2|2|8,1:2|1:2|1:0,0:0:0:0:
296,85,63257,86,0,L|269:204,2,110,10|10|0,1:2|1:2|1:0,0:0:0:0:
351,85,64114,1,14,1:2:0:0:
439,149,64457,22,0,P|420:226|359:193,2,165,6|2|8,1:2|1:2|1:0,0:0:0:0:
351,85,65828,2,0,P|274:62|272:132,2,165,2|2|8,1:2|1:2|1:0,0:0:0:0:
350,195,67200,2,0,P|331:272|270:239,2,165,6|6|8,1:2|1:2|1:0,0:0:0:0:
259,132,68571,38,0,L|141:114,1,110,6|8,1:2|1:0,0:0:0:0:
95,108,69085,2,0,P|105:162|15:156,1,165,6|8,1:2|1:0,0:0:0:0:
8,111,69771,1,0,1:0:0:0:
8,111,69942,37,4,1:0:0:0:
256,192,70114,12,4,71314,1:0:0:0:
256,192,72000,53,4,1:0:0:0:
407,350,72685,1,4,1:0:0:0:
487,144,73371,2,0,B|437:132|438:177|382:167,1,110,2|2,1:2|1:2,0:0:0:0:
279,130,74057,86,0,P|230:137|186:181,1,110,6|4,1:2|1:0,0:0:0:0:
151,281,74742,2,0,P|200:288|244:332,2,110,10|4|6,1:2|1:0|1:2,0:0:0:0:
50,326,75771,1,4,1:0:0:0:
8,224,76114,86,0,P|5:182|13:154,1,55,10|10,1:2|1:2,0:0:0:0:
22,116,76457,2,0,P|25:74|17:46,1,55,4|0,1:0|1:0,0:0:0:0:
3,9,76800,21,6,1:2:0:0:
104,50,77142,2,0,P|174:64|225:61,1,110,4|10,1:0|1:2,0:0:0:0:
319,38,77828,1,4,1:0:0:0:
384,126,78171,2,0,P|314:140|262:137,1,110,6|4,1:2|1:0,0:0:0:0:
169,107,78857,86,0,P|166:149|174:177,1,55,10|10,1:2|1:2,0:0:0:0:
183,215,79200,2,0,P|186:257|178:285,1,55,0|0,1:0|1:0,0:0:0:0:
164,322,79543,53,4,1:0:0:0:
269,290,79885,1,0,1:0:0:0:
352,361,80228,2,0,P|375:314|372:255,1,110,0|0,1:0|1:0,0:0:0:0:
356,204,80742,1,8,1:0:0:0:
356,204,80914,2,0,P|302:194|256:164,1,110,0|0,1:0|1:0,0:0:0:0:
224,120,81427,1,8,1:0:0:0:
224,120,81599,1,0,1:0:0:0:
327,83,81942,1,0,1:0:0:0:
244,9,82285,54,0,P|186:12|136:45,1,110,0|0,1:0|1:0,0:0:0:0:
80,129,82971,2,0,P|72:195|104:251,1,110,0|0,1:0|1:0,0:0:0:0:
126,274,83485,1,8,1:0:0:0:
108,326,83657,2,0,P|149:294|214:299,1,110,0|0,1:0|1:0,0:0:0:0:
297,354,84342,6,0,P|330:357|370:348,1,55,0|8,1:0|1:0,0:0:0:0:
401,329,84685,2,0,B|435:339|429:319|474:335,1,55,8|0,1:0|1:0,0:0:0:0:
505,305,85028,69,6,1:2:0:0:
444,212,85371,2,0,B|421:160|421:160|444:100,1,110,8|2,1:0|1:2,0:0:0:0:
341,60,86057,2,0,B|307:105|307:105|254:114,1,110,8|2,1:0|1:2,0:0:0:0:
161,56,86742,1,8,1:0:0:0:
67,114,87085,22,0,L|58:174,1,55,2|2,1:2|1:2,0:0:0:0:
83,218,87428,2,0,L|91:278,1,55,8|0,1:0|1:0,0:0:0:0:
71,324,87771,85,2,1:2:0:0:
176,291,88114,2,0,B|225:310|225:310|277:287,1,110,8|2,1:0|1:2,0:0:0:0:
224,190,88800,1,8,1:0:0:0:
175,91,89142,2,0,B|224:71|224:71|276:94,1,110,2|8,1:2|1:0,0:0:0:0:
357,169,89828,22,0,L|417:160,1,55,2|10,1:2|1:2,0:0:0:0:
420,106,90171,2,0,L|480:114,1,55,0|0,1:0|1:0,0:0:0:0:
504,67,90513,53,12,1:0:0:0:
404,18,90857,2,0,L|280:27,1,110,8|8,1:0|1:0,0:0:0:0:
239,32,91371,1,0,1:0:0:0:
184,39,91542,2,0,L|120:46,2,55,8|0|8,1:0|1:0|1:0,0:0:0:0:
191,149,92228,2,0,L|127:156,2,55,8|0|8,1:0|1:0|1:0,0:0:0:0:
245,143,92742,1,0,1:0:0:0:
299,138,92914,2,0,L|363:131,1,55,8|0,1:0|1:0,0:0:0:0:
408,124,93257,6,0,B|396:208|396:208|413:250,1,110,0|0,1:0|1:0,0:0:0:0:
295,230,93942,2,0,B|307:314|307:314|290:356,1,110,0|0,1:0|1:0,0:0:0:0:
261,379,94457,1,8,1:0:0:0:
210,357,94628,2,0,L|96:347,1,110,0|0,1:0|1:0,0:0:0:0:
33,259,95314,54,0,L|23:189,1,55,0|8,1:0|1:0,0:0:0:0:
54,158,95657,2,0,B|59:134|59:134|57:127|57:127|64:88,1,55,8|0,1:0|1:0,0:0:0:0:
26,61,96000,69,2,1:2:0:0:
256,192,96171,12,2,98057,1:2:0:0:
255,224,98742,85,6,1:2:0:0:
313,129,99085,2,0,L|318:59,2,55,2|2|2,1:2|1:2|1:2,0:0:0:0:
199,129,99771,2,0,L|194:59,2,55,2|2|2,1:2|1:2|1:2,0:0:0:0:
313,129,100457,2,0,L|318:199,2,55,2|2|2,1:2|1:2|1:2,0:0:0:0:
199,129,101142,1,2,1:0:0:0:
199,239,101485,53,2,1:2:0:0:
313,239,101828,2,0,L|318:309,2,55,2|2|2,1:2|1:2|1:2,0:0:0:0:
199,239,102514,2,0,L|194:309,2,55,2|2|2,1:2|1:2|1:2,0:0:0:0:
313,239,103200,53,2,1:2:0:0:
199,239,103542,1,2,1:2:0:0:
256,145,103885,1,2,1:0:0:0:
199,50,104228,53,2,1:2:0:0:
313,50,104571,2,0,L|383:44,2,55,2|2|2,1:2|1:2|1:2,0:0:0:0:
199,50,105257,2,0,L|129:44,2,55,2|2|2,1:2|1:2|1:2,0:0:0:0:
256,145,105942,2,0,L|326:139,2,55,2|2|2,1:2|1:2|1:2,0:0:0:0:
199,239,106628,69,2,1:0:0:0:
313,239,106971,1,2,1:2:0:0:
254,330,107314,2,0,L|249:400,2,55,2|2|2,1:2|1:2|1:2,0:0:0:0:
199,239,108000,53,2,1:0:0:0:
85,239,108343,1,2,1:2:0:0:
144,330,108686,2,0,L|149:400,2,55,2|2|2,1:2|1:2|1:2,0:0:0:0:
47,132,109714,70,0,L|229:157,1,165,6|0,1:2|1:0,0:0:0:0:
264,165,110400,1,10,1:2:0:0:
211,261,110742,2,0,L|146:269,2,55,0|0|2,1:0|1:0|1:2,0:0:0:0:
269,354,111428,2,0,L|333:362,1,55,0|0,1:0|1:0,0:0:0:0:
377,373,111771,1,10,1:2:0:0:
446,287,112114,1,2,1:2:0:0:
363,214,112457,54,0,L|388:32,1,165,2|0,1:2|1:0,0:0:0:0:
396,0,113143,1,10,1:2:0:0:
300,53,113485,2,0,L|291:-11,2,55,0|0|2,1:0|1:0|1:2,0:0:0:0:
225,134,114171,5,2,1:2:0:0:
128,80,114514,1,10,1:2:0:0:
42,148,114857,1,2,1:2:0:0:
53,257,115200,38,0,P|111:225|219:245,1,165,6|0,1:2|1:0,0:0:0:0:
251,268,115885,1,10,1:2:0:0:
336,199,116228,2,0,P|369:202|392:212,2,55,0|0|2,1:0|1:0|1:2,0:0:0:0:
234,156,116914,2,0,P|253:128|273:114,2,55,0|0|10,1:0|1:0|1:2,0:0:0:0:
150,228,117600,86,0,L|31:216,1,110,6|6,1:2|1:2,0:0:0:0:
85,116,118285,2,0,L|29:129,2,55,0|0|10,1:0|1:0|1:2,0:0:0:0:
163,38,118971,2,0,L|282:50,1,110,6|6,1:2|1:2,0:0:0:0:
228,150,119656,2,0,L|284:137,1,55,0|0,1:0|1:0,0:0:0:0:
327,168,120000,2,0,L|383:181,1,55,8|8,1:0|1:3,0:0:0:0:
427,152,120342,1,12,1:3:0:0:
504,74,120685,22,0,P|454:45|393:47,1,110,6|0,1:2|1:0,0:0:0:0:
349,59,121200,2,0,L|282:43,1,55,0|14,1:0|1:2,0:0:0:0:
200,101,121714,2,0,L|133:117,1,55,0|0,1:0|1:0,0:0:0:0:
91,105,122057,2,0,P|116:158|106:216,1,110,6|0,1:2|1:0,0:0:0:0:
90,259,122571,2,0,L|113:324,1,55,0|14,1:0|1:2,0:0:0:0:
215,283,123085,1,2,1:2:0:0:
301,351,123428,54,0,P|353:353|407:313,1,110,6|0,1:2|1:0,0:0:0:0:
435,279,123942,2,0,L|427:209,1,55,0|14,1:0|1:2,0:0:0:0:
343,153,124457,2,0,L|336:207,1,55,0|0,1:0|1:0,0:0:0:0:
329,262,124800,5,6,1:2:0:0:
229,214,125142,1,2,1:2:0:0:
154,295,125485,1,14,1:2:0:0:
57,242,125828,1,2,1:2:0:0:
91,137,126171,38,0,P|131:104|178:46,1,110,6|0,1:2|1:0,0:0:0:0:
206,19,126685,2,0,L|279:11,1,55,0|14,1:0|1:2,0:0:0:0:
359,62,127200,2,0,L|432:70,1,55,0|0,1:0|1:0,0:0:0:0:
452,106,127542,2,0,P|433:157|424:211,1,110,6|0,1:2|1:0,0:0:0:0:
432,266,128057,2,0,L|377:271,1,55,0|14,1:0|1:2,0:0:0:0:
295,345,128571,86,0,L|185:326,1,110,6|6,1:2|1:2,0:0:0:0:
83,364,129257,2,0,L|69:291,1,55,0|0,1:0|1:0,0:0:0:0:
63,255,129600,1,14,1:2:0:0:
39,147,129942,2,0,L|149:128,1,110,6|6,1:2|1:2,0:0:0:0:
251,166,130628,1,0,1:0:0:0:
268,57,130971,2,0,B|303:67|303:67|344:64|344:64|387:76,1,110,8|0,1:0|1:0,0:0:0:0:
481,105,131657,86,0,L|458:215,1,110,8|8,1:0|1:0,0:0:0:0:
411,241,132171,1,8,1:0:0:0:
360,220,132342,2,0,L|348:166,1,55,8|8,1:0|1:0,0:0:0:0:
296,149,132685,2,0,L|284:95,1,55,8|8,1:0|1:0,0:0:0:0:
232,77,133028,2,0,L|220:23,2,55,8|8|8,1:0|1:0|1:0,0:0:0:0:
191,114,133542,37,2,1:0:0:0:
91,66,133885,1,2,1:0:0:0:
7,136,134228,1,2,1:0:0:0:
7,136,134400,38,0,B|69:191|-11:231|73:304,1,165,6|0,1:2|1:0,0:0:0:0:
93,326,135085,2,0,L|35:338,2,55,2|0|8,1:2|1:0|1:0,0:0:0:0:
148,328,135600,2,0,L|265:308,1,110,0|2,1:0|1:2,0:0:0:0:
216,207,136285,1,2,1:2:0:0:
308,147,136628,2,0,L|291:94,2,55,0|8|2,1:0|1:0|1:2,0:0:0:0:
354,305,137485,53,8,1:0:0:0:
456,265,137828,2,0,P|470:212|452:151,1,110,2|8,1:2|1:0,0:0:0:0:
427,112,138342,2,0,L|295:93,2,110,0|2|2,1:0|1:2|1:2,0:0:0:0:
378,19,139371,5,2,1:0:0:0:
378,19,139542,2,0,B|357:16|357:16|343:21|343:21|323:18,1,55,8|8,1:0|1:0,0:0:0:0:
269,16,139885,38,0,B|291:84|234:108|259:179,2,165,6|2|8,1:2|1:2|1:0,0:0:0:0:
166,57,141257,2,0,L|106:49,2,55,10|8|0,1:0|1:0|1:0,0:0:0:0:
159,111,141771,1,6,1:2:0:0:
88,195,142114,2,0,L|148:187,1,55,8|8,1:0|1:0,0:0:0:0:
186,221,142457,54,0,P|231:254|339:278,1,165,6|8,1:2|1:0,0:0:0:0:
311,327,143142,2,0,P|266:360|158:384,1,165,2|8,1:2|1:0,0:0:0:0:
111,359,143828,1,2,1:2:0:0:
111,359,144000,54,0,L|98:287,1,55,2|0,1:0|1:0,0:0:0:0:
151,207,144514,1,0,1:0:0:0:
74,127,144857,1,8,1:0:0:0:
227,67,145371,54,0,B|301:89|305:9|388:34,1,165,6|0,1:2|1:0,0:0:0:0:
433,49,146057,2,0,L|510:24,2,55,2|0|8,1:2|1:0|1:0,0:0:0:0:
458,98,146571,2,0,L|478:215,1,110,0|2,1:0|1:2,0:0:0:0:
394,279,147257,1,2,1:2:0:0:
288,247,147600,2,0,L|277:192,2,55,0|8|2,1:0|1:0|1:2,0:0:0:0:
131,300,148457,53,8,1:0:0:0:
22,281,148800,2,0,L|40:169,1,110,2|8,1:2|1:0,0:0:0:0:
50,118,149314,2,0,P|86:157|148:175,2,110,0|2|2,1:0|1:2|1:2,0:0:0:0:
149,71,150342,69,2,1:0:0:0:
149,71,150514,2,0,B|169:73|169:73|183:68|183:68|203:71,1,55,8|8,1:0|1:0,0:0:0:0:
254,91,150857,102,0,P|309:112|416:74,2,165,6|2|8,1:2|1:2|1:0,0:0:0:0:
179,171,152228,2,0,P|174:142|178:113,2,55,10|8|0,1:0|1:0|1:0,0:0:0:0:
204,219,152742,1,6,1:2:0:0:
312,200,153085,2,0,P|314:227|309:254,1,55,8|8,1:0|1:0,0:0:0:0:
285,302,153428,54,0,B|216:290|200:362|123:347,1,165,6|8,1:2|1:0,0:0:0:0:
82,322,154114,2,0,B|151:310|167:382|244:367,1,165,2|8,1:2|1:0,0:0:0:0:
289,358,154800,1,0,1:0:0:0:
289,358,154971,86,0,L|394:229,2,165,6|4|8,1:2|1:0|1:0,0:0:0:0:
215,275,156342,2,0,L|110:146,2,165,14|12|4,1:2|1:0|1:3,0:0:0:0:
294,198,157714,2,0,B|364:125|364:125|378:59,2,165,6|4|12,1:2|1:0|1:0,0:0:0:0:
286,88,159085,6,0,B|215:-19|84:-9|-9:60|-2:236|153:363|256:245|304:217|362:110|179:-53|21:69|1:153|-21:237|73:343|191:314|242:286|242:286|286:265|299:258|331:253|368:252|394:259|410:288|415:297|420:319|420:330|422:341|415:389|377:401|350:396|308:373|307:376|271:341|246:282|295:140|427:214|434:205|468:140|485:74|444:12,1,1663.19994924317,6|0,1:0|0:0,0:0:0:0:
