osu file format v14

[General]
AudioFilename: audio.mp3
AudioLeadIn: 0
PreviewTime: 138045
Countdown: 0
SampleSet: Drum
StackLeniency: 0.4
Mode: 0
LetterboxInBreaks: 0
WidescreenStoryboard: 1

[Editor]
Bookmarks: 10966,21716,32383,43049,64383,64549,64716,64883,65049,65216,65383,65549,65716,65883,66049,66216,66383,66549,66716,66883,67049,67216,67383,67549,67716,67883,68049,68216,68383,68549,68716,68883,69049,69216,69383,69549,69716,69883,70049,70216,70383,70549,70716,70883,71049,71216,71383,71549,71716,71883,72049,72216,72383,72549,72716,72883,73049,73216,73383,73549,73716,73883,74049,74216,74383,74549,74716,74883,75049,106383,106466,106549,106633,106716,106799,106966,107049,107133,107216,107299,107466,107549,107633,107716,107883,107966,108133,108216,108299,108466,108549,108716,108883,109049,109216,109383,109549,109716,109883,110049,110216,110383,110549,110716,110883,111049,111216,111383,111549,111716,111883,112049,112216,112383,112549,112716,112883,113049,113216,113383,113549,113716,113883,114049,114216,114383,114549,114716,114883,115049,115216,115383,115549,115716,115883,116049,116216,116383,116549,116716,116883,117049,117216,117383,117549,117716,117883,118049,118216,118383,118549,118716,118883,119049,119216,119383,119549,119716,119883,120049,120216,120383,120549,120716,120883,121049,121216,121383,121549,121716,121883,122049,122216,122383,122549,122716,122883,123049,123216,123383,123549,123716,123883,124049,124216,124383,124549,124716,124883,125049,125216,125383,125549,125716,125883,126049,126216,126383,126549,126716,126883,127049,127216,127383,127549,127716,128383,139049,160383,172383,177716,188383,199049,209716,230966,232466
DistanceSpacing: 1.3
BeatDivisor: 4
GridSize: 4
TimelineZoom: 2.799999

[Metadata]
Title:With Fire and Sword (2013)
TitleUnicode:With Fire and Sword (2013)
Artist:Loki
ArtistUnicode:Loki
Creator:TheShadowOfDark
Version:Seolv's Another
Source:osu!
Tags:[-Crissaegrim-] Lukas Seolv [_L_u_k a_s_] Minorsonek M2Usonek Crissa Loki's "Tales of the Mountains" Beatmap Pack FA Featured Artist Symphonic Metal Instrumental Rock Thaehan Gremio Mappers' Guild MG
BeatmapID:2292829
BeatmapSetID:1088528

[Difficulty]
HPDrainRate:6
CircleSize:4.2
OverallDifficulty:8.2
ApproachRate:9.2
SliderMultiplier:1.75
SliderTickRate:1

[Events]
//Background and Video events
0,0,"307ad2aaf3.jpg",0,0
//Break Periods
2,64245,74475
2,107245,127142
2,160579,171142
//Storyboard Layer 0 (Background)
//Storyboard Layer 1 (Fail)
//Storyboard Layer 2 (Pass)
//Storyboard Layer 3 (Foreground)
//Storyboard Layer 4 (Overlay)
//Storyboard Sound Samples

[TimingPoints]
379,333.333333333334,4,2,1,60,1,0
379,-100,4,2,1,60,0,0
3045,-100,4,2,1,60,0,0
11045,-100,4,3,1,70,0,1
15711,-100,4,2,1,70,0,1
16378,-100,4,3,1,70,0,1
21712,-100,4,3,1,70,0,0
32378,-83.3333333333333,4,3,1,70,0,0
43044,-100,4,2,1,60,0,0
44378,-142.857142857143,4,2,1,60,0,0
45711,-100,4,3,1,60,0,0
48378,-100,4,2,1,60,0,0
49711,-83.3333333333333,4,2,1,60,0,0
51044,-100,4,3,1,60,0,0
53711,-100,4,2,1,60,0,0
55044,-83.3333333333333,4,2,1,60,0,0
56377,-100,4,2,1,60,0,0
56378,-100,4,3,1,60,0,0
57044,-83.3333333333333,4,3,1,60,0,0
57378,-74.0740740740741,4,3,1,60,0,0
57711,-66.6666666666667,4,3,1,60,0,0
58378,-83.3333333333333,4,3,1,60,0,0
59044,-100,4,2,1,60,0,0
60378,-83.3333333333333,4,2,1,60,0,0
61711,-100,4,3,1,60,0,0
63044,-133.333333333333,4,3,1,60,0,0
64378,-100,4,3,1,60,0,0
75044,-100,4,3,1,60,0,0
84711,-100,4,2,1,60,0,0
85712,-100,4,3,1,70,0,1
96378,-76.9230769230769,4,3,1,70,0,1
107045,-125,4,3,1,60,0,0
128378,-125,4,2,1,60,0,0
131878,-125,4,2,1,60,0,0
132378,-125,4,2,1,60,0,0
133711,-125,4,3,1,60,0,0
136378,-125,4,2,1,60,0,0
137711,-125,4,2,1,60,0,0
139045,-83.3333333333333,4,3,1,70,0,1
160379,-100,4,2,1,60,0,0
171044,-125,4,2,1,60,0,0
176378,-125,4,2,1,60,0,0
177711,-100,4,3,1,60,0,0
188378,-83.3333333333333,4,3,1,60,0,0
199044,-125,4,2,1,60,0,0
201711,-125,4,2,1,60,0,0
204378,-125,4,2,1,60,0,0
209712,-83.3333333333333,4,3,1,70,0,1
231045,-100,4,3,1,70,0,0

[Colours]
Combo1 : 0,0,128
Combo2 : 125,171,255
Combo3 : 249,182,132
Combo4 : 138,217,255
Combo5 : 192,159,141
Combo6 : 128,128,128
Combo7 : 192,192,192
Combo8 : 253,106,36

[HitObjects]
52,261,379,6,0,B|118:271|118:271|131:291|131:291|222:308,1,175,6|2,0:1|0:1,0:0:0:0:
213,306,1712,6,0,B|131:291|131:291|118:271|118:271|52:261,1,175,6|2,0:1|0:1,0:0:0:0:
242,86,2379,6,0,P|294:29|387:54,1,175,12|8,0:0|0:0,0:0:0:0:
400,71,2795,1,8,0:0:0:0:
409,91,2879,1,8,0:0:0:0:
410,109,2962,1,8,0:0:0:0:
407,119,3045,1,14,0:1:0:0:
6,369,4379,5,6,0:1:0:0:
454,366,5045,5,12,0:0:0:0:
458,325,5129,1,8,0:0:0:0:
460,295,5212,1,8,0:0:0:0:
320,230,5379,1,8,0:0:0:0:
322,248,5462,1,8,0:0:0:0:
324,263,5545,1,8,0:0:0:0:
325,275,5629,1,8,0:0:0:0:
326,283,5712,1,14,0:1:0:0:
22,48,7045,6,0,B|67:30|109:70|83:71|143:124|201:74,1,175,6|2,0:1|0:1,0:0:0:0:
464,232,7712,6,0,P|412:175|319:200,1,175,12|8,0:0|0:0,0:0:0:0:
306,217,8129,1,8,0:0:0:0:
297,237,8212,1,8,0:0:0:0:
296,255,8295,1,8,0:0:0:0:
299,265,8379,1,14,0:1:0:0:
17,363,9712,5,6,3:1:0:0:
68,244,9879,2,0,L|175:227,2,87.5,8|0|0,0:0|3:2|3:2,0:0:0:0:
2,133,10379,2,0,L|15:46,1,87.5,8|0,0:0|3:2,0:0:0:0:
166,17,10712,5,8,0:1:0:0:
166,17,10795,1,8,0:0:0:0:
166,17,10879,1,8,0:1:0:0:
166,17,10962,1,8,0:0:0:0:
166,17,11045,2,0,L|173:82,3,43.75,12|0|0|0,2:0|0:0|0:0|0:0,0:0:0:0:
250,110,11379,2,0,L|254:66,1,43.75,12|0,0:0|0:0,0:0:0:0:
327,2,11545,2,0,L|331:45,1,43.75,0|0,0:0|0:0,0:0:0:0:
460,148,11712,6,0,P|427:110|367:119,1,87.5,12|0,0:0|0:0,0:0:0:0:
379,114,11962,1,0,0:0:0:0:
371,124,12045,2,0,L|382:192,2,58.3333333333333,12|0|0,0:0|0:0|0:0,0:0:0:0:
254,66,12379,6,0,L|203:64,1,43.75,12|0,0:0|0:0,0:0:0:0:
137,14,12545,2,0,L|135:57,1,43.75,0|0,0:0|0:0,0:0:0:0:
90,133,12712,2,0,L|133:134,1,43.75,12|0,0:0|0:0,0:0:0:0:
209,187,12879,2,0,L|210:143,1,43.75,0|0,0:0|0:0,0:0:0:0:
142,128,13045,6,0,L|98:126,1,43.75,12|0,0:0|0:0,0:0:0:0:
144,51,13212,2,0,L|145:7,1,43.75,0|0,0:0|0:0,0:0:0:0:
219,58,13379,2,0,L|262:59,1,43.75,12|0,0:0|0:0,0:0:0:0:
219,137,13545,2,0,L|217:180,1,43.75,0|0,0:0|0:0,0:0:0:0:
115,239,13712,6,0,L|50:246,3,43.75,12|0|0|0,0:0|0:0|0:0|0:0,0:0:0:0:
179,321,14046,2,0,L|183:277,1,43.75,12|0,0:0|0:0,0:0:0:0:
262,329,14212,2,0,L|266:372,1,43.75,0|0,0:0|0:0,0:0:0:0:
314,267,14379,6,0,P|356:274|381:308,1,87.5,12|0,0:0|0:0,0:0:0:0:
388,322,14629,1,0,0:0:0:0:
399,330,14712,2,0,L|467:319,2,58.3333333333333,12|0|0,0:0|0:0|0:0,0:0:0:0:
314,267,15046,6,0,L|316:216,1,43.75,12|0,0:0|0:0,0:0:0:0:
237,134,15212,2,0,L|235:177,1,43.75,0|0,0:0|0:0,0:0:0:0:
324,270,15379,2,0,L|326:219,1,43.75,12|0,0:0|0:0,0:0:0:0:
247,137,15545,2,0,L|245:180,1,43.75,0|0,0:0|0:0,0:0:0:0:
387,125,15712,5,8,0:0:0:0:
404,108,15795,1,8,0:0:0:0:
406,89,15879,1,8,0:0:0:0:
400,78,15962,1,0,3:0:0:0:
392,71,16045,2,0,L|342:77,3,43.75,8|8|8|8,0:1|0:1|0:1|0:1,0:0:0:0:
293,153,16379,6,0,L|221:142,1,43.75,12|0,0:0|0:0,0:0:0:0:
163,133,16545,1,0,0:0:0:0:
0,240,16712,6,0,L|72:229,1,43.75,12|0,0:0|0:0,0:0:0:0:
130,220,16878,1,0,0:0:0:0:
233,384,17045,6,0,L|222:312,1,43.75,12|0,0:0|0:0,0:0:0:0:
213,254,17211,1,0,0:0:0:0:
75,43,17379,6,0,L|72:115,2,58.3333333333333,12|0|0,0:0|0:0|0:0,0:0:0:0:
160,118,17712,6,0,L|232:107,1,43.75,12|0,0:0|0:0,0:0:0:0:
290,98,17878,1,0,0:0:0:0:
453,205,18045,6,0,L|381:194,1,43.75,12|0,0:0|0:0,0:0:0:0:
323,185,18211,1,0,0:0:0:0:
220,349,18378,6,0,L|231:277,1,43.75,12|0,0:0|0:0,0:0:0:0:
240,219,18544,1,0,0:0:0:0:
367,27,18712,6,0,L|371:123,1,87.5,12|0,0:0|0:0,0:0:0:0:
384,355,19045,6,0,P|442:335|463:281,1,87.5,12|0,0:0|0:0,0:0:0:0:
460,298,19295,1,0,0:0:0:0:
460,298,19379,2,0,P|471:237|435:192,1,87.5,12|0,0:0|0:0,0:0:0:0:
448,203,19629,1,0,0:0:0:0:
448,203,19712,2,0,P|401:162|344:171,1,87.5,12|0,0:0|0:0,3:3:0:0:
359,165,19962,1,0,0:0:0:0:
359,165,20045,2,0,L|353:96,2,58.3333333333333,12|0|0,0:0|0:0|0:0,0:0:0:0:
271,258,20379,5,0,0:0:0:0:
147,239,20545,1,8,2:0:0:0:
257,242,20712,1,0,0:0:0:0:
159,256,20878,1,0,0:0:0:0:
214,73,21045,6,0,L|205:165,1,87.5,8|0,2:0|0:0,0:0:0:0:
83,325,21379,1,8,2:1:0:0:
55,312,21462,1,8,2:0:0:0:
35,289,21545,1,8,2:1:0:0:
27,260,21628,1,8,2:0:0:0:
32,230,21712,1,6,0:2:0:0:
119,109,21879,6,0,L|108:22,2,87.5,0|0|8,0:0|0:0|2:0,0:0:0:0:
227,212,22379,2,0,B|273:217|306:168|276:163|319:111|376:120,2,175,2|2|2,0:1|0:1|0:1,0:0:0:0:
70,290,23212,5,0,0:0:0:0:
154,307,23379,1,0,0:0:0:0:
246,320,23545,1,8,2:0:0:0:
355,261,23712,5,0,0:0:0:0:
350,376,23879,1,0,0:0:0:0:
345,272,24045,1,0,0:0:0:0:
365,365,24212,1,8,2:0:0:0:
455,277,24379,6,0,P|453:341|467:378,2,87.5,6|0|0,0:1|0:0|0:0,0:0:0:0:
497,148,24879,1,8,2:0:0:0:
382,70,25045,2,0,P|310:93|206:14,1,175,2|2,0:1|0:1,0:0:0:0:
17,100,25712,6,0,L|6:11,3,87.5,6|0|6|0,0:1|0:0|0:1|0:0,0:0:0:0:
118,71,26379,2,0,L|107:157,1,87.5,6|0,0:1|0:0,0:0:0:0:
69,275,26712,2,0,L|21:268,3,43.75,10|8|8|8,2:1|2:0|2:1|2:0,0:0:0:0:
9,280,27045,5,6,0:1:0:0:
176,292,27212,2,0,L|165:379,2,87.5,0|0|8,0:0|0:0|0:0,0:0:0:0:
263,169,27712,2,0,B|317:234|317:234|422:201,2,175,2|2|2,0:1|0:1|0:1,0:0:0:0:
189,66,28545,5,0,0:0:0:0:
273,83,28712,1,0,0:0:0:0:
365,96,28878,1,8,0:0:0:0:
474,37,29045,5,0,0:0:0:0:
469,152,29212,1,0,0:0:0:0:
464,48,29378,1,0,0:0:0:0:
484,141,29545,1,8,0:0:0:0:
321,233,29712,6,0,L|139:216,1,175,6|2,0:1|0:1,0:0:0:0:
23,311,30212,1,8,0:0:0:0:
56,379,30379,2,0,L|66:222,1,131.25,2|0,0:1|0:0,0:0:0:0:
63,231,30712,1,2,0:1:0:0:
61,142,30879,1,8,0:0:0:0:
4,82,31045,5,6,0:1:0:0:
145,51,31212,1,0,0:0:0:0:
193,176,31379,5,6,0:1:0:0:
61,142,31545,1,0,0:0:0:0:
221,97,31712,5,6,0:1:0:0:
251,240,31879,1,0,0:0:0:0:
364,167,32045,2,0,L|356:114,3,43.75,10|8|8|8,0:1|0:0|0:1|0:0,0:0:0:0:
385,91,32379,6,0,L|449:82,1,52.4999983978272,6|0,0:1|0:0,0:0:0:0:
510,189,32545,2,0,L|401:182,1,104.999996795654,8|6,0:0|0:0,0:0:0:0:
255,171,32879,1,8,0:0:0:0:
342,262,33045,6,0,L|327:94,1,157.499995193482,6|0,0:1|0:0,0:0:0:0:
250,7,33379,2,0,L|235:163,1,157.499995193482,6|0,0:1|0:0,0:0:0:0:
227,298,33712,5,6,0:1:0:0:
82,215,33879,1,8,0:0:0:0:
1,351,34045,2,0,L|66:329,2,52.4999983978272,6|0|8,0:0|0:0|0:0,0:0:0:0:
135,350,34379,6,0,L|145:263,1,52.4999983978272,6|0,0:0|0:0,0:0:0:0:
151,227,34545,1,8,0:0:0:0:
19,119,34712,6,0,L|24:171,1,52.4999983978272,6|0,0:0|0:0,0:0:0:0:
35,247,34878,1,8,0:0:0:0:
116,121,35045,6,0,L|227:112,1,104.999996795654,6|8,0:1|0:0,0:0:0:0:
362,43,35379,1,6,0:0:0:0:
235,122,35545,1,8,0:0:0:0:
354,200,35712,2,0,L|362:38,1,157.499995193482,6|0,0:1|0:0,0:0:0:0:
266,21,36045,2,0,B|238:62|238:62|256:129,1,104.999996795654,6|8,0:1|0:0,0:0:0:0:
402,282,36378,5,6,0:1:0:0:
402,299,36545,1,8,0:0:0:0:
208,353,36712,5,6,0:1:0:0:
159,240,36879,1,8,0:0:0:0:
299,153,37045,6,0,L|289:269,1,104.999996795654,6|8,0:1|0:0,0:0:0:0:
136,333,37379,1,10,0:1:0:0:
109,332,37462,1,8,2:0:0:0:
83,331,37545,1,8,2:0:0:0:
57,330,37629,1,8,2:0:0:0:
31,329,37712,1,6,0:1:0:0:
117,239,37879,6,0,L|126:149,1,52.4999983978272,8|0,0:0|0:0,0:0:0:0:
28,95,38045,2,0,L|33:147,1,52.4999983978272,6|0,0:0|0:0,0:0:0:0:
143,71,38212,1,8,0:0:0:0:
222,228,38379,6,0,P|265:188|331:172,1,104.999996795654,6|8,0:1|0:0,0:0:0:0:
385,311,38712,2,0,P|342:351|276:367,1,104.999996795654,6|8,0:1|0:0,0:0:0:0:
132,319,39045,6,0,L|81:333,3,52.4999983978272,6|0|8|0,0:1|0:0|0:0|0:0,0:0:0:0:
51,262,39379,2,0,L|0:248,3,52.4999983978272,6|0|8|0,0:0|0:0|0:0|0:0,0:0:0:0:
13,172,39712,6,0,L|-1:121,1,52.4999983978272,6|0,0:0|0:0,0:0:0:0:
125,5,39879,2,0,L|115:121,1,104.999996795654,8|6,0:0|0:0,0:0:0:0:
119,133,40129,1,0,0:0:0:0:
119,133,40212,1,8,0:0:0:0:
206,221,40379,6,0,P|277:213|304:167,1,104.999996795654,6|8,0:1|0:0,0:0:0:0:
354,43,40712,1,2,0:1:0:0:
225,119,40879,1,10,0:1:0:0:
382,225,41045,6,0,P|421:258|472:255,1,104.999996795654,6|8,0:1|0:0,0:0:0:0:
503,148,41379,2,0,L|494:88,3,52.4999983978272,2|0|10|0,0:1|0:0|0:1|0:0,0:0:0:0:
414,75,41712,6,0,L|300:64,3,104.999996795654,6|0|0|0,0:1|0:0|0:0|0:0,0:0:0:0:
221,166,42379,1,8,0:2:0:0:
221,166,42545,1,8,0:1:0:0:
221,166,42712,1,0,0:0:0:0:
221,166,42879,1,0,0:0:0:0:
75,290,43045,6,0,B|170:315|201:211|150:215|190:86|328:141,1,306.25,6|0,0:0|0:0,0:0:0:0:
316,137,43712,1,10,0:1:0:0:
264,216,43879,1,2,0:1:0:0:
318,294,44045,1,10,0:1:0:0:
318,294,44212,1,2,0:1:0:0:
256,361,44379,6,0,B|178:408|96:354|160:299|73:252|14:290,1,275.624991588593,6|0,0:0|0:0,0:0:0:0:
23,284,45212,1,2,0:1:0:0:
137,192,45379,2,0,L|141:252,3,30.6249990653992,8|8|8|8,0:1|0:0|0:1|0:0,0:0:0:0:
170,311,45712,6,0,P|225:272|268:270,2,87.5,6|0|0,0:1|0:0|0:0,0:0:0:0:
252,158,46212,1,10,0:1:0:0:
341,191,46379,6,0,P|396:230|439:232,2,87.5,2|0|0,0:1|0:0|0:0,0:0:0:0:
423,344,46879,1,10,0:1:0:0:
505,277,47045,6,0,L|495:175,1,87.5,2|0,0:1|0:0,0:0:0:0:
429,43,47379,2,0,L|420:130,1,87.5,10|0,0:1|0:0,0:0:0:0:
493,275,47712,2,0,L|483:173,1,87.5,2|10,0:1|0:1,0:0:0:0:
417,41,48046,2,0,L|408:128,1,87.5,8|0,0:0|0:0,0:0:0:0:
388,160,48295,1,0,0:0:0:0:
362,186,48379,2,0,P|265:231|270:81,1,306.25,6|0,0:0|0:0,0:0:0:0:
258,85,49045,5,10,0:1:0:0:
128,185,49212,1,2,0:1:0:0:
292,157,49379,1,10,0:1:0:0:
292,157,49545,1,2,0:1:0:0:
193,18,49712,5,6,0:0:0:0:
193,18,50379,1,2,3:1:0:0:
128,48,50545,1,2,3:1:0:0:
123,121,50712,1,2,3:1:0:0:
244,176,50879,1,10,3:1:0:0:
159,204,51045,6,0,L|165:257,2,43.75,6|0|4,0:2|0:0|0:0,0:0:0:0:
353,204,51379,2,0,L|347:257,2,43.75,8|0|4,0:1|0:0|0:0,0:0:0:0:
147,205,51712,2,0,L|153:258,2,43.75,8|0|4,0:1|0:0|0:0,0:0:0:0:
365,205,52045,2,0,L|359:258,2,43.75,8|0|4,0:1|0:0|0:0,0:0:0:0:
203,351,52379,5,8,0:1:0:0:
358,265,52545,1,4,0:0:0:0:
154,265,52712,1,8,0:1:0:0:
309,351,52879,1,4,0:0:0:0:
140,380,53045,5,8,0:1:0:0:
140,380,53129,1,0,0:0:0:0:
140,380,53212,2,0,L|138:306,5,43.75,0|0|0|0|0|0,0:0|0:0|0:0|0:0|0:0|0:0,0:0:0:0:
91,271,53712,5,6,0:0:0:0:
91,271,54379,1,10,0:1:0:0:
187,250,54545,1,2,0:1:0:0:
125,177,54712,1,10,0:1:0:0:
213,322,54879,1,2,0:1:0:0:
306,186,55045,5,6,0:0:0:0:
306,186,55879,1,2,3:1:0:0:
210,108,56045,2,0,L|212:32,1,52.4999983978272,8|8,0:1|0:0,0:0:0:0:
134,185,56212,2,0,L|135:237,1,52.4999983978272,8|8,0:1|0:0,0:0:0:0:
64,338,56379,6,0,P|38:295|49:241,2,87.5,6|0|0,0:2|0:0|0:0,0:0:0:0:
230,371,56879,1,10,0:1:0:0:
295,307,57045,2,0,L|301:184,1,104.999996795654,6|0,0:1|0:0,0:0:0:0:
176,49,57379,6,0,L|190:190,1,118.125000450611,6|0,0:1|0:0,0:0:0:0:
343,244,57712,5,6,0:1:0:0:
350,115,57879,1,0,0:0:0:0:
343,244,58045,1,0,0:0:0:0:
350,115,58212,1,8,0:0:0:0:
454,190,58379,5,2,0:1:0:0:
441,324,58545,1,0,0:0:0:0:
321,377,58712,2,0,L|264:371,3,52.4999983978272,2|0|0|0,0:1|0:0|0:0|0:0,0:0:0:0:
216,368,59045,6,0,P|172:340|231:121,1,306.25,6|0,0:0|0:0,0:0:0:0:
209,128,59712,1,10,0:1:0:0:
70,188,59879,1,2,0:1:0:0:
249,246,60045,1,10,0:1:0:0:
249,246,60212,2,0,L|258:299,1,43.75,2|0,0:1|0:0,0:0:0:0:
102,325,60379,5,6,0:0:0:0:
102,325,61045,1,2,3:1:0:0:
91,242,61212,1,2,3:1:0:0:
138,169,61379,1,10,3:1:0:0:
25,77,61545,1,2,3:1:0:0:
0,200,61712,6,0,P|43:159|98:139,1,87.5,14|0,0:0|0:0,0:0:0:0:
219,94,62045,2,0,P|181:72|151:40,1,87.5,14|0,0:0|0:0,0:0:0:0:
0,213,62379,2,0,P|43:172|98:152,1,87.5,14|0,0:0|0:0,0:0:0:0:
219,107,62712,2,0,P|181:85|151:53,1,87.5,14|0,0:0|0:0,0:0:0:0:
345,123,63045,6,0,L|349:168,11,32.8125012516976,8|8|0|0|0|0|0|0|0|0|0|0,0:0|0:1|0:0|0:0|0:0|0:0|0:0|0:0|0:0|0:0|0:0|0:0,0:0:0:0:
298,224,64045,1,2,2:1:0:0:
39,90,75045,6,0,B|95:63|163:104|121:115|179:214|268:155,1,262.5,6|0,0:1|0:0,0:0:0:0:
345,89,75712,1,2,0:1:0:0:
270,166,75879,1,0,0:0:0:0:
351,94,76045,1,10,0:1:0:0:
276,171,76212,1,0,0:0:0:0:
431,211,76379,6,0,P|368:231|341:340,1,175,6|8,0:1|0:1,0:0:0:0:
341,345,76879,1,0,0:0:0:0:
243,369,77045,2,0,L|250:268,3,87.5,2|0|10|0,0:1|0:0|0:1|0:0,0:0:0:0:
123,173,77712,6,0,B|84:116|84:116|118:317,1,262.5,6|0,0:1|0:0,0:0:0:0:
177,380,78379,1,2,0:1:0:0:
105,310,78545,1,0,0:0:0:0:
185,375,78712,1,10,0:1:0:0:
93,315,78879,1,0,0:0:0:0:
230,217,79045,6,0,L|420:200,1,175,6|8,0:1|0:1,0:0:0:0:
499,257,79545,1,0,0:0:0:0:
484,94,79712,2,0,L|476:199,1,87.5,2|0,0:1|0:0,0:0:0:0:
367,129,80045,2,0,L|360:41,1,87.5,10|8,0:1|0:1,0:0:0:0:
175,141,80379,6,0,B|260:84|318:183|276:194|344:235|400:208,1,262.5,6|0,0:1|0:0,0:0:0:0:
481,282,81045,1,2,0:1:0:0:
406,205,81212,1,0,0:0:0:0:
487,277,81378,1,10,0:1:0:0:
412,200,81545,1,8,0:1:0:0:
335,353,81712,6,0,P|252:335|218:258,1,175,6|8,0:1|0:1,0:0:0:0:
254,147,82213,1,0,0:0:0:0:
149,92,82379,2,0,L|155:179,3,87.5,2|0|10|0,0:1|0:0|0:1|0:0,0:0:0:0:
255,18,83045,6,0,B|367:11|367:11|394:32|394:32|514:22,1,262.5,6|0,0:1|0:0,0:0:0:0:
500,125,83712,1,10,0:1:0:0:
511,32,83878,1,0,0:0:0:0:
498,136,84045,1,10,0:1:0:0:
509,22,84212,1,0,0:0:0:0:
388,114,84379,5,6,0:1:0:0:
391,126,84712,1,8,0:1:0:0:
254,144,84879,1,0,3:0:0:0:
117,162,85045,1,6,0:1:0:0:
117,162,85379,2,0,L|114:218,1,43.75,8|0,2:0|3:0,0:0:0:0:
196,281,85545,2,0,L|193:237,1,43.75,0|0,3:0|3:0,0:0:0:0:
228,147,85712,6,0,L|271:142,3,43.75,12|0|0|0,2:0|0:0|0:0|0:0,0:0:0:0:
317,73,86046,2,0,L|361:77,1,43.75,12|0,0:0|0:0,0:0:0:0:
435,109,86212,2,0,L|439:152,1,43.75,0|0,0:0|0:0,0:0:0:0:
501,296,86379,6,0,P|468:258|408:267,1,87.5,12|0,0:0|0:0,0:0:0:0:
419,263,86629,1,0,0:0:0:0:
411,273,86712,2,0,L|422:341,2,58.3333333333333,12|0|0,0:0|0:0|0:0,0:0:0:0:
362,189,87046,6,0,L|311:187,1,43.75,12|0,0:0|0:0,0:0:0:0:
245,137,87212,2,0,L|243:180,1,43.75,0|0,0:0|0:0,0:0:0:0:
198,256,87379,2,0,L|241:257,1,43.75,12|0,0:0|0:0,0:0:0:0:
317,310,87546,2,0,L|318:266,1,43.75,0|0,0:0|0:0,0:0:0:0:
360,178,87712,6,0,L|316:176,1,43.75,12|0,0:0|0:0,0:0:0:0:
362,101,87879,2,0,L|363:57,1,43.75,0|0,0:0|0:0,0:0:0:0:
437,108,88046,2,0,L|480:109,1,43.75,12|0,0:0|0:0,0:0:0:0:
437,187,88212,2,0,L|435:230,1,43.75,0|0,0:0|0:0,0:0:0:0:
350,345,88379,6,0,L|285:352,3,43.75,12|0|0|0,0:0|0:0|0:0|0:0,0:0:0:0:
249,283,88713,2,0,L|253:239,1,43.75,12|0,0:0|0:0,0:0:0:0:
171,329,88879,2,0,L|175:372,1,43.75,0|0,0:0|0:0,0:0:0:0:
18,208,89046,6,0,P|60:215|85:249,1,87.5,12|0,0:0|0:0,0:0:0:0:
91,258,89296,1,0,0:0:0:0:
102,266,89379,2,0,L|170:255,2,58.3333333333333,12|0|0,0:0|0:0|0:0,0:0:0:0:
18,208,89713,6,0,L|20:157,1,43.75,12|0,0:0|0:0,0:0:0:0:
110,122,89879,2,0,L|108:165,1,43.75,0|0,0:0|0:0,0:0:0:0:
30,208,90046,2,0,L|32:157,1,43.75,12|0,0:0|0:0,0:0:0:0:
122,122,90212,2,0,L|120:165,1,43.75,0|0,0:0|0:0,0:0:0:0:
203,126,90379,5,8,0:0:0:0:
220,109,90462,1,8,0:0:0:0:
222,90,90546,1,8,0:0:0:0:
216,79,90629,1,0,3:0:0:0:
208,72,90712,2,0,L|158:78,3,43.75,8|8|8|8,0:1|0:1|0:1|0:1,0:0:0:0:
138,77,91045,6,0,P|183:38|222:27,1,87.5,12|0,0:0|0:0,0:0:0:0:
84,236,91379,2,0,P|27:216|-1:188,1,87.5,12|0,0:0|0:0,0:0:0:0:
232,231,91712,2,8,P|243:289|233:328,1,87.5,12|0,0:0|0:0,0:0:0:0:
138,77,92046,6,0,L|140:18,2,58.3333333333333,12|0|0,0:0|0:0|0:0,0:0:0:0:
222,169,92379,6,0,P|272:120|297:124,1,87.5,12|0,0:0|0:0,0:0:0:0:
307,133,92629,1,0,0:0:0:0:
306,132,92712,2,0,L|408:126,1,87.5,12|0,0:0|0:0,0:0:0:0:
415,129,92962,1,0,0:0:0:0:
415,129,93045,2,8,P|347:110|338:86,1,87.5,12|0,0:0|0:0,0:0:0:0:
180,11,93379,2,0,L|189:114,1,87.5,12|0,0:0|0:0,0:0:0:0:
217,346,93712,6,0,P|275:326|296:272,1,87.5,12|0,0:0|0:0,0:0:0:0:
293,289,93962,1,0,0:0:0:0:
293,289,94046,2,0,P|304:228|268:183,1,87.5,12|0,0:0|0:0,0:0:0:0:
281,194,94296,1,0,0:0:0:0:
281,194,94379,2,0,P|234:153|177:162,1,87.5,12|0,0:0|0:0,3:3:0:0:
192,156,94629,1,0,0:0:0:0:
192,156,94712,2,0,L|186:87,2,58.3333333333333,12|0|0,0:0|0:0|0:0,0:0:0:0:
173,282,95046,5,10,0:1:0:0:
49,263,95212,1,10,2:1:0:0:
159,266,95379,1,2,0:1:0:0:
61,280,95545,1,2,0:1:0:0:
192,156,95712,2,0,L|279:164,1,87.5,10|2,2:1|0:1,0:0:0:0:
404,338,96046,5,10,2:1:0:0:
376,325,96129,1,8,2:0:0:0:
356,302,96212,1,10,2:1:0:0:
348,273,96295,1,8,2:0:0:0:
353,243,96379,2,0,L|341:148,1,56.8749973964692,12|0,2:0|0:0,0:0:0:0:
434,76,96545,2,0,L|426:132,1,56.8749973964692,0|0,0:0|0:0,0:0:0:0:
272,252,96712,2,0,L|138:242,1,113.749994792938,12|0,0:0|0:0,0:0:0:0:
45,84,97045,2,0,L|179:74,1,113.749994792938,12|0,0:0|0:0,0:0:0:0:
189,76,97295,1,0,0:0:0:0:
189,76,97379,2,0,P|178:124|195:163,2,75.833329861959,12|0|0,0:0|0:0|0:0,0:0:0:0:
364,21,97712,6,0,L|359:156,1,113.749994792938,12|0,0:0|0:0,0:0:0:0:
181,262,98045,2,0,L|186:127,1,113.749994792938,12|0,0:0|0:0,0:0:0:0:
378,20,98379,2,0,L|373:155,1,113.749994792938,12|0,0:0|0:0,0:0:0:0:
195,261,98712,2,0,L|200:126,1,113.749994792938,12|0,0:0|0:0,0:0:0:0:
55,341,99045,6,0,L|150:329,1,56.8749973964692,12|0,0:0|0:0,0:0:0:0:
251,268,99211,2,0,L|194:260,1,56.8749973964692,0|0,0:0|0:0,0:0:0:0:
83,106,99378,2,0,L|91:219,1,113.749994792938,12|0,0:0|0:0,0:0:0:0:
242,381,99712,2,0,L|250:267,1,113.749994792938,12|0,0:0|0:0,0:0:0:0:
259,241,99961,1,0,0:0:0:0:
259,241,100045,2,0,P|307:252|346:235,2,75.833329861959,12|0|0,0:0|0:0|0:0,0:0:0:0:
177,133,100379,6,0,L|182:20,1,113.749994792938,12|0,0:0|0:0,0:0:0:0:
317,39,100712,2,0,L|313:153,1,113.749994792938,12|0,0:0|0:0,0:0:0:0:
93,221,101045,2,0,L|37:211,1,56.8749973964692,8|8,0:0|0:0,0:0:0:0:
41,199,101212,2,0,L|97:209,1,56.8749973964692,8|0,0:0|3:0,0:0:0:0:
200,271,101379,5,8,0:1:0:0:
200,271,101462,1,8,0:1:0:0:
200,271,101545,1,8,0:1:0:0:
200,271,101629,1,8,0:1:0:0:
200,271,101712,2,0,L|289:257,1,56.8749973964692,12|0,0:0|0:0,0:0:0:0:
309,182,101879,2,0,L|398:196,1,56.8749973964692,0|0,0:0|0:0,0:0:0:0:
200,280,102045,6,0,L|289:266,1,56.8749973964692,12|0,0:0|0:0,0:0:0:0:
313,168,102212,2,0,L|402:182,1,56.8749973964692,0|0,0:0|0:0,0:0:0:0:
199,290,102379,6,0,L|288:276,1,56.8749973964692,12|0,0:0|0:0,0:0:0:0:
314,160,102545,2,0,L|403:174,1,56.8749973964692,0|0,0:0|0:0,0:0:0:0:
474,270,102712,2,0,L|481:365,2,75.833329861959,12|0|0,0:0|0:0|0:0,0:0:0:0:
440,45,103045,6,0,P|367:61|336:117,1,113.749994792938,12|0,0:0|0:0,0:0:0:0:
396,236,103379,2,0,P|469:220|500:164,1,113.749994792938,12|0,0:0|0:0,0:0:0:0:
439,36,103712,2,0,P|366:52|335:108,1,113.749994792938,12|0,0:0|0:0,0:0:0:0:
401,244,104045,2,0,P|474:228|505:172,1,113.749994792938,12|0,0:0|0:0,0:0:0:0:
283,190,104379,6,0,L|276:258,1,56.8749973964692,12|0,0:0|0:0,0:0:0:0:
351,361,104545,2,0,L|345:304,1,56.8749973964692,0|0,0:0|0:0,0:0:0:0:
273,189,104712,6,0,L|266:257,1,56.8749973964692,12|0,0:0|0:0,0:0:0:0:
341,360,104878,2,0,L|335:303,1,56.8749973964692,0|0,0:0|0:0,0:0:0:0:
261,192,105045,6,0,L|254:260,1,56.8749973964692,12|0,0:0|0:0,0:0:0:0:
329,363,105211,2,0,L|323:306,1,56.8749973964692,0|0,0:0|0:0,0:0:0:0:
249,189,105379,2,0,L|153:196,2,75.833329861959,12|0|0,0:0|0:0|0:0,0:0:0:0:
368,49,105712,5,10,0:1:0:0:
250,81,105879,1,10,2:1:0:0:
368,49,106045,1,2,0:1:0:0:
250,81,106212,1,2,0:1:0:0:
399,209,106379,6,0,L|522:198,1,113.749994792938,10|2,2:1|0:1,0:0:0:0:
322,363,106712,1,10,2:1:0:0:
293,360,106795,1,8,2:0:0:0:
265,357,106878,1,10,2:1:0:0:
237,355,106961,1,8,2:0:0:0:
208,352,107045,1,6,0:1:0:0:
512,383,127712,5,2,0:1:0:0:
505,311,127879,1,2,0:1:0:0:
468,229,128045,1,2,0:1:0:0:
386,172,128212,1,2,0:1:0:0:
280,160,128379,5,6,0:1:0:0:
280,160,129045,2,0,L|286:72,1,70,10|2,0:1|0:1,0:0:0:0:
191,27,129379,2,0,L|194:79,2,35,10|10|10,0:1|0:1|0:1,0:0:0:0:
58,121,129712,6,0,P|129:121|196:234,1,210,6|0,0:1|0:0,0:0:0:0:
145,303,130379,1,2,3:1:0:0:
145,303,130545,1,0,3:0:0:0:
251,326,130712,1,10,3:1:0:0:
37,384,131045,6,0,L|21:235,1,140,6|0,0:1|0:0,0:0:0:0:
99,34,131712,2,0,L|95:84,4,35,10|8|2|0|10,3:1|3:1|3:1|3:0|3:1,0:0:0:0:
462,49,132379,6,0,B|402:38|370:82|396:112|359:184|311:171,1,210,6|0,0:1|0:0,0:0:0:0:
191,112,133045,2,0,L|187:165,7,35,10|8|2|0|2|0|2|0,0:1|0:1|3:1|3:0|3:1|3:0|3:1|3:0,0:0:0:0:
185,160,133712,5,14,0:1:0:0:
177,231,133879,1,0,0:0:0:0:
241,277,134045,1,0,0:0:0:0:
317,235,134212,5,14,0:1:0:0:
281,354,134379,1,0,0:0:0:0:
317,224,134545,1,0,0:0:0:0:
406,336,134712,5,14,0:1:0:0:
479,234,134879,1,0,0:0:0:0:
447,118,135045,1,0,0:0:0:0:
269,65,135212,5,14,0:1:0:0:
300,136,135379,1,0,0:0:0:0:
371,103,135545,1,0,0:0:0:0:
269,65,135712,5,14,0:1:0:0:
176,163,135879,1,0,0:0:0:0:
266,259,136045,1,14,0:1:0:0:
146,249,136379,6,0,P|114:293|256:333,1,280,6|0,3:1|3:0,3:3:0:0:
257,324,137129,1,0,3:0:0:0:
259,311,137212,1,0,3:0:0:0:
259,298,137295,1,0,3:0:0:0:
257,287,137379,2,0,L|294:282,1,35,0|0,3:0|3:0,0:0:0:0:
362,274,137545,2,0,L|399:269,1,35,0|0,3:0|3:0,0:0:0:0:
473,261,137712,1,14,0:1:0:0:
89,38,138712,5,10,0:1:0:0:
92,317,139045,6,0,L|83:232,1,52.4999983978272,6|0,0:2|0:0,0:0:0:0:
173,158,139212,2,0,L|160:268,1,104.999996795654,8|6,0:0|0:0,0:0:0:0:
74,321,139545,2,0,L|65:236,1,52.4999983978272,8|0,0:0|0:0,0:0:0:0:
204,337,139712,1,6,0:2:0:0:
204,337,139795,1,0,0:0:0:0:
204,337,139879,2,0,L|289:328,1,52.4999983978272,8|0,0:0|0:0,0:0:0:0:
353,309,140045,1,6,0:2:0:0:
353,309,140128,1,0,0:0:0:0:
353,309,140212,2,0,L|268:300,1,52.4999983978272,8|0,0:0|0:0,0:0:0:0:
454,293,140379,5,6,0:2:0:0:
315,130,140545,1,8,0:0:0:0:
256,331,140712,2,0,L|303:303,1,52.4999983978272,6|0,0:0|0:0,0:0:0:0:
451,202,140879,1,8,0:0:0:0:
235,206,141045,5,6,0:0:0:0:
235,206,141129,1,0,0:0:0:0:
235,206,141212,2,0,L|226:86,1,104.999996795654,8|6,0:0|0:0,0:0:0:0:
162,56,141462,1,0,0:0:0:0:
162,56,141545,2,0,L|154:119,1,52.4999983978272,8|0,0:0|0:0,0:0:0:0:
153,250,141712,5,6,0:2:0:0:
331,113,141879,2,0,L|221:100,1,104.999996795654,8|6,0:0|0:0,0:0:0:0:
153,250,142212,2,0,L|205:244,1,52.4999983978272,8|0,0:0|0:0,0:0:0:0:
290,355,142379,1,6,0:2:0:0:
290,355,142462,1,0,0:0:0:0:
290,355,142546,2,0,L|281:270,1,52.4999983978272,8|0,0:0|0:0,0:0:0:0:
363,206,142712,1,6,0:2:0:0:
363,206,142795,1,0,0:0:0:0:
363,206,142879,2,0,L|354:291,1,52.4999983978272,8|0,0:0|0:0,0:0:0:0:
467,320,143045,6,0,P|415:337|389:347,1,52.4999983978272,6|0,0:2|0:0,0:0:0:0:
353,383,143212,1,8,0:0:0:0:
236,197,143379,2,0,P|288:214|313:224,1,52.4999983978272,6|0,0:0|0:0,0:0:0:0:
357,258,143546,1,8,0:0:0:0:
469,122,143712,5,6,0:0:0:0:
469,122,143796,1,0,0:0:0:0:
469,122,143879,2,0,L|465:41,1,52.4999983978272,8|0,0:0|0:0,0:0:0:0:
386,18,144045,2,0,L|323:29,3,52.4999983978272,6|0|8|0,0:0|0:0|0:0|0:0,0:0:0:0:
308,34,144379,5,6,0:2:0:0:
198,110,144545,2,0,P|275:115|300:160,1,104.999996795654,8|6,3:0|3:0,0:0:0:0:
323,212,144879,1,8,3:0:0:0:
205,284,145045,1,6,0:2:0:0:
205,284,145129,1,0,0:0:0:0:
205,284,145212,2,0,L|198:210,1,52.4999983978272,8|0,0:0|0:0,0:0:0:0:
57,128,145379,2,0,L|52:180,1,52.4999983978272,6|0,0:2|0:0,0:0:0:0:
46,307,145545,1,8,0:0:0:0:
237,355,145712,6,0,L|306:345,1,52.4999983978272,6|0,0:2|0:0,0:0:0:0:
356,260,145879,2,0,L|304:252,1,52.4999983978272,14|0,0:2|0:0,0:0:0:0:
236,346,146045,2,0,L|305:336,1,52.4999983978272,6|0,0:2|0:0,0:0:0:0:
355,251,146212,2,0,L|303:243,1,52.4999983978272,14|0,0:2|0:0,0:0:0:0:
457,318,146379,1,6,3:2:0:0:
457,318,146462,1,0,3:0:0:0:
457,318,146545,2,0,L|450:254,1,52.4999983978272,8|0,3:0|3:0,0:0:0:0:
407,182,146712,2,0,L|414:118,3,52.4999983978272,6|0|8|0,0:0|3:0|3:0|3:0,0:0:0:0:
416,90,147045,5,6,3:2:0:0:
316,31,147212,2,0,P|250:41|225:69,1,104.999996795654,8|6,0:0|0:0,0:0:0:0:
214,95,147462,1,0,0:0:0:0:
214,95,147545,1,8,0:0:0:0:
305,226,147712,2,0,L|292:157,1,52.4999983978272,6|0,0:2|0:0,0:0:0:0:
174,200,147879,2,0,L|183:251,1,52.4999983978272,14|0,0:2|0:0,0:0:0:0:
313,224,148045,2,0,L|300:155,1,52.4999983978272,6|0,3:2|0:0,0:0:0:0:
182,198,148212,2,0,L|191:249,1,52.4999983978272,14|0,0:2|0:0,0:0:0:0:
305,347,148379,5,6,3:2:0:0:
305,347,148462,1,0,0:0:0:0:
305,347,148545,1,8,0:0:0:0:
305,347,148629,1,0,0:0:0:0:
305,347,148712,2,0,L|364:340,3,52.4999983978272,6|0|8|0,3:0|0:0|0:0|0:0,0:0:0:0:
419,384,149045,2,0,L|478:377,3,52.4999983978272,6|0|8|0,3:0|0:0|0:0|0:0,0:0:0:0:
500,304,149379,2,0,L|494:220,1,52.4999983978272,6|0,0:0|0:0,0:0:0:0:
485,141,149545,2,0,L|479:57,1,52.4999983978272,8|0,0:0|0:0,0:0:0:0:
403,18,149712,5,6,0:2:0:0:
341,125,149879,2,0,L|231:112,1,104.999996795654,8|6,0:0|0:0,0:0:0:0:
90,19,150212,2,0,L|175:10,1,52.4999983978272,8|0,0:0|0:0,0:0:0:0:
74,149,150379,1,6,0:2:0:0:
74,149,150462,1,0,0:0:0:0:
74,149,150546,2,0,L|83:234,1,52.4999983978272,8|0,0:0|0:0,0:0:0:0:
177,290,150712,1,6,0:2:0:0:
177,290,150795,1,0,0:0:0:0:
177,290,150879,2,0,L|186:205,1,52.4999983978272,8|0,0:0|0:0,0:0:0:0:
203,139,151046,5,6,0:2:0:0:
291,278,151212,1,8,0:0:0:0:
427,152,151379,2,0,L|438:220,1,52.4999983978272,6|0,0:0|0:0,0:0:0:0:
460,302,151546,1,8,0:0:0:0:
332,209,151712,5,6,0:0:0:0:
332,209,151796,1,0,0:0:0:0:
332,209,151879,2,0,L|323:89,1,104.999996795654,8|6,0:0|0:0,0:0:0:0:
272,47,152129,1,0,0:0:0:0:
272,47,152212,2,0,L|209:39,1,52.4999983978272,8|0,0:0|0:0,0:0:0:0:
150,160,152379,5,6,0:2:0:0:
24,27,152546,2,0,L|36:131,1,104.999996795654,8|6,0:0|0:0,0:0:0:0:
150,160,152879,2,0,L|156:108,1,52.4999983978272,8|0,0:0|0:0,0:0:0:0:
234,207,153046,1,6,0:2:0:0:
234,207,153129,1,0,0:0:0:0:
234,207,153213,2,0,L|225:122,1,52.4999983978272,8|0,0:0|0:0,0:0:0:0:
317,71,153379,1,6,0:2:0:0:
317,71,153462,1,0,0:0:0:0:
317,71,153546,2,0,L|308:156,1,52.4999983978272,8|0,0:0|0:0,0:0:0:0:
367,173,153712,6,0,P|419:190|445:200,1,52.4999983978272,6|0,0:2|0:0,0:0:0:0:
455,252,153879,1,8,0:0:0:0:
337,337,154045,2,0,P|285:320|259:310,1,52.4999983978272,6|0,0:0|0:0,0:0:0:0:
283,250,154212,1,8,0:0:0:0:
418,109,154379,5,6,0:0:0:0:
418,109,154463,1,0,0:0:0:0:
418,109,154546,2,0,L|414:28,1,52.4999983978272,8|0,0:0|0:0,0:0:0:0:
342,4,154712,1,6,0:0:0:0:
342,4,154796,1,0,0:0:0:0:
342,4,154879,1,8,0:0:0:0:
342,4,154962,1,0,0:0:0:0:
342,4,155046,2,0,L|249:15,1,52.4999983978272,6|0,0:2|0:0,0:0:0:0:
168,128,155212,6,0,L|294:104,1,104.999996795654,8|6,0:0|0:0,0:0:0:0:
353,154,155546,1,8,0:0:0:0:
292,278,155712,1,6,0:2:0:0:
292,278,155796,1,0,0:0:0:0:
292,278,155879,2,0,L|285:204,1,52.4999983978272,8|0,0:0|0:0,0:0:0:0:
168,128,156046,2,0,L|163:180,1,52.4999983978272,6|0,0:2|0:0,0:0:0:0:
147,277,156212,1,8,0:0:0:0:
67,61,156379,6,0,L|77:130,1,52.4999983978272,6|0,0:2|0:0,0:0:0:0:
162,180,156546,2,0,L|170:128,1,52.4999983978272,14|0,0:2|0:0,0:0:0:0:
76,60,156712,2,0,L|86:129,1,52.4999983978272,6|0,0:2|0:0,0:0:0:0:
171,179,156879,2,0,L|179:127,1,52.4999983978272,14|0,0:2|0:0,0:0:0:0:
256,80,157046,1,6,3:2:0:0:
256,80,157129,1,0,3:0:0:0:
256,80,157212,2,0,L|249:16,1,52.4999983978272,8|0,3:0|3:0,0:0:0:0:
334,106,157379,2,0,L|328:158,3,52.4999983978272,6|0|8|0,0:0|3:0|3:0|3:0,0:0:0:0:
326,188,157712,5,6,3:2:0:0:
353,75,157879,2,0,P|404:77|443:111,1,104.999996795654,8|6,0:0|0:0,0:0:0:0:
461,142,158129,1,0,0:0:0:0:
461,142,158212,1,8,0:0:0:0:
420,258,158379,5,6,0:2:0:0:
348,320,158545,1,14,0:2:0:0:
258,257,158712,1,6,0:2:0:0:
154,272,158879,1,14,0:2:0:0:
205,384,159046,5,6,0:2:0:0:
205,384,159129,1,0,0:0:0:0:
205,384,159212,1,0,0:0:0:0:
205,384,159296,1,0,0:0:0:0:
205,384,159379,2,0,L|198:325,3,52.4999983978272,0|0|0|0,0:0|0:0|0:0|0:0,0:0:0:0:
260,273,159712,2,0,L|273:143,3,104.999996795654,8|0|2|0,0:0|0:0|0:1|0:0,0:0:0:0:
200,60,160379,1,6,3:2:0:0:
293,123,171712,5,0,3:0:0:0:
272,240,171879,1,0,3:0:0:0:
251,357,172045,1,8,3:2:0:0:
18,73,172379,6,0,L|110:58,2,70,4|0|2,0:0|0:0|0:1,0:0:0:0:
208,139,172879,1,0,0:0:0:0:
197,153,173045,2,0,L|289:168,2,70,4|0|2,0:0|0:0|0:1,0:0:0:0:
387,87,173545,1,0,0:0:0:0:
394,100,173712,2,0,L|379:192,2,70,4|0|2,0:0|0:0|0:1,0:0:0:0:
460,290,174212,1,0,0:0:0:0:
444,313,174379,2,0,L|429:221,2,70,4|0|2,0:0|0:0|0:1,0:0:0:0:
510,123,174879,1,0,0:0:0:0:
347,245,175045,6,0,L|267:240,1,70,4|0,0:0|3:0,0:0:0:0:
114,175,175379,2,0,L|183:170,1,70,0|0,3:0|3:0,0:0:0:0:
333,360,175712,6,0,L|253:355,1,70,4|0,3:2|0:0,0:0:0:0:
112,271,176046,2,0,L|181:266,1,70,8|0,0:0|0:0,0:0:0:0:
485,367,176379,5,6,0:1:0:0:
485,367,177045,2,0,L|481:308,3,35,0|0|0|0,3:2|3:2|3:2|3:2,0:0:0:0:
432,272,177379,2,0,L|428:213,3,35,8|8|8|8,0:1|0:0|0:1|0:0,0:0:0:0:
372,182,177712,5,6,0:1:0:0:
480,118,177879,2,0,L|491:31,2,87.5,0|0|8,0:0|0:0|0:0,0:0:0:0:
372,182,178379,2,0,B|326:187|293:138|323:133|280:81|223:90,2,175,2|2|2,0:1|0:1|0:1,0:0:0:0:
442,290,179212,5,0,0:0:0:0:
358,307,179379,1,0,0:0:0:0:
266,320,179545,1,8,0:0:0:0:
157,261,179712,5,0,0:0:0:0:
162,376,179879,1,0,0:0:0:0:
167,272,180045,1,0,0:0:0:0:
147,365,180212,1,8,0:0:0:0:
30,174,180379,6,0,P|28:238|42:275,2,87.5,6|0|0,0:1|0:0|0:0,0:0:0:0:
132,49,180879,1,8,0:0:0:0:
195,108,181045,2,0,P|123:131|51:42,1,175,2|2,0:1|0:1,0:0:0:0:
318,32,181712,6,0,L|328:118,3,87.5,14|0|14|0,0:1|0:0|0:1|0:0,0:0:0:0:
451,103,182379,2,0,L|440:189,1,87.5,14|0,0:1|0:0,0:0:0:0:
254,221,182712,2,0,L|206:214,3,43.75,10|8|8|8,0:1|0:0|0:1|0:0,0:0:0:0:
136,239,183045,5,6,0:1:0:0:
234,298,183212,2,0,L|223:385,2,87.5,0|0|8,0:0|0:0|0:0,0:0:0:0:
328,142,183712,2,0,B|274:77|274:77|169:110,2,175,2|2|2,0:1|0:1|0:1,0:0:0:0:
68,144,184545,5,0,0:0:0:0:
139,174,184712,1,0,0:0:0:0:
187,104,184878,1,8,0:0:0:0:
268,163,185045,5,0,0:0:0:0:
263,278,185212,1,0,0:0:0:0:
258,174,185378,1,0,0:0:0:0:
278,267,185545,1,8,0:0:0:0:
388,131,185712,6,0,L|371:305,1,175,6|10,0:1|0:1,0:0:0:0:
177,332,186212,1,8,0:0:0:0:
283,384,186379,2,0,L|293:227,1,131.25,2|0,0:1|0:0,0:0:0:0:
292,224,186712,1,2,0:1:0:0:
212,256,186879,1,2,0:1:0:0:
30,77,187045,5,6,0:1:0:0:
171,46,187212,1,8,0:1:0:0:
219,171,187379,5,6,0:1:0:0:
87,137,187545,1,8,0:1:0:0:
247,92,187712,5,6,0:1:0:0:
277,235,187879,1,8,0:1:0:0:
390,162,188045,2,0,L|382:109,3,43.75,8|0|0|0,0:0|0:0|0:0|0:0,0:0:0:0:
381,90,188379,6,0,L|445:81,1,52.4999983978272,6|0,0:1|0:0,0:0:0:0:
326,237,188545,2,0,L|217:230,1,104.999996795654,8|0,0:0|0:0,0:0:0:0:
305,139,188879,1,8,0:0:0:0:
457,224,189045,6,0,L|442:392,1,157.499995193482,6|0,0:1|0:0,0:0:0:0:
348,367,189379,2,0,L|363:211,1,157.499995193482,6|0,0:1|0:0,0:0:0:0:
278,160,189712,5,6,0:1:0:0:
210,307,189879,1,8,0:0:0:0:
76,214,190045,2,0,L|141:192,2,52.4999983978272,0|0|8,0:0|0:0|0:0,0:0:0:0:
175,22,190379,6,0,L|170:75,1,52.4999983978272,0|0,0:0|0:0,0:0:0:0:
202,147,190545,1,8,0:0:0:0:
24,167,190712,6,0,L|19:115,1,52.4999983978272,0|0,0:0|0:0,0:0:0:0:
61,55,190878,1,8,0:0:0:0:
202,147,191045,6,0,L|313:138,1,104.999996795654,6|8,0:1|0:0,0:0:0:0:
417,23,191379,1,0,0:0:0:0:
512,141,191545,1,8,0:0:0:0:
404,272,191712,2,0,L|412:110,1,157.499995193482,6|0,0:1|0:0,0:0:0:0:
344,52,192045,2,0,B|316:93|316:93|334:160,1,104.999996795654,6|8,0:1|0:0,0:0:0:0:
402,282,192378,5,14,0:1:0:0:
402,299,192545,1,2,0:1:0:0:
208,353,192712,5,6,0:1:0:0:
159,240,192879,1,2,0:1:0:0:
299,153,193045,6,0,L|289:269,1,104.999996795654,14|2,0:1|0:1,0:0:0:0:
96,323,193379,2,0,L|44:335,4,52.4999983978272,14|8|8|8|6,0:1|0:0|0:1|0:0|0:1,0:0:0:0:
122,186,193879,6,0,L|117:239,1,52.4999983978272,8|0,0:0|0:0,0:0:0:0:
246,308,194045,2,0,L|241:256,1,52.4999983978272,0|0,0:0|0:0,0:0:0:0:
220,113,194212,1,8,0:0:0:0:
0,138,194379,6,0,P|43:98|109:82,1,104.999996795654,6|8,0:1|0:0,0:0:0:0:
141,185,194712,2,0,P|98:225|32:241,1,104.999996795654,6|8,0:1|0:0,0:0:0:0:
7,368,195045,6,0,L|58:382,3,52.4999983978272,6|0|8|0,0:1|0:0|0:0|0:0,0:0:0:0:
127,330,195379,2,0,L|178:316,3,52.4999983978272,0|0|8|0,0:0|0:0|0:0|0:0,0:0:0:0:
261,323,195712,6,0,L|247:272,1,52.4999983978272,0|0,0:0|0:0,0:0:0:0:
345,107,195879,2,0,L|335:223,1,104.999996795654,8|0,0:0|0:0,0:0:0:0:
404,338,196212,1,8,0:0:0:0:
426,180,196379,6,0,P|355:188|328:234,1,104.999996795654,6|0,0:1|0:0,0:0:0:0:
150,133,196712,1,10,0:1:0:0:
258,107,196879,1,10,0:1:0:0:
176,210,197045,6,0,P|137:177|86:180,1,104.999996795654,6|0,0:1|0:0,0:0:0:0:
248,355,197379,2,0,L|239:295,3,52.4999983978272,10|0|10|0,0:1|0:0|0:1|0:0,0:0:0:0:
233,273,197712,6,0,L|338:284,3,104.999996795654,6|0|0|0,0:1|0:0|0:0|0:0,0:0:0:0:
425,226,198379,1,14,0:1:0:0:
425,226,198545,1,0,0:0:0:0:
425,226,198712,1,0,0:0:0:0:
425,226,198879,1,0,0:0:0:0:
365,55,199045,5,6,0:1:0:0:
41,344,199712,5,6,0:1:0:0:
174,354,200045,1,0,3:0:0:0:
174,354,200212,1,0,3:0:0:0:
122,234,200379,1,6,0:1:0:0:
447,355,201045,5,0,3:0:0:0:
447,355,201212,1,0,3:0:0:0:
458,241,201379,1,10,3:1:0:0:
147,55,201712,5,6,0:1:0:0:
278,31,202045,1,0,0:0:0:0:
201,368,202379,5,6,0:1:0:0:
63,358,202712,1,0,0:0:0:0:
398,192,203045,5,6,0:1:0:0:
398,192,203712,2,0,L|404:236,7,35,8|8|0|0|0|0|0|0,3:1|3:1|3:0|3:0|3:0|3:0|3:0|3:0,0:0:0:0:
405,258,204379,6,0,P|361:226|268:244,1,140,6|0,0:1|0:0,0:0:0:0:
268,256,204879,1,0,0:0:0:0:
240,155,205045,2,0,P|196:187|103:169,1,140,6|0,3:1|3:0,0:0:0:0:
13,359,205712,6,0,L|224:326,1,210,6|0,3:1|0:0,0:0:0:0:
455,315,206379,1,8,0:0:0:0:
312,372,206545,1,8,0:0:0:0:
226,232,206712,1,2,3:1:0:0:
475,43,207045,6,0,L|467:190,1,140,6|0,0:1|0:0,0:0:0:0:
350,84,207545,1,0,0:0:0:0:
245,243,207712,6,0,L|323:228,1,70,6|0,0:1|0:0,0:0:0:0:
195,131,208045,2,0,L|127:118,1,70,6|0,0:1|0:0,0:0:0:0:
10,253,208379,1,6,0:1:0:0:
10,253,208712,6,0,L|-1:192,1,35,8|8,0:1|0:1,0:0:0:0:
80,339,208879,2,0,L|91:278,1,35,8|8,0:1|0:1,0:0:0:0:
172,356,209045,2,0,L|226:342,3,35,8|8|8|8,0:1|0:1|0:1|0:1,0:0:0:0:
223,345,209378,1,8,0:1:0:0:
240,343,209461,1,8,0:1:0:0:
258,343,209545,1,8,0:1:0:0:
275,346,209628,1,8,0:1:0:0:
296,348,209712,6,0,L|292:284,3,52.4999983978272,12|0|0|0,0:2|0:0|0:0|0:0,0:0:0:0:
378,249,210045,2,0,L|382:185,3,52.4999983978272,10|0|2|0,0:1|0:0|0:1|0:0,0:0:0:0:
311,92,210379,2,0,L|314:144,3,52.4999983978272,10|0|0|0,0:1|0:0|0:0|0:0,0:0:0:0:
370,195,210712,2,0,L|366:247,3,52.4999983978272,10|0|0|0,0:1|0:0|0:0|0:0,0:0:0:0:
292,295,211045,6,0,P|214:268|184:270,1,104.999996795654,10|0,0:1|0:0,0:0:0:0:
66,162,211379,2,0,P|118:158|166:136,1,104.999996795654,8|0,0:1|0:0,0:0:0:0:
279,29,211712,2,0,P|256:76|252:128,1,104.999996795654,8|0,0:1|0:0,0:0:0:0:
292,295,212045,2,8,P|262:251|219:222,1,104.999996795654,8|0,0:1|0:0,0:0:0:0:
30,327,212379,5,10,0:1:0:0:
30,327,212462,1,0,0:0:0:0:
30,327,212545,2,0,L|127:313,1,52.4999983978272,0|0,0:0|0:0,0:0:0:0:
193,384,212712,1,10,0:1:0:0:
193,384,212795,1,0,0:0:0:0:
193,384,212878,2,0,L|96:370,1,52.4999983978272,2|0,0:1|0:0,0:0:0:0:
83,236,213045,2,0,L|81:157,3,52.4999983978272,10|0|0|0,0:1|0:0|0:0|0:0,0:0:0:0:
142,135,213379,2,0,L|144:56,3,52.4999983978272,10|0|0|0,0:1|0:0|0:0|0:0,0:0:0:0:
206,24,213712,5,10,0:1:0:0:
206,24,213795,1,0,0:0:0:0:
206,24,213879,1,0,0:0:0:0:
206,24,213962,1,0,0:0:0:0:
206,24,214045,2,0,L|268:17,1,52.4999983978272,8|0,0:1|0:0,0:0:0:0:
345,94,214212,2,0,L|292:88,1,52.4999983978272,0|0,0:0|0:0,0:0:0:0:
420,35,214379,1,8,0:1:0:0:
420,35,214462,1,8,0:1:0:0:
420,35,214545,2,0,L|427:89,5,52.4999983978272,0|0|8|0|0|0,0:0|0:0|0:1|0:0|0:0|0:0,0:0:0:0:
499,140,215045,6,0,L|493:215,1,52.4999983978272,14|0,0:1|0:0,0:0:0:0:
438,243,215212,2,0,L|444:318,1,52.4999983978272,0|0,0:0|0:0,0:0:0:0:
493,139,215379,2,0,L|487:214,1,52.4999983978272,10|0,0:1|0:0,0:0:0:0:
432,242,215546,2,0,L|438:317,1,52.4999983978272,2|0,0:1|0:0,0:0:0:0:
377,366,215712,2,0,L|310:360,3,52.4999983978272,10|0|0|0,0:1|0:0|0:0|0:0,0:0:0:0:
258,307,216045,2,0,L|191:313,3,52.4999983978272,10|0|0|0,0:1|0:0|0:0|0:0,0:0:0:0:
114,264,216379,6,0,L|108:197,1,52.4999983978272,10|0,0:1|0:0,0:0:0:0:
194,87,216545,1,0,0:0:0:0:
194,87,216629,1,0,0:0:0:0:
194,87,216712,2,0,L|189:139,3,52.4999983978272,8|0|0|0,0:1|0:0|0:0|0:0,0:0:0:0:
219,219,217045,2,0,L|371:202,1,104.999996795654,10|0,0:1|0:0,0:0:0:0:
457,86,217379,2,0,L|352:74,1,104.999996795654,8|0,0:1|0:0,0:0:0:0:
312,73,217629,1,0,0:0:0:0:
312,73,217712,2,0,P|333:124|327:188,1,104.999996795654,14|0,0:1|0:0,0:0:0:0:
230,302,218045,6,0,L|315:285,1,52.4999983978272,10|0,0:1|0:0,0:0:0:0:
340,383,218212,2,0,L|255:366,1,52.4999983978272,2|0,0:1|0:0,0:0:0:0:
197,293,218379,2,0,L|323:269,1,104.999996795654,14|0,0:1|0:0,0:0:0:0:
116,360,218712,2,0,P|92:322|97:259,1,104.999996795654,10|2,0:1|0:1,0:0:0:0:
100,242,218962,1,0,0:0:0:0:
112,224,219045,2,0,L|117:163,7,52.4999983978272,8|0|0|0|0|0|0|0,0:1|0:0|0:0|0:0|0:0|0:0|0:0|0:0,0:0:0:0:
173,115,219712,2,0,L|168:54,3,52.4999983978272,8|8|0|0,0:1|0:1|0:0|0:0,0:0:0:0:
247,53,220045,2,0,L|251:105,3,52.4999983978272,0|0|0|0,0:0|0:0|0:0|0:0,0:0:0:0:
332,144,220379,6,0,L|450:130,1,104.999996795654,12|0,0:2|0:0,0:0:0:0:
256,280,220712,1,12,0:0:0:0:
256,104,220879,1,0,0:0:0:0:
180,144,221045,2,0,L|62:130,1,104.999996795654,12|0,0:0|0:0,0:0:0:0:
12,300,221379,5,12,0:0:0:0:
128,220,221545,1,0,0:0:0:0:
200,364,221712,2,0,P|148:324|100:324,1,104.999996795654,12|0,0:0|0:0,0:0:0:0:
263,246,222045,2,0,P|314:238|352:203,1,104.999996795654,12|0,0:0|0:0,0:0:0:0:
202,379,222379,2,0,P|150:339|102:339,1,104.999996795654,12|0,0:0|0:0,0:0:0:0:
265,261,222712,2,0,P|316:253|354:218,1,104.999996795654,12|0,0:0|0:0,0:0:0:0:
446,77,223045,6,0,L|383:73,1,52.4999983978272,12|0,0:0|0:0,0:0:0:0:
310,5,223212,1,0,0:0:0:0:
310,5,223295,1,0,0:0:0:0:
310,5,223379,2,0,L|306:68,1,52.4999983978272,12|0,0:0|0:0,0:0:0:0:
215,192,223545,2,0,L|211:139,1,52.4999983978272,0|0,0:0|0:0,0:0:0:0:
94,63,223712,2,0,L|222:43,1,104.999996795654,12|0,0:0|0:0,0:0:0:0:
314,156,224045,2,0,L|210:139,1,104.999996795654,12|0,0:0|0:0,0:0:0:0:
60,274,224379,6,0,L|130:262,3,52.4999983978272,12|0|0|0,0:0|0:0|0:0|0:0,0:0:0:0:
129,350,224712,2,0,L|199:338,3,52.4999983978272,12|0|0|0,0:0|0:0|0:0|0:0,0:0:0:0:
244,252,225045,1,8,0:1:0:0:
253,276,225129,1,0,0:1:0:0:
262,301,225212,1,0,0:0:0:0:
271,325,225295,1,0,0:0:0:0:
282,351,225379,2,0,L|352:339,3,52.4999983978272,8|0|0|0,0:0|0:0|0:0|0:0,0:0:0:0:
420,370,225712,6,0,L|429:242,1,104.999996795654,12|0,0:2|0:0,0:0:0:0:
274,96,226045,1,12,0:0:0:0:
307,227,226212,1,0,0:0:0:0:
402,47,226379,5,12,0:0:0:0:
387,190,226546,1,0,0:0:0:0:
190,178,226712,5,12,0:0:0:0:
351,113,226879,1,0,0:0:0:0:
348,293,227045,6,0,L|224:308,1,104.999996795654,12|0,0:0|0:0,0:0:0:0:
85,165,227379,2,0,L|209:180,1,104.999996795654,12|0,0:0|0:0,0:0:0:0:
103,376,227712,2,0,P|81:328|107:268,1,104.999996795654,12|0,0:0|0:0,0:0:0:0:
106,265,227962,1,0,0:0:0:0:
126,259,228045,1,12,0:0:0:0:
189,177,228212,1,0,0:0:0:0:
70,61,228379,6,0,L|86:176,1,104.999996795654,12|0,0:0|0:0,0:0:0:0:
21,211,228629,1,0,0:0:0:0:
21,211,228712,2,0,L|5:326,1,104.999996795654,12|0,0:0|0:0,0:0:0:0:
163,369,229045,2,0,L|226:358,3,52.4999983978272,12|0|0|0,0:0|0:0|0:0|0:0,0:0:0:0:
261,299,229379,2,0,L|324:288,3,52.4999983978272,12|0|0|0,0:0|0:0|0:0|0:0,0:0:0:0:
388,339,229712,6,0,L|397:275,1,52.4999983978272,12|0,0:0|0:0,0:0:0:0:
413,209,229879,2,0,L|422:145,1,52.4999983978272,0|0,0:0|0:0,0:0:0:0:
280,107,230045,6,0,L|289:171,1,52.4999983978272,12|0,0:0|0:0,0:0:0:0:
305,237,230212,2,0,L|314:301,1,52.4999983978272,0|0,0:0|0:0,0:0:0:0:
161,358,230379,5,12,0:0:0:0:
136,366,230462,1,0,0:0:0:0:
110,366,230545,1,0,0:0:0:0:
85,357,230629,1,0,0:0:0:0:
64,342,230712,1,12,0:0:0:0:
49,320,230795,1,0,0:0:0:0:
42,295,230879,1,0,0:0:0:0:
43,269,230962,1,0,0:0:0:0:
52,245,231045,1,6,0:1:0:0:
473,31,231712,5,8,0:0:0:0:
473,31,231795,1,8,0:0:0:0:
473,31,231879,1,8,0:0:0:0:
466,114,232045,1,8,0:1:0:0:
460,212,232212,1,8,3:1:0:0:
304,9,232379,5,6,0:1:0:0:
