osu file format v14

[General]
AudioFilename: audio.mp3
AudioLeadIn: 0
PreviewTime: 138045
Countdown: 0
SampleSet: Soft
StackLeniency: 0.4
Mode: 0
LetterboxInBreaks: 0
WidescreenStoryboard: 1

[Editor]
Bookmarks: 393,6045,6378,11037,12712,21704,32371,42045,43037,53704,64371,75037,85704,96371,107037,117704,128371,139037,145378,149704,160371,165045,172371,177704,188371,199045,209704,219878,220371,231037
DistanceSpacing: 1.2
BeatDivisor: 4
GridSize: 4
TimelineZoom: 1.8

[Metadata]
Title:With Fire and Sword (2013)
TitleUnicode:With Fire and Sword (2013)
Artist:Loki
ArtistUnicode:Loki
Creator:Daycore
Version:neonat's Extra
Source:osu!
Tags:thaehan rock metal symphonic tales of the moutains fa featured artist mappers' guild neonat taeyang wenect unranked_mapper shmiklak marvollo m_a_r_v_o_l_l_o
BeatmapID:2157587
BeatmapSetID:963872

[Difficulty]
HPDrainRate:5
CircleSize:4
OverallDifficulty:8.4
ApproachRate:9
SliderMultiplier:1.9
SliderTickRate:1

[Events]
//Background and Video events
0,0,"with fire and sword.jpg",0,0
//Break Periods
2,107245,117112
//Storyboard Layer 0 (Background)
//Storyboard Layer 1 (Fail)
//Storyboard Layer 2 (Pass)
//Storyboard Layer 3 (Foreground)
//Storyboard Layer 4 (Overlay)
//Storyboard Sound Samples

[TimingPoints]
379,333.333333333333,4,2,1,60,1,0
379,-100,4,2,1,60,0,0
2378,-133.333333333333,4,2,1,60,0,0
2628,-133.333333333333,4,2,1,5,0,0
2712,-100,4,2,1,60,0,0
7712,-133.333333333333,4,2,1,60,0,0
7962,-133.333333333333,4,2,1,5,0,0
8045,-100,4,2,1,60,0,0
11045,-90.9090909090909,4,2,1,65,0,1
21712,-100,4,2,1,60,0,0
32378,-90.9090909090909,4,2,1,65,0,1
43045,-133.333333333333,4,2,1,60,0,0
45211,-100,4,2,1,60,0,0
45378,-100,4,2,1,50,0,0
45461,-100,4,2,1,60,0,0
48379,-133.333333333333,4,2,1,50,0,0
49045,-133.333333333333,4,2,1,60,0,0
51045,-100,4,2,1,60,0,0
53712,-133.333333333333,4,2,1,60,0,0
55045,-133.333333333333,4,2,1,60,0,0
56045,-100,4,2,1,60,0,0
59045,-133.333333333333,4,2,1,60,0,0
61712,-100,4,2,1,60,0,0
66212,-100,4,2,1,50,0,0
66378,-100,4,2,1,60,0,0
68878,-100,4,2,1,50,0,0
69045,-100,4,2,1,60,0,0
71545,-100,4,2,1,50,0,0
71712,-100,4,2,1,60,0,0
76712,-100,4,2,1,50,0,0
77045,-100,4,2,1,60,0,0
80712,-100,4,2,1,50,0,0
80878,-100,4,2,1,60,0,0
82212,-100,4,2,1,50,0,0
82378,-100,4,2,1,60,0,0
85712,-90.9090909090909,4,2,1,65,0,1
96378,-90.9090909090909,4,2,1,60,0,1
96545,-90.9090909090909,4,2,1,65,0,1
107045,-100,4,2,1,60,0,0
119628,-100,4,2,1,5,0,0
119712,-100,4,2,1,60,0,0
120295,-100,4,2,1,5,0,0
120378,-100,4,2,1,60,0,0
129712,-133.333333333333,4,2,1,60,0,0
138712,-111.111111111111,4,2,1,60,0,0
138962,-111.111111111111,4,2,1,5,0,0
139045,-90.9090909090909,4,2,1,65,0,1
144628,-90.9090909090909,4,2,1,5,0,1
144712,-90.9090909090909,4,2,1,65,0,1
155295,-90.9090909090909,4,2,1,5,0,1
155378,-90.9090909090909,4,2,1,65,0,1
160378,-100,4,2,1,60,0,0
166461,-100,4,2,1,50,0,0
166712,-100,4,2,1,60,0,0
166878,-100,4,2,1,50,0,0
167045,-100,4,2,1,60,0,0
167795,-100,4,2,1,50,0,0
167878,-100,4,2,1,60,0,0
167962,-100,4,2,1,50,0,0
168045,-100,4,2,1,60,0,0
168211,-100,4,2,1,50,0,0
168378,-100,4,2,1,60,0,0
171128,-100,4,2,1,50,0,0
172045,-100,4,2,1,60,0,0
176961,-100,4,2,1,50,0,0
177045,-100,4,2,1,60,0,0
199045,-133.333333333333,4,2,1,60,0,0
201628,-133.333333333333,4,2,1,5,0,0
201712,-133.333333333333,4,2,1,60,0,0
208462,-133.333333333333,4,2,1,50,0,0
209545,-133.333333333333,4,2,1,60,0,0
209712,-90.9090909090909,4,2,1,65,0,1
231045,-100,4,2,1,60,0,0

[Colours]
Combo1 : 212,212,212
Combo2 : 255,128,0
Combo3 : 128,64,64

[HitObjects]
96,264,379,5,6,3:2:0:0:
96,264,545,1,2,0:0:0:0:
198,243,712,2,0,L|227:147,1,95,2|2,0:0|0:0,0:0:0:0:
283,51,1045,2,0,L|310:141,1,95,2|2,0:0|0:0,0:0:0:0:
192,56,1378,2,0,L|88:52,2,63.3333333333333,2|2|2,0:0|0:0|0:0,0:0:0:0:
420,64,1712,5,6,3:2:0:0:
420,64,1878,1,2,0:0:0:0:
448,164,2045,2,0,L|424:264,1,95,2|2,0:0|0:0,0:0:0:0:
304,120,2378,2,0,L|184:136,1,106.875004076958,14|0,3:2|3:0,0:0:0:0:
176,140,2712,1,2,3:0:0:0:
156,156,2795,1,0,3:0:0:0:
144,176,2878,1,10,3:0:0:0:
140,200,2962,1,8,3:0:0:0:
144,224,3045,5,6,3:2:0:0:
16,40,3378,2,0,L|24:156,1,95,2|2,0:0|0:0,0:0:0:0:
52,296,3712,2,0,L|60:180,1,95,2|2,0:0|0:0,0:0:0:0:
112,64,4045,2,0,L|184:32,2,63.3333333333333,2|2|2,0:0|0:0|0:0,0:0:0:0:
152,176,4378,5,6,3:2:0:0:
152,176,4545,1,2,0:0:0:0:
240,120,4712,2,0,L|348:124,1,95,2|2,0:0|0:0,0:0:0:0:
464,196,5045,1,14,3:2:0:0:
464,196,5128,1,8,3:2:0:0:
464,196,5212,1,8,3:2:0:0:
364,280,5378,1,10,3:2:0:0:
364,280,5462,1,8,3:2:0:0:
364,280,5545,1,10,3:0:0:0:
364,280,5628,1,8,3:0:0:0:
364,280,5712,6,0,L|264:292,1,95,6|0,3:2|0:0,0:0:0:0:
124,340,6045,2,0,L|218:351,1,95,2|2,0:0|0:0,0:0:0:0:
124,216,6378,2,0,L|12:228,1,95,2|2,0:0|0:0,0:0:0:0:
176,124,6712,2,0,L|196:60,2,63.3333333333333,2|2|2,0:0|0:0|0:0,0:0:0:0:
212,232,7045,5,6,3:2:0:0:
212,232,7212,1,2,0:0:0:0:
312,204,7378,2,0,L|300:108,1,95,2|2,0:0|0:0,0:0:0:0:
432,40,7712,2,0,L|420:172,1,106.875004076958,14|0,3:2|0:0,0:0:0:0:
420,172,8045,1,2,3:0:0:0:
416,196,8128,1,0,3:0:0:0:
412,220,8212,1,10,3:0:0:0:
408,244,8295,1,8,3:0:0:0:
404,268,8378,5,6,3:2:0:0:
116,232,8712,2,0,L|96:120,1,95,2|2,0:0|0:0,0:0:0:0:
224,72,9045,2,0,L|204:184,1,95,2|2,0:0|0:0,0:0:0:0:
120,48,9378,2,0,L|48:32,2,63.3333333333333,2|2|2,0:0|0:0|0:0,0:0:0:0:
300,32,9712,5,6,3:2:0:0:
280,208,9878,1,8,3:2:0:0:
144,120,10045,1,2,3:0:0:0:
360,96,10212,1,10,3:0:0:0:
120,48,10378,1,8,3:2:0:0:
240,208,10545,1,2,3:0:0:0:
292,20,10712,1,10,3:2:0:0:
324,20,10795,1,8,3:2:0:0:
356,20,10878,1,8,3:2:0:0:
388,20,10962,1,8,3:2:0:0:
424,20,11045,6,0,L|448:80,3,52.2500015945435,12|0|0|0,3:2|3:0|3:0|3:0,0:0:0:0:
368,108,11378,2,0,L|344:168,3,52.2500015945435,8|0|0|0,3:2|3:0|3:0|3:0,0:0:0:0:
424,196,11712,1,8,3:2:0:0:
440,228,11795,1,0,3:0:0:0:
440,264,11878,1,0,3:0:0:0:
432,300,11962,1,0,3:0:0:0:
412,328,12045,2,0,L|344:332,1,52.2500015945435,8|0,3:2|3:0,0:0:0:0:
304,256,12212,2,0,L|244:256,1,52.2500015945435,0|0,3:0|3:0,0:0:0:0:
160,200,12378,6,0,L|168:144,3,52.2500015945435,8|0|0|0,3:2|3:0|3:0|3:0,0:0:0:0:
68,120,12712,2,0,L|76:176,3,52.2500015945435,8|0|0|0,3:2|3:0|3:0|3:0,0:0:0:0:
144,56,13045,2,0,P|200:64|264:44,1,104.500003189087,8|0,3:2|3:0,0:0:0:0:
262,197,13378,2,0,P|206:189|142:209,1,104.500003189087,8|0,3:2|3:0,0:0:0:0:
76,292,13712,6,0,L|88:348,3,52.2500015945435,8|0|0|0,3:2|3:0|3:0|3:0,0:0:0:0:
164,304,14045,2,0,L|174:355,3,52.2500015945435,8|0|0|0,3:2|3:0|3:0|3:0,0:0:0:0:
260,360,14378,1,8,3:2:0:0:
296,360,14462,1,0,3:0:0:0:
332,356,14545,1,0,3:0:0:0:
368,348,14628,1,0,3:0:0:0:
400,332,14712,2,0,L|412:264,1,52.2500015945435,8|0,3:2|3:0,0:0:0:0:
344,216,14878,2,0,L|348:156,1,52.2500015945435,0|0,3:0|3:0,0:0:0:0:
408,92,15045,6,0,L|472:104,3,52.2500015945435,8|0|0|0,3:2|3:0|3:0|3:0,0:0:0:0:
352,24,15378,2,0,L|288:36,3,52.2500015945435,8|0|0|0,3:2|3:0|3:0|3:0,0:0:0:0:
196,60,15712,2,0,L|184:140,1,52.2500015945435,8|8,3:2|3:2,0:0:0:0:
72,64,15878,2,0,L|84:144,1,52.2500015945435,0|0,3:0|3:0,0:0:0:0:
148,212,16045,1,8,3:0:0:0:
172,240,16128,1,8,3:0:0:0:
180,276,16212,1,8,3:0:0:0:
172,312,16295,1,8,3:0:0:0:
148,340,16378,6,0,L|88:348,3,52.2500015945435,12|0|0|0,3:2|3:0|3:0|3:0,0:0:0:0:
72,264,16712,2,0,L|12:272,3,52.2500015945435,12|0|0|0,3:2|3:0|3:0|3:0,0:0:0:0:
48,180,17045,1,12,3:2:0:0:
84,172,17128,1,0,3:0:0:0:
120,164,17212,1,0,3:0:0:0:
156,156,17295,1,0,3:0:0:0:
192,148,17378,2,0,L|264:156,1,52.2500015945435,12|0,3:2|3:0,0:0:0:0:
280,236,17545,2,0,L|331:230,1,52.2500015945435,0|0,3:0|3:0,0:0:0:0:
408,168,17712,6,0,L|416:104,3,52.2500015945435,12|0|0|0,3:2|3:0|3:0|3:0,0:0:0:0:
336,76,18045,2,0,L|328:12,3,52.2500015945435,12|0|0|0,3:2|3:0|3:0|3:0,0:0:0:0:
456,36,18378,2,0,P|500:84|492:156,1,104.500003189087,12|0,3:2|3:0,0:0:0:0:
364,248,18712,2,0,P|320:200|328:128,1,104.500003189087,12|0,3:2|3:0,0:0:0:0:
484,248,19045,6,0,L|480:308,3,52.2500015945435,12|0|0|0,3:2|3:0|3:0|3:0,0:0:0:0:
404,368,19378,2,0,L|404:304,3,52.2500015945435,12|0|0|0,3:2|3:0|3:0|3:0,0:0:0:0:
300,336,19712,1,12,3:2:0:0:
264,328,19795,1,0,3:0:0:0:
228,328,19878,1,0,3:0:0:0:
192,340,19962,1,0,3:0:0:0:
164,360,20045,2,0,L|100:352,1,52.2500015945435,12|0,3:2|3:0,0:0:0:0:
24,272,20212,2,0,L|96:280,1,52.2500015945435,0|0,3:0|3:0,0:0:0:0:
204,232,20378,5,12,3:2:0:0:
248,28,20545,1,8,3:2:0:0:
284,96,20712,1,8,3:0:0:0:
324,32,20878,1,0,3:0:0:0:
288,252,21045,1,8,3:2:0:0:
144,88,21212,1,0,3:0:0:0:
396,116,21378,1,8,3:2:0:0:
396,116,21462,1,8,3:2:0:0:
396,116,21545,1,8,3:2:0:0:
396,116,21628,1,8,3:2:0:0:
396,116,21712,6,0,L|392:232,1,95,6|8,3:2|3:2,0:0:0:0:
304,320,22045,1,0,3:0:0:0:
304,320,22212,1,8,3:2:0:0:
208,216,22378,2,0,L|204:121,1,95,2|8,3:2|3:2,0:0:0:0:
432,120,22712,2,0,L|428:215,1,95,2|8,3:2|3:2,0:0:0:0:
244,44,23045,5,2,3:2:0:0:
296,232,23212,1,8,3:2:0:0:
324,72,23378,1,0,3:0:0:0:
212,188,23545,1,8,3:2:0:0:
388,148,23712,1,0,3:0:0:0:
232,116,23878,1,8,3:2:0:0:
276,272,24045,1,0,3:0:0:0:
352,52,24212,1,8,3:2:0:0:
372,48,24295,1,0,3:0:0:0:
392,44,24378,6,0,P|456:72|480:104,1,95,6|8,3:2|3:2,0:0:0:0:
311,161,24712,2,0,P|247:133|223:101,1,95,0|8,3:0|3:2,0:0:0:0:
424,188,25045,2,0,B|440:236|440:236|424:308,1,95,2|8,3:2|3:2,0:0:0:0:
204,240,25378,2,0,B|252:256|252:256|316:232,1,95,2|8,3:2|3:2,0:0:0:0:
216,48,25712,5,14,3:2:0:0:
132,196,25878,1,0,3:0:0:0:
324,156,26045,1,12,3:2:0:0:
132,116,26212,1,2,3:2:0:0:
348,28,26378,1,14,3:2:0:0:
256,236,26545,1,0,3:0:0:0:
152,36,26712,1,8,3:2:0:0:
124,32,26795,1,8,3:2:0:0:
96,28,26878,1,10,3:2:0:0:
68,28,26962,1,8,3:2:0:0:
40,32,27045,6,0,B|16:88|16:88|16:140,1,95,6|8,3:2|3:2,0:0:0:0:
103,234,27378,1,0,3:0:0:0:
103,234,27545,1,8,3:2:0:0:
201,130,27712,2,0,B|264:139|264:139|326:114,1,95,2|8,3:2|3:2,0:0:0:0:
103,234,28045,2,0,B|40:225|40:225|-22:250,1,95,2|8,3:2|3:2,0:0:0:0:
152,63,28378,5,2,3:2:0:0:
183,211,28545,1,8,3:2:0:0:
54,147,28712,1,0,3:0:0:0:
174,72,28878,1,8,3:2:0:0:
116,253,29045,1,0,3:0:0:0:
136,55,29212,1,8,3:2:0:0:
219,192,29378,1,0,3:0:0:0:
28,222,29545,1,8,3:2:0:0:
20,239,29628,1,0,3:0:0:0:
13,257,29712,6,0,P|5:311|37:356,1,95,6|0,3:2|3:0,3:0:0:0:
217,277,30045,1,10,3:2:0:0:
81,292,30212,1,10,3:2:0:0:
268,201,30378,2,0,P|283:149|260:93,1,95,2|8,3:2|3:2,0:0:0:0:
77,63,30712,1,10,3:0:0:0:
198,152,30878,1,10,3:0:0:0:
329,42,31045,5,4,3:2:0:0:
447,121,31212,1,0,3:0:0:0:
457,154,31295,1,0,3:0:0:0:
459,190,31378,1,4,3:2:0:0:
452,225,31462,1,0,3:0:0:0:
437,257,31545,1,0,3:0:0:0:
297,228,31712,2,0,B|252:213|252:242|190:224,1,95,4|0,3:2|3:0,0:0:0:0:
88,143,32045,1,8,3:2:0:0:
55,146,32128,1,4,3:0:0:0:
35,173,32212,1,4,3:0:0:0:
34,206,32295,1,4,3:0:0:0:
61,230,32378,6,0,P|84:275|65:346,1,104.500003189087,6|8,3:2|3:2,0:0:0:0:
66,338,32628,1,0,3:0:0:0:
55,349,32712,2,0,L|121:368,3,52.2500015945435,0|0|8|0,3:0|3:0|3:2|3:0,0:0:0:0:
185,308,33045,2,0,L|249:295,3,52.2500015945435,6|0|8|0,3:2|3:0|3:2|3:0,0:0:0:0:
307,366,33378,2,0,L|369:376,3,52.2500015945435,6|0|8|0,3:2|3:0|3:2|3:0,0:0:0:0:
450,308,33712,6,0,P|481:258|456:177,1,104.500003189087,6|8,3:2|3:2,0:0:0:0:
468,202,33962,1,0,3:0:0:0:
458,189,34045,2,0,L|454:128,2,52.2500015945435,0|0|8,3:0|3:0|3:2,0:0:0:0:
309,246,34378,1,0,3:0:0:0:
382,97,34545,1,8,3:2:0:0:
382,97,34628,1,0,3:0:0:0:
382,97,34712,2,0,L|401:39,2,52.2500015945435,0|0|8,3:0|3:0|3:2,0:0:0:0:
229,227,35045,6,0,B|165:231|165:231|84:207,1,104.500003189087,6|8,3:2|3:2,0:0:0:0:
112,211,35295,1,0,3:0:0:0:
98,203,35378,2,0,L|40:167,3,52.2500015945435,0|0|8|0,3:0|3:0|3:2|3:0,0:0:0:0:
59,291,35712,2,0,L|34:345,3,52.2500015945435,6|0|8|0,3:2|3:0|3:2|3:0,0:0:0:0:
158,291,36045,2,0,L|176:351,3,52.2500015945435,6|0|8|0,3:2|3:0|3:2|3:0,0:0:0:0:
266,366,36378,5,14,3:2:0:0:
364,243,36545,1,0,3:0:0:0:
208,220,36712,1,12,3:2:0:0:
278,359,36878,1,2,3:2:0:0:
287,149,37045,1,14,3:2:0:0:
186,332,37212,1,0,3:0:0:0:
394,329,37378,1,8,3:2:0:0:
403,324,37462,1,8,3:2:0:0:
412,319,37545,1,8,3:2:0:0:
421,314,37628,1,8,3:2:0:0:
430,309,37712,6,0,P|456:244|452:180,1,104.500003189087,6|8,3:2|3:2,0:0:0:0:
455,199,37962,1,0,3:0:0:0:
452,188,38045,2,0,L|462:128,3,52.2500015945435,0|0|8|0,3:0|3:0|3:2|3:0,0:0:0:0:
371,69,38378,2,0,L|371:157,3,52.2500015945435,6|0|8|0,3:2|3:0|3:2|3:0,0:0:0:0:
270,66,38712,2,0,L|286:4,3,52.2500015945435,6|0|8|0,3:2|3:0|3:2|3:0,0:0:0:0:
178,99,39045,6,0,P|118:111|62:88,1,104.500003189087,6|8,3:2|3:2,0:0:0:0:
68,92,39295,1,0,3:0:0:0:
61,83,39378,2,0,L|12:130,2,52.2500015945435,0|0|8,3:0|3:0|3:2,0:0:0:0:
250,141,39712,1,0,3:0:0:0:
257,160,39795,1,0,3:0:0:0:
259,180,39878,1,8,3:2:0:0:
256,200,39962,1,0,3:0:0:0:
247,219,40045,1,0,3:0:0:0:
227,243,40128,1,0,3:0:0:0:
213,271,40212,1,8,3:2:0:0:
211,302,40295,1,0,3:0:0:0:
225,329,40378,6,0,P|270:349|339:310,1,104.500003189087,6|8,3:2|3:2,0:0:0:0:
298,77,40712,1,10,3:2:0:0:
180,178,40878,1,10,3:2:0:0:
431,232,41045,1,6,3:2:0:0:
373,89,41212,1,8,3:2:0:0:
341,258,41378,1,10,3:0:0:0:
340,279,41462,1,4,3:0:0:0:
337,299,41545,1,2,3:2:0:0:
335,319,41628,1,0,3:0:0:0:
330,339,41712,6,0,B|272:347|272:347|217:341,1,104.500003189087,6|0,3:2|3:0,0:0:0:0:
99,262,41962,1,0,3:0:0:0:
99,262,42045,2,0,B|157:254|157:254|212:260,1,104.500003189087,0|0,3:0|3:0,0:0:0:0:
376,182,42378,1,12,3:2:0:0:
298,70,42545,1,0,3:0:0:0:
168,113,42712,1,0,3:0:0:0:
246,225,42878,1,0,3:0:0:0:
298,70,43045,5,4,3:2:0:0:
298,70,43712,1,8,3:2:0:0:
342,150,43878,1,0,3:0:0:0:
352,242,44045,1,8,3:0:0:0:
325,330,44212,1,0,3:0:0:0:
247,206,44378,5,4,3:2:0:0:
247,206,45212,1,0,3:0:0:0:
103,93,45378,1,8,3:2:0:0:
103,93,45462,1,8,3:2:0:0:
103,93,45545,1,8,3:2:0:0:
103,93,45628,1,8,3:2:0:0:
103,93,45712,6,0,L|84:209,1,95,4|8,3:2|3:2,0:0:0:0:
66,318,46045,1,0,3:0:0:0:
10,149,46212,1,8,3:2:0:0:
189,134,46378,2,0,L|208:250,1,95,0|8,3:0|3:2,0:0:0:0:
226,359,46712,1,0,3:0:0:0:
301,191,46878,1,8,3:2:0:0:
133,249,47045,5,0,3:0:0:0:
260,288,47212,1,8,3:2:0:0:
287,158,47378,1,0,3:0:0:0:
160,119,47545,1,8,3:2:0:0:
146,115,47628,1,0,3:0:0:0:
131,113,47712,2,0,B|79:125|79:125|30:125,1,95,0|8,3:0|3:2,0:0:0:0:
247,57,48045,1,8,3:2:0:0:
279,63,48128,1,8,3:0:0:0:
312,67,48212,1,0,3:0:0:0:
343,76,48295,1,0,3:0:0:0:
375,82,48378,5,4,3:2:0:0:
375,82,49045,1,8,3:2:0:0:
343,243,49212,1,0,3:0:0:0:
294,51,49378,1,8,3:2:0:0:
396,179,49545,1,8,3:0:0:0:
396,179,49628,1,8,3:0:0:0:
396,179,49712,6,0,B|435:206|474:185|474:185|510:257|460:297|412:270,1,213.750008153916,4|0,3:2|3:0,0:0:0:0:
318,266,50378,2,0,L|328:369,1,71.2500027179719,0|0,3:0|3:0,0:0:0:0:
220,289,50712,2,0,L|230:392,1,71.2500027179719,0|8,3:0|3:2,0:0:0:0:
126,274,51045,6,0,L|103:332,3,47.5,4|0|8|0,3:2|3:0|3:2|3:0,0:0:0:0:
57,208,51378,2,0,L|0:232,3,47.5,0|0|8|0,3:0|3:0|3:2|3:0,0:0:0:0:
66,109,51712,1,0,3:0:0:0:
86,97,51795,1,0,3:0:0:0:
109,89,51878,1,8,3:2:0:0:
132,84,51962,1,0,3:0:0:0:
155,82,52045,1,0,3:0:0:0:
179,83,52128,1,0,3:0:0:0:
202,87,52212,1,8,3:2:0:0:
225,95,52295,1,0,3:0:0:0:
248,108,52378,6,0,L|273:173,1,47.5,0|0,3:0|3:0,0:0:0:0:
339,118,52545,2,0,L|364:183,1,47.5,8|0,3:2|3:0,0:0:0:0:
294,230,52712,2,0,L|269:295,1,47.5,0|0,3:0|3:0,0:0:0:0:
203,240,52878,2,0,L|178:305,1,47.5,8|0,3:2|3:0,0:0:0:0:
386,323,53045,5,8,3:2:0:0:
420,307,53128,1,8,3:2:0:0:
448,281,53212,1,8,3:0:0:0:
468,249,53295,1,8,3:0:0:0:
477,212,53378,1,0,3:0:0:0:
475,174,53462,1,0,3:0:0:0:
462,139,53545,1,0,3:0:0:0:
440,108,53628,1,0,3:0:0:0:
416,91,53712,5,4,3:2:0:0:
416,91,54378,1,8,3:2:0:0:
319,63,54545,1,0,3:0:0:0:
220,82,54712,1,8,3:0:0:0:
143,145,54878,1,0,3:0:0:0:
297,222,55045,5,4,3:2:0:0:
297,222,55878,1,0,3:0:0:0:
429,149,56045,1,8,3:2:0:0:
436,132,56128,1,8,3:2:0:0:
444,116,56212,1,8,3:2:0:0:
452,100,56295,1,8,3:2:0:0:
460,84,56378,6,0,B|440:40|440:40|436:-12,1,95,4|8,3:2|3:2,0:0:0:0:
312,40,56712,1,0,3:0:0:0:
508,172,56878,1,8,3:2:0:0:
396,244,57045,2,0,B|344:252|344:252|272:236,1,95,4|8,3:2|3:2,0:0:0:0:
116,140,57378,2,0,B|168:132|168:132|240:148,1,95,4|8,3:2|3:2,0:0:0:0:
352,328,57712,6,0,L|460:312,1,95,4|8,3:2|3:2,0:0:0:0:
492,188,58045,1,0,3:0:0:0:
512,352,58212,1,8,3:2:0:0:
396,244,58378,1,0,3:0:0:0:
296,380,58545,1,8,3:2:0:0:
196,244,58712,1,8,3:2:0:0:
176,240,58795,1,8,3:0:0:0:
156,236,58878,1,0,3:0:0:0:
136,232,58962,1,0,3:0:0:0:
120,228,59045,5,4,3:2:0:0:
120,228,59712,2,0,L|116:320,1,71.2500027179719,8|0,3:2|3:0,0:0:0:0:
192,172,60045,2,0,L|196:264,1,71.2500027179719,8|8,3:2|3:0,0:0:0:0:
252,340,60295,1,8,3:0:0:0:
256,344,60378,6,0,B|344:384|380:304|468:356,1,213.750008153916,4|0,3:2|3:0,0:0:0:0:
504,256,61045,1,0,3:0:0:0:
472,152,61212,1,0,3:0:0:0:
364,148,61378,1,0,3:0:0:0:
392,252,61545,1,8,3:2:0:0:
256,212,61712,6,0,L|204:200,3,47.5,12|0|0|0,3:2|3:0|3:0|3:0,0:0:0:0:
148,272,62045,2,0,L|92:288,3,47.5,12|0|0|0,3:2|3:0|3:0|3:0,0:0:0:0:
48,200,62378,2,0,L|0:192,3,47.5,12|0|0|0,3:2|3:0|3:0|3:0,0:0:0:0:
128,112,62712,1,12,3:2:0:0:
160,104,62795,1,0,3:0:0:0:
192,96,62878,1,0,3:0:0:0:
224,88,62962,1,0,3:0:0:0:
256,80,63045,6,0,L|296:112,3,47.5,0|0|0|0,3:0|3:0|3:0|3:0,0:0:0:0:
400,112,63378,2,0,L|440:80,3,47.5,0|0|0|0,3:0|3:0|3:0|3:0,0:0:0:0:
272,192,63712,1,0,3:0:0:0:
248,228,63795,1,0,3:0:0:0:
244,272,63878,1,0,3:0:0:0:
260,312,63962,1,0,3:0:0:0:
296,332,64045,1,2,0:2:0:0:
252,52,64378,6,0,P|180:68|64:40,1,190,4|8,3:2|3:2,0:0:0:0:
28,160,64878,1,0,3:0:0:0:
112,252,65045,2,0,P|124:308|96:360,1,95,0|0,3:0|3:0,0:0:0:0:
24,252,65378,1,8,3:2:0:0:
180,192,65545,1,0,3:0:0:0:
320,264,65712,6,0,P|440:276|524:248,1,190,0|8,3:0|3:2,0:0:0:0:
444,152,66212,1,0,3:0:0:0:
320,264,66378,1,0,3:0:0:0:
320,264,66545,1,0,3:0:0:0:
200,144,66712,1,8,3:2:0:0:
176,272,66878,1,0,3:0:0:0:
336,176,67045,6,0,P|368:128|336:-4,1,190,4|8,3:2|3:2,0:0:0:0:
220,12,67545,1,0,3:0:0:0:
116,76,67712,2,0,P|80:120|76:172,1,95,0|0,3:0|3:0,0:0:0:0:
120,272,68045,1,8,3:2:0:0:
296,232,68212,1,0,3:0:0:0:
112,168,68378,6,0,B|40:180|40:180|-12:164|-12:164|32:236,1,190,4|8,3:2|3:2,0:0:0:0:
100,312,68878,1,0,3:0:0:0:
208,192,69045,1,0,3:0:0:0:
23,302,69212,1,0,3:0:0:0:
23,302,69295,1,0,3:0:0:0:
23,302,69378,1,8,3:2:0:0:
224,184,69545,1,8,3:2:0:0:
0,88,69712,6,0,B|88:128|192:80,1,190,4|8,3:2|3:2,0:0:0:0:
292,24,70212,1,0,3:0:0:0:
412,60,70378,2,0,P|428:120|416:168,1,95,0|0,3:0|3:0,0:0:0:0:
336,264,70712,1,8,3:2:0:0:
208,168,70878,1,8,3:2:0:0:
56,280,71045,6,0,P|96:320|224:304,1,190,4|8,3:2|3:2,0:0:0:0:
284,200,71545,1,0,3:0:0:0:
104,148,71712,1,0,3:0:0:0:
104,148,71878,1,0,3:0:0:0:
232,32,72045,1,8,3:2:0:0:
400,88,72212,1,0,3:0:0:0:
400,88,72295,1,0,3:0:0:0:
400,88,72378,6,0,L|380:188,1,95,4|0,3:2|3:0,0:0:0:0:
476,32,72712,1,8,3:2:0:0:
476,172,72878,1,0,3:0:0:0:
328,32,73045,1,8,3:2:0:0:
480,164,73212,1,0,3:0:0:0:
400,0,73378,1,8,3:2:0:0:
381,181,73545,1,0,3:0:0:0:
252,84,73712,5,4,3:2:0:0:
228,92,73795,1,0,3:0:0:0:
204,96,73878,1,0,3:0:0:0:
180,100,73962,1,0,3:0:0:0:
156,88,74045,1,8,3:2:0:0:
128,92,74128,1,0,3:0:0:0:
100,100,74212,1,0,3:0:0:0:
72,104,74295,1,0,3:0:0:0:
44,112,74378,5,0,3:0:0:0:
132,12,74545,1,8,3:2:0:0:
196,172,74712,1,8,3:0:0:0:
208,204,74795,1,8,3:0:0:0:
212,236,74878,1,0,3:0:0:0:
208,268,74962,1,0,3:0:0:0:
196,300,75045,6,0,P|144:320|8:300,1,190,4|8,3:2|3:2,0:0:0:0:
8,168,75545,1,0,3:0:0:0:
116,92,75712,2,0,P|176:100|228:80,1,95,0|0,3:0|3:0,0:0:0:0:
324,28,76045,1,8,3:2:0:0:
448,112,76212,1,0,3:0:0:0:
280,148,76378,6,0,P|252:200|272:332,1,190,0|8,3:0|3:2,0:0:0:0:
400,344,76878,1,0,3:0:0:0:
280,148,77045,1,0,3:0:0:0:
280,148,77212,1,0,3:0:0:0:
180,256,77378,1,8,3:2:0:0:
372,160,77545,1,0,3:0:0:0:
180,152,77712,6,0,P|120:168|-8:152,1,190,4|8,3:2|3:2,0:0:0:0:
88,56,78212,1,0,3:0:0:0:
180,152,78378,2,0,P|196:212|176:268,1,95,0|0,3:0|3:0,0:0:0:0:
92,336,78712,1,8,3:2:0:0:
60,184,78878,1,0,3:0:0:0:
176,320,79045,6,0,B|236:336|236:336|368:320,1,190,4|8,3:2|3:2,0:0:0:0:
472,244,79545,1,0,3:0:0:0:
256,192,79712,1,0,3:0:0:0:
256,192,79878,1,0,3:0:0:0:
348,44,80045,1,8,3:2:0:0:
364,216,80212,1,8,3:2:0:0:
224,68,80378,6,0,P|136:48|32:76,1,190,4|8,3:2|3:2,0:0:0:0:
16,200,80878,1,0,3:0:0:0:
148,228,81045,1,0,3:0:0:0:
280,128,81212,1,0,3:0:0:0:
368,228,81378,1,8,3:2:0:0:
412,104,81545,1,8,3:2:0:0:
212,188,81712,6,0,P|196:256|272:352,1,190,4|8,3:2|3:2,0:0:0:0:
396,360,82212,1,0,3:0:0:0:
460,228,82378,1,0,3:0:0:0:
460,228,82545,1,0,3:0:0:0:
280,264,82712,1,8,3:2:0:0:
472,312,82878,1,0,3:0:0:0:
432,120,83045,6,0,P|368:96|244:128,1,190,4|8,3:2|3:2,0:0:0:0:
168,224,83545,1,0,3:0:0:0:
144,48,83712,2,0,L|176:168,1,95,8|0,3:2|3:0,0:0:0:0:
227,30,84045,2,0,L|259:150,1,95,8|0,3:2|3:0,0:0:0:0:
132,304,84378,5,4,3:2:0:0:
227,30,84712,2,0,L|259:150,1,95,8|0,3:2|3:0,0:0:0:0:
128,312,85045,1,4,3:2:0:0:
228,32,85378,1,8,3:2:0:0:
234,50,85462,1,4,3:0:0:0:
237,68,85545,1,4,3:0:0:0:
242,86,85628,1,4,3:0:0:0:
248,106,85712,6,0,L|263:184,3,52.2500015945435,12|0|0|0,3:2|3:0|3:0|3:0,0:0:0:0:
360,194,86045,2,0,L|346:269,3,52.2500015945435,8|0|0|0,3:2|3:0|3:0|3:0,0:0:0:0:
281,314,86378,1,8,3:2:0:0:
247,329,86462,1,0,3:0:0:0:
210,333,86545,1,0,3:0:0:0:
173,331,86628,1,0,3:0:0:0:
137,320,86712,2,0,L|77:323,1,52.2500015945435,8|0,3:2|3:0,0:0:0:0:
85,235,86878,2,0,L|21:235,1,52.2500015945435,0|0,3:0|3:0,0:0:0:0:
37,149,87045,6,0,L|-32:138,3,52.2500015945435,8|0|0|0,3:2|3:0|3:0|3:0,0:0:0:0:
80,68,87378,2,0,L|149:57,3,52.2500015945435,8|0|0|0,3:2|3:0|3:0|3:0,0:0:0:0:
223,97,87712,2,0,P|283:105|336:82,1,104.500003189087,8|0,3:2|3:0,0:0:0:0:
485,24,88045,2,0,P|425:16|372:39,1,104.500003189087,8|0,3:2|3:0,0:0:0:0:
411,161,88378,6,0,L|425:221,3,52.2500015945435,8|0|0|0,3:2|3:0|3:0|3:0,0:0:0:0:
330,221,88712,2,0,L|316:281,3,52.2500015945435,8|0|0|0,3:2|3:0|3:0|3:0,0:0:0:0:
412,304,89045,1,8,3:2:0:0:
394,336,89128,1,0,3:0:0:0:
367,359,89212,1,0,3:0:0:0:
332,371,89295,1,0,3:0:0:0:
296,368,89378,2,0,L|239:347,1,52.2500015945435,8|0,3:2|3:0,0:0:0:0:
161,384,89545,2,0,L|123:335,1,52.2500015945435,0|0,3:0|3:0,0:0:0:0:
193,273,89712,6,0,L|203:211,3,52.2500015945435,8|0|0|0,3:2|3:0|3:0|3:0,0:0:0:0:
319,273,90045,2,0,L|309:211,3,52.2500015945435,8|0|0|0,3:2|3:0|3:0|3:0,0:0:0:0:
249,140,90378,2,0,L|261:72,1,52.2500015945435,8|8,3:2|3:2,0:0:0:0:
352,116,90545,2,0,L|397:63,1,52.2500015945435,8|8,3:0|3:0,0:0:0:0:
481,107,90712,1,0,3:0:0:0:
493,141,90795,1,0,3:0:0:0:
497,177,90878,1,0,3:0:0:0:
498,213,90962,1,0,3:0:0:0:
491,248,91045,6,0,P|485:283|491:312,3,52.2500015945435,12|0|0|0,3:2|3:0|3:0|3:0,0:0:0:0:
408,358,91378,2,0,P|379:362|342:354,3,52.2500015945435,8|0|0|0,3:2|3:0|3:0|3:0,0:0:0:0:
290,287,91712,1,8,3:2:0:0:
254,279,91795,1,0,3:0:0:0:
217,281,91878,1,0,3:0:0:0:
181,289,91962,1,0,3:0:0:0:
151,310,92045,2,0,L|75:289,1,52.2500015945435,8|0,3:2|3:0,0:0:0:0:
28,358,92212,2,0,L|-5:295,1,52.2500015945435,0|0,3:0|3:0,0:0:0:0:
46,219,92378,6,0,L|54:151,3,52.2500015945435,8|0|0|0,3:2|3:0|3:0|3:0,0:0:0:0:
148,155,92712,2,0,L|141:103,3,52.2500015945435,8|0|0|0,3:2|3:0|3:0|3:0,0:0:0:0:
59,51,93045,2,0,P|110:10|170:12,1,104.500003189087,8|0,3:2|3:0,0:0:0:0:
317,106,93378,2,0,P|266:147|206:145,1,104.500003189087,8|0,3:2|3:0,0:0:0:0:
112,260,93712,6,0,L|135:329,3,52.2500015945435,8|0|0|0,3:2|3:0|3:0|3:0,0:0:0:0:
222,283,94045,2,0,L|261:329,3,52.2500015945435,8|0|0|0,3:2|3:0|3:0|3:0,0:0:0:0:
352,324,94378,1,8,3:2:0:0:
388,329,94462,1,0,3:0:0:0:
423,321,94545,1,0,3:0:0:0:
453,301,94628,1,0,3:0:0:0:
469,268,94712,2,0,L|470:192,1,52.2500015945435,8|0,3:2|3:0,0:0:0:0:
381,177,94878,2,0,L|383:113,1,52.2500015945435,0|0,3:0|3:0,0:0:0:0:
443,41,95045,5,4,3:2:0:0:
469,215,95212,1,8,3:2:0:0:
312,213,95378,1,8,3:0:0:0:
367,53,95545,1,0,3:0:0:0:
166,190,95712,5,8,3:2:0:0:
311,291,95878,1,0,3:0:0:0:
276,53,96045,1,8,3:2:0:0:
260,56,96128,1,8,3:2:0:0:
244,60,96212,1,8,3:2:0:0:
229,65,96295,1,8,3:2:0:0:
213,69,96378,6,0,L|122:67,3,52.2500015945435,12|0|0|0,3:2|3:0|3:0|3:0,0:0:0:0:
270,150,96712,2,0,L|361:152,3,52.2500015945435,12|0|0|0,3:2|3:0|3:0|3:0,0:0:0:0:
189,211,97045,1,12,3:2:0:0:
172,243,97128,1,0,3:0:0:0:
173,279,97212,1,0,3:0:0:0:
194,308,97295,1,0,3:0:0:0:
228,321,97378,2,0,L|313:312,1,52.2500015945435,12|0,3:2|3:0,0:0:0:0:
367,357,97545,2,0,L|433:349,1,52.2500015945435,0|0,3:0|3:0,0:0:0:0:
489,281,97712,6,0,P|497:250|493:211,3,52.2500015945435,12|0|0|0,3:2|3:0|3:0|3:0,0:0:0:0:
414,175,98045,2,0,P|414:148|421:123,3,52.2500015945435,12|0|0|0,3:2|3:0|3:0|3:0,0:0:0:0:
375,37,98378,2,0,P|317:26|253:53,1,104.500003189087,12|0,3:2|3:0,0:0:0:0:
276,243,98712,2,0,P|334:254|398:227,1,104.500003189087,12|0,3:2|3:0,0:0:0:0:
232,103,99045,6,0,L|168:101,3,52.2500015945435,12|0|0|0,3:2|3:0|3:0|3:0,0:0:0:0:
106,165,99378,2,0,L|50:175,3,52.2500015945435,12|0|0|0,3:2|3:0|3:0|3:0,0:0:0:0:
3,254,99712,1,12,3:2:0:0:
5,290,99795,1,0,3:0:0:0:
27,318,99878,1,0,3:0:0:0:
62,327,99962,1,0,3:0:0:0:
97,319,100045,2,0,L|160:314,1,52.2500015945435,12|0,3:2|3:0,0:0:0:0:
240,225,100212,2,0,L|153:229,1,52.2500015945435,0|0,3:0|3:0,0:0:0:0:
93,172,100378,6,0,P|74:141|66:114,3,52.2500015945435,12|0|0|0,3:2|3:0|3:0|3:0,0:0:0:0:
166,103,100712,2,0,P|156:78|141:57,3,52.2500015945435,12|0|0|0,3:2|3:0|3:0|3:0,0:0:0:0:
263,77,101045,2,0,L|298:126,1,52.2500015945435,12|8,3:2|3:2,0:0:0:0:
425,76,101212,2,0,L|390:125,1,52.2500015945435,8|8,3:0|3:0,0:0:0:0:
288,222,101378,1,0,3:0:0:0:
275,256,101462,1,0,3:0:0:0:
273,292,101545,1,0,3:0:0:0:
284,327,101628,1,0,3:0:0:0:
305,356,101712,6,0,L|377:356,3,52.2500015945435,12|0|0|0,3:2|3:0|3:0|3:0,0:0:0:0:
206,356,102045,2,0,L|135:356,3,52.2500015945435,12|0|0|0,3:2|3:0|3:0|3:0,0:0:0:0:
72,294,102378,1,12,3:2:0:0:
60,259,102462,1,0,3:0:0:0:
56,223,102545,1,0,3:0:0:0:
59,186,102628,1,0,3:0:0:0:
70,151,102712,2,0,L|66:79,1,52.2500015945435,12|0,3:2|3:0,0:0:0:0:
160,29,102878,2,0,L|164:101,1,52.2500015945435,0|0,3:0|3:0,0:0:0:0:
221,182,103045,6,0,P|250:188|285:178,3,52.2500015945435,12|0|0|0,3:2|3:0|3:0|3:0,0:0:0:0:
357,139,103378,2,0,P|382:136|408:142,3,52.2500015945435,12|0|0|0,3:2|3:0|3:0|3:0,0:0:0:0:
486,209,103712,2,0,P|497:273|476:329,1,104.500003189087,12|0,3:2|3:0,0:0:0:0:
272,285,104045,2,0,P|261:221|282:165,1,104.500003189087,12|0,3:2|3:0,0:0:0:0:
395,68,104378,6,0,P|403:46|401:15,3,52.2500015945435,12|0|0|0,3:2|3:0|3:0|3:0,0:0:0:0:
301,35,104712,2,0,P|293:57|295:88,3,52.2500015945435,12|0|0|0,3:2|3:0|3:0|3:0,0:0:0:0:
352,170,105045,1,12,3:2:0:0:
366,203,105128,1,0,3:0:0:0:
366,239,105212,1,0,3:0:0:0:
352,273,105295,1,0,3:0:0:0:
323,296,105378,2,0,L|246:292,1,52.2500015945435,12|0,3:2|3:0,0:0:0:0:
141,246,105545,2,0,L|203:242,1,52.2500015945435,0|0,3:0|3:0,0:0:0:0:
326,148,105712,5,4,3:2:0:0:
270,293,105878,1,8,3:2:0:0:
168,173,106045,1,8,3:0:0:0:
319,131,106212,1,0,3:0:0:0:
125,169,106378,5,8,3:2:0:0:
245,327,106545,1,0,3:0:0:0:
312,114,106712,1,8,3:2:0:0:
306,99,106795,1,8,3:2:0:0:
299,84,106878,1,8,3:2:0:0:
293,69,106962,1,8,3:2:0:0:
287,55,107045,1,4,3:2:0:0:
116,151,117712,5,4,3:2:0:0:
207,127,117878,1,0,3:0:0:0:
298,100,118045,1,0,3:0:0:0:
389,73,118212,1,0,3:0:0:0:
480,48,118378,2,0,B|511:149|511:149|478:256,1,190,8|0,3:2|3:0,0:0:0:0:
149,258,119045,1,0,3:0:0:0:
149,258,119212,1,0,3:0:0:0:
194,71,119378,2,0,B|267:80|267:80|362:59,1,142.5,0|0,3:0|3:0,0:0:0:0:
352,65,119712,1,8,3:2:0:0:
352,65,119878,1,0,3:0:0:0:
116,22,120045,2,0,P|72:61|62:169,1,142.5,0|0,3:0|3:0,0:0:0:0:
86,261,120378,5,0,3:0:0:0:
180,271,120545,1,0,3:0:0:0:
273,289,120712,1,0,3:0:0:0:
365,307,120878,1,0,3:0:0:0:
458,326,121045,2,0,B|491:265|491:265|474:215|474:215|501:131,1,190,8|0,3:2|3:0,0:0:0:0:
194,30,121712,5,4,3:2:0:0:
194,30,121878,1,0,3:0:0:0:
410,94,122045,2,0,P|453:80|379:57,1,190,12|4,3:2|3:2,0:0:0:0:
299,115,122545,1,0,3:0:0:0:
272,226,122712,2,0,L|304:328,1,95,12|8,3:2|3:2,0:0:0:0:
178,144,123045,5,4,3:2:0:0:
178,144,123212,1,0,3:0:0:0:
362,195,123378,2,0,L|478:204,1,95,0|0,3:0|3:0,0:0:0:0:
356,63,123712,1,8,3:2:0:0:
356,63,123878,1,0,3:0:0:0:
172,114,124045,2,0,L|56:123,1,95,0|0,3:0|3:0,0:0:0:0:
313,130,124378,5,0,3:0:0:0:
313,130,124545,1,0,3:0:0:0:
128,202,124712,2,0,L|105:322,1,95,0|0,3:0|3:0,0:0:0:0:
286,353,125045,1,8,3:2:0:0:
286,353,125212,1,0,3:0:0:0:
471,281,125378,2,0,L|494:161,1,95,0|0,3:0|3:0,0:0:0:0:
259,97,125712,6,0,L|282:217,1,95,12|0,3:2|3:0,0:0:0:0:
348,42,126045,1,4,3:2:0:0:
348,42,126212,1,0,3:0:0:0:
137,144,126378,2,0,L|116:34,1,95,12|0,3:2|3:0,0:0:0:0:
362,143,126712,2,0,L|344:236,1,95,4|0,3:2|3:0,0:0:0:0:
64,185,127045,5,12,3:2:0:0:
64,185,127212,1,8,3:2:0:0:
158,175,127378,1,0,3:0:0:0:
240,222,127545,1,0,3:0:0:0:
393,353,127712,5,10,3:0:0:0:
471,245,127878,1,10,3:0:0:0:
465,111,128045,1,2,3:2:0:0:
361,27,128212,1,2,3:2:0:0:
230,6,128378,5,4,3:2:0:0:
230,6,129045,2,0,L|219:119,1,95,8|10,3:2|3:0,0:0:0:0:
197,231,129378,1,2,3:2:0:0:
197,231,129462,1,2,3:0:0:0:
197,231,129545,1,2,3:2:0:0:
312,158,129712,6,0,B|377:138|406:200|470:158,1,142.500005435944,6|0,3:2|3:0,0:0:0:0:
264,44,130378,1,2,3:2:0:0:
264,44,130545,1,0,3:0:0:0:
277,228,130712,1,10,3:2:0:0:
186,16,131045,5,6,3:2:0:0:
186,16,131712,2,0,L|173:80,1,35.625001358986,10|8,3:0|3:0,0:0:0:0:
101,78,131878,2,0,L|107:126,1,35.625001358986,2|0,3:2|3:0,0:0:0:0:
161,184,132045,1,10,3:2:0:0:
164,201,132128,1,2,3:0:0:0:
161,218,132212,1,2,3:0:0:0:
153,234,132295,1,0,3:0:0:0:
139,245,132378,6,0,P|105:266|99:190,1,142.500005435944,6|0,3:2|3:0,0:0:0:0:
86,194,133045,2,0,L|90:140,3,35.625001358986,10|8|10|8,3:2|3:2|3:0|3:0,0:0:0:0:
154,68,133378,2,0,L|146:122,3,35.625001358986,2|0|2|0,3:2|3:0|3:2|3:0,0:0:0:0:
229,28,133712,5,14,3:2:0:0:
377,114,133878,1,0,3:0:0:0:
229,200,134045,1,0,3:0:0:0:
311,4,134212,5,14,3:2:0:0:
341,221,134378,1,0,3:0:0:0:
139,140,134545,1,0,3:0:0:0:
388,106,134712,5,14,3:2:0:0:
232,223,134878,1,0,3:0:0:0:
421,232,135045,1,0,3:0:0:0:
190,64,135212,5,14,3:2:0:0:
270,227,135378,1,0,3:0:0:0:
320,51,135545,1,0,3:0:0:0:
115,184,135712,5,14,3:2:0:0:
361,122,135878,1,0,3:0:0:0:
81,162,136045,6,0,P|55:130|47:89,1,71.2500027179719,12|0,3:2|3:0,0:0:0:0:
328,209,136378,1,6,3:2:0:0:
328,209,137045,1,0,3:0:0:0:
329,223,137128,1,0,3:0:0:0:
330,237,137212,1,0,3:0:0:0:
331,251,137295,1,0,3:0:0:0:
332,265,137378,1,0,3:0:0:0:
334,279,137462,1,0,3:0:0:0:
335,294,137545,1,0,3:0:0:0:
336,308,137628,1,0,3:0:0:0:
337,322,137712,5,12,3:2:0:0:
97,166,138045,1,2,3:2:0:0:
106,162,138378,1,2,3:2:0:0:
114,158,138712,2,0,B|186:166|186:166|250:150,1,128.249996086121,10|0,3:2|0:0,0:0:0:0:
268,141,139045,6,0,P|357:197|332:304,1,209.000006378174,6|0,3:2|3:0,0:0:0:0:
234,331,139545,1,10,3:2:0:0:
57,217,139712,2,0,P|113:207|165:217,1,104.500003189087,2|8,3:2|3:2,0:0:0:0:
230,51,140045,2,0,P|174:61|122:51,1,104.500003189087,2|8,3:2|3:2,0:0:0:0:
296,126,140378,6,0,B|338:166|338:166|323:244|377:306|377:306|431:242|412:168|412:168|456:127,1,418.000012756348,2|0,3:2|3:0,0:0:0:0:
499,29,141212,1,8,3:2:0:0:
255,36,141378,1,0,3:0:0:0:
238,56,141462,1,0,3:0:0:0:
229,80,141545,1,8,3:2:0:0:
226,105,141628,1,0,3:0:0:0:
230,130,141712,6,0,P|255:234|185:319,1,209.000006378174,6|0,3:2|3:0,0:0:0:0:
95,90,142212,1,10,3:2:0:0:
95,90,142378,2,0,B|160:113|160:113|265:93,1,156.750004783631,6|0,3:2|3:2,0:0:0:0:
287,86,142712,1,4,3:2:0:0:
423,79,142878,1,8,3:2:0:0:
353,183,143045,5,6,3:2:0:0:
375,8,143212,1,8,3:2:0:0:
493,133,143378,2,0,L|497:193,2,52.2500015945435,0|0|8,3:0|3:0|3:2,0:0:0:0:
282,110,143712,1,0,3:0:0:0:
423,79,143878,1,8,3:2:0:0:
371,298,144045,1,8,3:2:0:0:
331,322,144128,1,8,3:2:0:0:
284,328,144212,1,8,3:2:0:0:
238,318,144295,1,8,3:2:0:0:
202,287,144378,6,0,P|126:267|43:304,1,156.750004783631,6|0,3:2|3:0,0:0:0:0:
39,309,144712,2,0,L|27:164,1,104.500003189087,2|10,3:0|3:2,0:0:0:0:
371,72,145045,2,0,L|362:210,1,104.500003189087,6|8,3:2|3:2,0:0:0:0:
165,351,145378,2,0,L|156:213,1,104.500003189087,2|8,3:2|3:2,0:0:0:0:
326,62,145712,5,6,3:2:0:0:
292,225,145878,1,10,3:2:0:0:
188,107,146045,1,2,3:2:0:0:
408,77,146212,1,10,3:2:0:0:
230,4,146378,1,6,3:2:0:0:
292,139,146545,1,8,3:2:0:0:
475,126,146712,1,0,3:0:0:0:
480,151,146795,1,0,3:0:0:0:
481,176,146878,1,8,3:2:0:0:
480,202,146962,1,0,3:0:0:0:
474,227,147045,6,0,B|469:298|415:345|415:345|384:269,1,209.000006378174,6|0,3:2|3:0,0:0:0:0:
369,152,147545,1,10,3:2:0:0:
204,59,147712,2,0,P|163:107|155:175,1,104.500003189087,6|10,3:2|3:2,0:0:0:0:
336,364,148045,2,0,P|377:316|385:248,1,104.500003189087,6|10,3:2|3:2,0:0:0:0:
194,233,148378,5,14,3:2:0:0:
174,225,148462,1,8,3:2:0:0:
154,222,148545,1,8,3:0:0:0:
133,224,148628,1,8,3:0:0:0:
107,245,148712,1,0,3:0:0:0:
86,229,148795,1,0,3:0:0:0:
68,209,148878,1,0,3:0:0:0:
56,186,148962,1,0,3:0:0:0:
48,162,149045,1,0,3:0:0:0:
47,135,149128,1,0,3:0:0:0:
49,108,149212,1,0,3:0:0:0:
59,84,149295,1,0,3:0:0:0:
103,71,149378,5,8,3:2:0:0:
154,82,149462,1,8,3:2:0:0:
205,78,149545,1,8,3:2:0:0:
257,72,149628,1,8,3:2:0:0:
298,67,149712,6,0,B|365:58|365:58|448:64|492:135,1,209.000006378174,6|0,3:2|3:0,0:0:0:0:
498,248,150212,1,10,3:2:0:0:
330,286,150378,2,0,P|310:230|328:174,1,104.500003189087,2|8,3:2|3:2,0:0:0:0:
182,98,150712,2,0,P|202:154|184:210,1,104.500003189087,2|8,3:2|3:2,0:0:0:0:
62,32,151045,6,0,B|159:123|244:38|244:38|306:61|306:61|372:24|455:63,1,418.000012756348,2|0,3:2|3:0,0:0:0:0:
493,168,151878,1,8,3:2:0:0:
345,315,152045,1,0,3:0:0:0:
317,328,152128,1,0,3:0:0:0:
286,334,152212,1,8,3:2:0:0:
254,333,152295,1,0,3:0:0:0:
223,325,152378,6,0,P|190:284|204:135,1,209.000006378174,6|0,3:2|3:0,0:0:0:0:
382,44,152878,1,10,3:2:0:0:
382,44,153045,2,0,B|382:93|382:93|401:114|401:114|369:169|402:215,1,156.750004783631,6|0,3:2|3:2,0:0:0:0:
403,227,153378,1,4,3:2:0:0:
498,313,153545,1,8,3:2:0:0:
487,170,153712,5,6,3:2:0:0:
310,240,153878,1,8,3:2:0:0:
483,278,154045,2,0,L|523:240,2,52.2500015945435,0|0|8,3:0|3:0|3:2,0:0:0:0:
405,160,154378,1,0,3:0:0:0:
314,331,154545,1,8,3:2:0:0:
494,168,154712,1,8,3:2:0:0:
505,128,154795,1,8,3:2:0:0:
498,86,154878,1,8,3:2:0:0:
472,52,154962,1,8,3:2:0:0:
435,32,155045,6,0,B|368:56|368:56|283:42,1,156.750004783631,6|0,3:2|3:0,0:0:0:0:
264,31,155378,2,0,B|281:89|281:89|266:155,1,104.500003189087,2|10,3:0|3:2,0:0:0:0:
64,184,155712,2,0,L|184:209,1,104.500003189087,6|8,3:2|3:2,0:0:0:0:
373,153,156045,2,0,L|253:128,1,104.500003189087,2|8,3:2|3:2,0:0:0:0:
166,283,156378,5,6,3:2:0:0:
197,136,156545,1,10,3:2:0:0:
322,218,156712,1,2,3:2:0:0:
139,255,156878,1,10,3:2:0:0:
353,133,157045,1,6,3:2:0:0:
265,271,157212,1,8,3:2:0:0:
108,154,157378,1,0,3:0:0:0:
87,130,157462,1,0,3:0:0:0:
80,99,157545,1,8,3:2:0:0:
85,68,157628,1,0,3:0:0:0:
106,45,157712,6,0,P|210:65|313:42,1,209.000006378174,6|0,3:2|3:0,0:0:0:0:
417,4,158212,1,10,3:2:0:0:
294,148,158378,2,0,P|284:204|296:256,1,104.500003189087,6|10,3:2|3:2,0:0:0:0:
472,337,158712,2,0,P|482:281|470:229,1,104.500003189087,6|10,3:2|3:2,0:0:0:0:
322,61,159045,5,14,3:2:0:0:
219,113,159212,1,8,3:0:0:0:
164,213,159378,1,0,3:0:0:0:
169,328,159545,1,0,3:0:0:0:
135,71,159712,5,12,3:2:0:0:
219,112,159878,1,8,3:0:0:0:
313,112,160045,1,0,3:0:0:0:
401,78,160212,1,0,3:0:0:0:
492,127,160378,6,0,P|499:175|475:239,1,95,4|0,3:2|3:0,0:0:0:0:
396,290,160712,1,8,3:2:0:0:
287,256,160878,1,0,3:0:0:0:
357,155,161045,2,0,P|361:100|337:54,1,95,0|0,3:0|3:0,0:0:0:0:
235,33,161378,1,8,3:2:0:0:
124,62,161545,1,0,3:0:0:0:
204,191,161712,6,0,P|215:240|196:294,1,95,0|0,3:0|3:0,0:0:0:0:
108,345,162045,1,8,3:2:0:0:
7,290,162212,1,0,3:0:0:0:
110,193,162378,2,0,P|170:199|208:189,1,95,0|0,3:0|3:0,0:0:0:0:
299,127,162712,1,8,3:2:0:0:
405,165,162878,1,0,3:0:0:0:
291,257,163045,6,0,P|287:315|318:358,1,95,0|0,3:0|3:0,0:0:0:0:
416,367,163378,1,8,3:2:0:0:
499,289,163545,1,0,3:0:0:0:
374,193,163712,2,0,L|382:87,1,95,0|0,3:0|3:0,0:0:0:0:
470,26,164045,1,8,3:2:0:0:
320,50,164212,1,0,3:0:0:0:
461,131,164378,6,0,L|453:225,1,95,0|0,3:0|3:0,0:0:0:0:
359,290,164712,1,8,3:2:0:0:
267,222,164878,1,0,3:0:0:0:
288,110,165045,1,0,3:0:0:0:
70,59,165212,1,8,3:2:0:0:
6,129,165378,1,4,3:0:0:0:
29,221,165545,1,4,3:0:0:0:
199,87,165712,6,0,L|306:71,1,95,4|0,3:2|3:0,0:0:0:0:
395,202,166045,2,0,L|288:186,1,95,8|0,3:2|3:0,0:0:0:0:
188,166,166378,1,0,3:0:0:0:
374,93,166545,1,0,3:0:0:0:
374,93,166628,1,0,3:0:0:0:
374,93,166712,1,8,3:2:0:0:
301,187,166878,1,0,3:0:0:0:
77,193,167045,6,0,P|43:135|56:81,1,95,0|0,3:0|3:0,0:0:0:0:
176,34,167378,2,0,P|172:81|144:118,1,95,8|0,3:2|3:0,0:0:0:0:
65,33,167712,1,0,3:0:0:0:
259,89,167878,1,0,3:0:0:0:
259,89,167962,1,0,3:0:0:0:
259,89,168045,1,8,3:2:0:0:
361,39,168212,1,0,3:0:0:0:
439,170,168378,6,0,L|430:273,1,95,0|0,3:0|3:0,0:0:0:0:
300,331,168712,2,0,L|309:228,1,95,8|0,3:2|3:0,0:0:0:0:
364,136,169045,1,0,3:0:0:0:
180,91,169212,1,0,3:0:0:0:
329,58,169378,1,8,3:2:0:0:
238,155,169545,1,0,3:0:0:0:
143,15,169712,5,8,3:2:0:0:
153,174,169878,1,0,3:0:0:0:
143,15,170045,1,8,3:2:0:0:
238,155,170212,1,0,3:0:0:0:
67,37,170378,1,8,3:2:0:0:
219,37,170545,1,0,3:0:0:0:
302,54,170712,1,8,3:0:0:0:
365,111,170878,1,0,3:0:0:0:
384,194,171045,6,0,B|354:248|383:321|457:338|457:338|505:298|505:298|490:259|490:259|509:226|509:226|488:158,1,380,4|0,3:2|3:0,0:0:0:0:
435,69,171878,1,0,3:0:0:0:
257,135,172045,1,8,3:2:0:0:
81,264,172378,5,4,3:2:0:0:
245,268,172545,1,2,3:0:0:0:
110,174,172712,1,0,3:0:0:0:
175,323,172878,1,2,3:0:0:0:
236,93,173045,1,4,3:2:0:0:
72,89,173212,1,2,3:0:0:0:
207,183,173378,1,0,3:0:0:0:
142,34,173545,1,2,3:0:0:0:
352,62,173712,5,4,3:2:0:0:
295,216,173878,1,2,3:0:0:0:
236,92,174045,1,0,3:0:0:0:
389,149,174212,1,2,3:0:0:0:
212,249,174378,1,4,3:2:0:0:
236,92,174545,1,2,3:0:0:0:
295,216,174712,1,0,3:0:0:0:
133,188,174878,1,2,3:0:0:0:
341,92,175045,5,4,3:2:0:0:
466,135,175212,1,0,3:0:0:0:
423,261,175378,1,0,3:0:0:0:
295,216,175545,1,0,3:0:0:0:
389,66,175712,1,4,3:2:0:0:
503,146,175878,1,0,3:0:0:0:
423,261,176045,1,8,3:2:0:0:
307,180,176212,1,0,3:0:0:0:
486,58,176378,1,4,3:2:0:0:
256,192,176462,12,8,177378,3:2:0:0:
134,131,177712,6,0,L|128:253,1,95,6|8,3:2|3:2,0:0:0:0:
231,325,178045,1,0,3:0:0:0:
231,325,178212,1,8,3:2:0:0:
333,226,178378,2,0,L|328:131,1,95,2|8,3:2|3:2,0:0:0:0:
162,37,178712,2,0,L|157:131,1,95,2|8,3:2|3:2,0:0:0:0:
274,288,179045,5,2,3:2:0:0:
234,150,179212,1,8,3:2:0:0:
129,246,179378,1,0,3:0:0:0:
272,311,179545,1,8,3:2:0:0:
192,125,179712,1,0,3:0:0:0:
312,199,179878,1,8,3:2:0:0:
138,210,180045,1,0,3:0:0:0:
357,106,180212,1,8,3:2:0:0:
357,106,180295,1,0,3:0:0:0:
357,106,180378,6,0,P|405:144|422:190,1,95,6|0,3:2|3:0,0:0:0:0:
342,303,180712,2,0,P|294:265|276:218,1,95,0|8,3:0|3:2,0:0:0:0:
252,49,181045,2,0,P|192:34|142:48,1,95,2|8,3:2|3:2,0:0:0:0:
40,149,181378,2,0,P|86:154|131:139,1,95,2|8,3:2|3:2,0:0:0:0:
285,18,181712,5,14,3:2:0:0:
223,166,181878,1,0,3:0:0:0:
384,39,182045,1,12,3:2:0:0:
213,73,182212,1,2,3:2:0:0:
426,125,182378,1,14,3:2:0:0:
255,159,182545,1,0,3:0:0:0:
496,66,182712,1,8,3:2:0:0:
502,88,182795,1,8,3:2:0:0:
505,111,182878,1,10,3:2:0:0:
509,134,182962,1,8,3:2:0:0:
510,157,183045,6,0,L|495:270,1,95,6|8,3:2|3:2,0:0:0:0:
391,347,183378,1,0,3:0:0:0:
391,347,183545,1,8,3:2:0:0:
277,260,183712,2,0,L|177:282,1,95,2|8,3:2|3:2,0:0:0:0:
30,163,184045,2,0,L|130:185,1,95,2|8,3:2|3:2,0:0:0:0:
266,61,184378,5,2,3:2:0:0:
129,101,184545,1,8,3:2:0:0:
254,187,184712,1,0,3:0:0:0:
264,34,184878,1,8,3:2:0:0:
177,171,185045,1,0,3:0:0:0:
353,88,185212,1,8,3:2:0:0:
169,27,185378,1,0,3:0:0:0:
308,187,185545,1,8,3:2:0:0:
315,204,185628,1,0,3:0:0:0:
318,222,185712,6,0,P|316:268|293:318,1,95,6|0,3:2|3:0,0:0:0:0:
95,251,186045,1,10,3:2:0:0:
230,250,186212,1,10,3:2:0:0:
155,80,186378,2,0,P|157:126|180:176,1,95,2|8,3:2|3:2,0:0:0:0:
378,109,186712,1,10,3:0:0:0:
243,108,186878,1,2,3:2:0:0:
388,243,187045,5,6,3:2:0:0:
498,151,187212,1,8,3:2:0:0:
504,123,187295,1,0,3:0:0:0:
504,94,187378,1,4,3:2:0:0:
498,65,187462,1,0,3:0:0:0:
481,41,187545,1,8,3:2:0:0:
358,114,187712,2,0,P|308:127|245:102,1,95,0|8,3:2|3:2,0:0:0:0:
117,36,188045,1,8,3:2:0:0:
95,67,188128,1,8,3:0:0:0:
83,103,188212,1,0,3:0:0:0:
76,140,188295,1,0,3:0:0:0:
80,177,188378,6,0,B|95:226|95:226|88:282,1,95,6|8,3:2|3:2,0:0:0:0:
86,283,188628,1,0,3:0:0:0:
81,296,188712,2,0,L|142:332,3,47.5,0|0|8|0,3:0|3:0|3:2|3:0,0:0:0:0:
200,260,189045,2,0,L|262:251,3,47.5,6|0|8|0,3:2|3:0|3:2|3:0,0:0:0:0:
248,353,189378,2,0,L|295:359,3,47.5,6|0|8|0,3:2|3:0|3:2|3:0,0:0:0:0:
374,313,189712,6,0,P|407:272|407:210,1,95,6|8,3:2|3:2,0:0:0:0:
407,217,189962,1,0,3:0:0:0:
402,203,190045,2,0,L|409:144,2,47.5,0|0|8,3:0|3:0|3:2,0:0:0:0:
312,80,190378,1,0,3:0:0:0:
202,187,190545,1,8,3:2:0:0:
202,187,190628,1,0,3:0:0:0:
202,187,190712,2,0,L|209:246,2,47.5,0|0|8,3:0|3:0|3:2,0:0:0:0:
121,30,191045,6,0,P|66:40|24:82,1,95,6|8,3:2|3:2,0:0:0:0:
30,76,191295,1,0,3:0:0:0:
28,90,191378,2,0,L|18:169,3,47.5,0|0|8|0,3:0|3:0|3:2|3:0,0:0:0:0:
100,189,191712,2,0,L|110:268,3,47.5,6|0|8|0,3:2|3:0|3:2|3:0,0:0:0:0:
20,276,192045,2,0,L|10:355,3,47.5,6|0|8|0,3:2|3:0|3:2|3:0,0:0:0:0:
90,367,192378,5,14,3:2:0:0:
244,320,192545,1,0,3:0:0:0:
105,236,192712,1,12,3:2:0:0:
89,376,192878,1,2,3:2:0:0:
175,184,193045,1,14,3:2:0:0:
289,336,193212,1,0,3:0:0:0:
81,344,193378,1,8,3:2:0:0:
72,340,193462,1,8,3:2:0:0:
63,335,193545,1,8,3:2:0:0:
55,328,193628,1,8,3:2:0:0:
47,321,193712,6,0,B|30:280|30:280|38:191,1,95,6|8,3:2|3:2,0:0:0:0:
37,215,193962,1,0,3:0:0:0:
40,201,194045,2,0,L|25:135,3,47.5,0|0|8|0,3:0|3:0|3:2|3:0,0:0:0:0:
120,125,194378,2,0,L|135:59,3,47.5,6|0|8|0,3:2|3:0|3:2|3:0,0:0:0:0:
226,78,194712,2,0,L|236:124,3,47.5,6|0|8|0,3:2|3:0|3:2|3:0,0:0:0:0:
325,160,195045,6,0,P|359:203|352:261,1,95,6|8,3:2|3:2,0:0:0:0:
357,255,195295,1,0,3:0:0:0:
352,268,195378,2,0,L|367:334,2,47.5,0|0|8,3:0|3:0|3:2,0:0:0:0:
436,51,195712,1,0,3:0:0:0:
420,39,195795,1,0,3:0:0:0:
402,32,195878,1,8,3:2:0:0:
382,30,195962,1,0,3:0:0:0:
363,34,196045,1,0,3:0:0:0:
339,50,196128,1,0,3:0:0:0:
311,58,196212,1,8,3:2:0:0:
283,63,196295,1,0,3:0:0:0:
255,57,196378,6,0,P|198:49|152:60,1,95,6|8,3:2|3:2,0:0:0:0:
57,227,196712,1,10,3:2:0:0:
208,224,196878,1,10,3:2:0:0:
84,33,197045,1,6,3:2:0:0:
127,178,197212,1,8,3:2:0:0:
283,63,197378,1,10,3:0:0:0:
301,78,197462,1,8,3:0:0:0:
314,97,197545,1,2,3:2:0:0:
323,118,197628,1,0,3:0:0:0:
327,141,197712,6,0,L|324:253,1,95,6|0,3:2|3:0,0:0:0:0:
217,335,197962,1,0,3:0:0:0:
217,335,198045,2,0,L|214:240,1,95,0|0,3:0|3:0,0:0:0:0:
130,103,198378,1,12,3:2:0:0:
44,163,198545,1,8,3:0:0:0:
20,264,198712,1,0,3:0:0:0:
70,354,198878,1,0,3:0:0:0:
188,335,199045,6,0,P|228:328|346:341,1,142.500005435944,4|0,3:2|3:0,0:0:0:0:
409,366,199545,1,0,3:0:0:0:
494,279,199712,2,0,P|511:235|499:122,1,142.500005435944,4|8,3:2|3:0,0:0:0:0:
441,85,200212,1,8,3:0:0:0:
316,120,200378,6,0,B|252:140|252:140|199:105|199:105|159:142|95:126,1,213.750008153916,4|0,3:2|3:0,0:0:0:0:
47,88,201045,1,0,3:0:0:0:
47,88,201212,1,0,3:0:0:0:
265,53,201378,2,0,B|380:27,1,106.875004076958,8|0,3:2|3:0,0:0:0:0:
387,24,201712,6,0,P|428:51|437:148,1,142.500005435944,4|0,3:2|3:0,0:0:0:0:
160,322,202378,2,0,P|119:295|110:198,1,142.500005435944,4|0,3:2|3:0,0:0:0:0:
407,250,203045,6,0,L|185:237,1,213.750008153916,4|0,3:2|3:0,0:0:0:0:
50,128,203712,1,8,3:2:0:0:
46,103,203795,1,8,3:2:0:0:
48,78,203878,1,8,3:0:0:0:
57,54,203962,1,8,3:0:0:0:
74,36,204045,2,0,L|128:35,3,35.625001358986,0|0|0|0,3:0|3:0|3:0|3:0,0:0:0:0:
134,37,204378,6,0,P|176:53|283:35,1,142.500005435944,4|0,3:2|3:0,0:0:0:0:
361,20,204878,1,0,3:0:0:0:
449,88,205045,2,0,P|468:155|435:229,1,142.500005435944,12|0,3:2|3:0,0:0:0:0:
135,168,205712,6,0,L|361:151,1,213.750008153916,4|0,3:2|3:0,0:0:0:0:
182,74,206378,1,12,3:2:0:0:
363,180,206545,1,8,3:2:0:0:
168,245,206712,1,0,3:0:0:0:
168,245,207045,6,0,P|116:268|45:211,1,142.500005435944,4|0,3:2|3:0,0:0:0:0:
27,134,207545,1,0,3:0:0:0:
186,81,207712,2,0,L|151:177,1,71.2500027179719,12|0,3:2|3:0,0:0:0:0:
74,11,208045,2,0,L|109:107,1,71.2500027179719,4|0,3:2|3:0,0:0:0:0:
259,33,208378,1,4,3:2:0:0:
43,277,208712,6,0,L|99:268,3,35.625001358986,0|0|0|0,3:2|3:2|3:2|3:2,3:2:0:0:
119,282,209045,2,0,L|173:299,3,35.625001358986,0|0|0|0,3:2|3:2|3:2|3:2,3:2:0:0:
195,285,209378,2,0,L|248:273,3,35.625001358986,0|0|0|0,3:2|3:2|3:2|3:2,3:2:0:0:
319,271,209712,6,0,L|443:289,1,104.500003189087,14|0,3:2|3:0,0:0:0:0:
279,182,210045,2,0,L|166:202,1,104.500003189087,10|2,3:2|3:2,0:0:0:0:
374,167,210378,2,0,P|387:113|362:47,1,104.500003189087,10|0,3:2|3:0,0:0:0:0:
201,111,210712,1,10,3:2:0:0:
62,66,210878,1,0,3:0:0:0:
223,12,211045,6,0,L|281:0,3,52.2500015945435,10|0|0|0,3:2|3:0|3:0|3:0,0:0:0:0:
294,88,211378,2,0,L|354:86,3,52.2500015945435,8|0|0|0,3:2|3:0|3:0|3:0,0:0:0:0:
365,164,211712,2,0,L|432:192,3,52.2500015945435,8|0|0|0,3:2|3:0|3:0|3:0,0:0:0:0:
389,279,212045,1,8,3:2:0:0:
255,195,212212,1,0,3:0:0:0:
255,195,212295,1,0,3:0:0:0:
255,195,212378,6,0,L|145:188,1,104.500003189087,10|0,3:2|3:0,0:0:0:0:
176,21,212712,2,0,P|213:67|213:119,1,104.500003189087,10|0,3:2|3:2,0:0:0:0:
119,305,213045,2,0,P|82:259|82:207,1,104.500003189087,10|0,3:2|3:0,0:0:0:0:
283,195,213378,1,10,3:2:0:0:
303,200,213462,1,0,3:0:0:0:
323,201,213545,1,0,3:2:0:0:
343,197,213628,1,0,3:0:0:0:
363,190,213712,6,0,L|380:78,1,104.500003189087,10|0,3:2|3:0,0:0:0:0:
126,82,214045,2,0,L|68:65,3,52.2500015945435,8|0|0|0,3:2|3:0|3:0|3:0,0:0:0:0:
49,65,214378,1,8,3:2:0:0:
28,82,214462,1,8,3:2:0:0:
15,104,214545,1,8,3:0:0:0:
7,128,214628,1,8,3:0:0:0:
3,154,214712,1,0,3:0:0:0:
5,179,214795,1,0,3:0:0:0:
10,204,214878,1,0,3:0:0:0:
22,227,214962,1,0,3:0:0:0:
44,240,215045,6,0,B|148:220|148:220|256:239,1,209.000006378174,14|10,3:2|3:2,0:0:0:0:
374,326,215545,1,2,3:2:0:0:
374,326,215628,1,0,3:0:0:0:
374,326,215712,2,0,P|426:297|450:243,1,104.500003189087,10|0,3:2|3:0,0:0:0:0:
371,139,215962,1,0,3:0:0:0:
371,139,216045,2,0,P|352:207|371:255,1,104.500003189087,10|0,3:2|3:0,0:0:0:0:
432,32,216378,6,0,B|361:46|361:46|221:20,1,209.000006378174,10|8,3:2|3:2,0:0:0:0:
68,42,216878,1,0,3:0:0:0:
58,54,216962,1,0,3:0:0:0:
50,67,217045,2,0,P|37:131|53:181,1,104.500003189087,10|0,3:2|3:0,0:0:0:0:
317,161,217378,1,8,3:2:0:0:
327,185,217462,1,0,3:0:0:0:
335,209,217545,1,0,3:0:0:0:
336,234,217628,1,0,3:0:0:0:
334,260,217712,6,0,L|339:329,3,52.2500015945435,14|0|0|0,3:2|3:0|3:0|3:0,0:0:0:0:
428,271,218045,2,0,L|434:202,1,52.2500015945435,10|0,3:2|3:0,0:0:0:0:
397,98,218212,2,0,L|391:167,1,52.2500015945435,2|0,3:2|3:0,0:0:0:0:
258,219,218378,6,0,L|200:229,3,52.2500015945435,14|0|0|0,3:2|3:0|3:0|3:0,0:0:0:0:
109,191,218712,2,0,L|94:126,1,52.2500015945435,10|0,3:2|3:0,0:0:0:0:
197,44,218878,2,0,L|182:109,1,52.2500015945435,2|0,3:2|3:0,0:0:0:0:
28,170,219045,5,6,3:2:0:0:
18,194,219128,1,0,3:0:0:0:
14,219,219212,1,0,3:0:0:0:
15,245,219295,1,0,3:0:0:0:
23,270,219378,1,0,3:0:0:0:
35,293,219462,1,0,3:0:0:0:
53,313,219545,1,0,3:0:0:0:
74,328,219628,1,0,3:0:0:0:
100,334,219712,6,0,L|183:327,1,52.2500015945435,8|8,3:2|3:2,0:0:0:0:
215,256,219878,2,0,L|267:260,1,52.2500015945435,0|0,3:0|3:0,0:0:0:0:
391,335,220045,1,0,3:2:0:0:
415,325,220128,1,0,3:0:0:0:
434,307,220212,1,0,3:0:0:0:
449,286,220295,1,0,3:0:0:0:
458,261,220378,6,0,L|457:206,3,52.2500015945435,14|0|0|0,3:2|3:0|3:0|3:0,0:0:0:0:
386,146,220712,2,0,L|394:73,1,52.2500015945435,14|0,3:2|3:0,0:0:0:0:
293,6,220878,2,0,L|301:79,1,52.2500015945435,2|0,3:2|3:0,0:0:0:0:
216,123,221045,2,0,L|233:192,3,52.2500015945435,14|0|0|0,3:2|3:0|3:0|3:0,0:0:0:0:
320,218,221378,2,0,L|311:285,1,52.2500015945435,14|0,3:2|3:0,0:0:0:0:
208,287,221545,2,0,L|217:354,1,52.2500015945435,2|0,3:2|3:0,0:0:0:0:
109,266,221712,6,0,L|90:208,3,52.2500015945435,14|0|0|0,3:2|3:0|3:0|3:0,0:0:0:0:
118,131,222045,1,12,3:2:0:0:
127,106,222128,1,0,3:0:0:0:
127,79,222212,1,0,3:0:0:0:
122,53,222295,1,0,3:0:0:0:
108,30,222378,2,0,L|62:-1,3,52.2500015945435,12|0|0|0,3:2|3:0|3:0|3:0,0:0:0:0:
205,84,222712,2,0,L|251:115,3,52.2500015945435,12|0|0|0,3:2|3:0|3:0|3:0,0:0:0:0:
332,24,223045,6,0,L|404:17,3,52.2500015945435,14|0|0|0,3:2|3:0|3:0|3:0,0:0:0:0:
475,61,223378,2,0,L|485:125,1,52.2500015945435,14|0,3:2|3:0,0:0:0:0:
424,240,223545,2,0,L|414:176,1,52.2500015945435,2|0,3:2|3:0,0:0:0:0:
330,133,223712,2,0,L|268:127,3,52.2500015945435,14|0|0|0,3:2|3:0|3:0|3:0,0:0:0:0:
232,46,224045,2,0,L|164:55,1,52.2500015945435,14|0,3:2|3:0,0:0:0:0:
76,133,224212,2,0,L|144:142,1,52.2500015945435,2|0,3:2|3:0,0:0:0:0:
314,48,224378,6,0,L|368:38,3,52.2500015945435,14|0|0|0,3:2|3:0|3:0|3:0,0:0:0:0:
425,107,224712,2,0,L|476:116,3,52.2500015945435,12|0|0|0,3:2|3:0|3:0|3:0,0:0:0:0:
232,152,225045,1,12,3:2:0:0:
211,175,225128,1,8,3:2:0:0:
197,203,225212,1,8,3:0:0:0:
190,233,225295,1,8,3:0:0:0:
190,264,225378,1,0,3:0:0:0:
195,295,225462,1,0,3:0:0:0:
211,321,225545,1,0,3:0:0:0:
235,339,225628,1,0,3:0:0:0:
265,348,225712,6,0,L|390:342,1,104.500003189087,14|0,3:2|3:0,0:0:0:0:
460,228,225962,1,0,3:0:0:0:
460,228,226045,2,0,L|336:231,1,104.500003189087,14|2,3:2|3:2,0:0:0:0:
122,206,226378,1,14,3:2:0:0:
103,196,226462,1,0,3:0:0:0:
82,196,226545,1,0,3:0:0:0:
64,206,226628,1,0,3:0:0:0:
52,223,226712,1,14,3:2:0:0:
49,244,226795,1,0,3:0:0:0:
56,263,226878,1,0,3:0:0:0:
71,277,226962,1,0,3:0:0:0:
91,284,227045,6,0,B|149:293|149:293|215:271,1,104.500003189087,14|0,3:2|3:0,0:0:0:0:
259,157,227295,1,0,3:0:0:0:
259,157,227378,2,0,B|267:215|267:215|308:265,1,104.500003189087,12|0,3:2|3:0,0:0:0:0:
476,277,227712,1,14,3:2:0:0:
490,255,227795,1,0,3:0:0:0:
497,230,227878,1,0,3:0:0:0:
497,203,227962,1,0,3:0:0:0:
492,177,228045,2,0,L|492:97,3,52.2500015945435,12|0|0|0,3:2|3:0|3:0|3:0,0:0:0:0:
402,33,228378,6,0,L|405:107,3,52.2500015945435,14|0|0|0,3:2|3:0|3:0|3:0,0:0:0:0:
319,130,228712,2,0,L|308:217,1,52.2500015945435,14|0,3:2|3:0,0:0:0:0:
193,254,228878,2,0,L|204:167,1,52.2500015945435,2|0,3:2|3:0,0:0:0:0:
107,85,229045,2,0,L|110:33,3,52.2500015945435,14|0|0|0,3:2|3:0|3:0|3:0,0:0:0:0:
201,118,229378,2,0,L|257:153,1,52.2500015945435,14|0,3:2|3:0,0:0:0:0:
311,266,229545,2,0,L|255:231,1,52.2500015945435,2|0,3:2|3:0,0:0:0:0:
101,196,229712,6,0,P|75:200|41:217,3,52.2500015945435,14|0|0|0,3:2|3:0|3:0|3:0,0:0:0:0:
57,324,230045,2,0,P|33:334|7:338,3,52.2500015945435,12|0|0|0,3:2|3:0|3:0|3:0,0:0:0:0:
176,268,230378,1,12,3:2:0:0:
223,263,230462,1,0,3:0:0:0:
269,264,230545,1,0,3:0:0:0:
314,274,230628,1,0,3:0:0:0:
347,307,230712,1,12,3:2:0:0:
391,320,230795,1,0,3:0:0:0:
437,320,230878,1,0,3:0:0:0:
480,300,230962,1,0,3:0:0:0:
500,262,231045,6,0,L|490:157,1,95,4|0,3:2|3:0,3:0:0:0:
327,54,231378,2,0,L|337:159,1,95,2|0,3:0|3:0,3:0:0:0:
219,291,231712,1,8,3:2:0:0:
219,291,231795,1,8,3:2:0:0:
219,291,231878,1,8,3:2:0:0:
70,175,232045,1,8,3:0:0:0:
111,152,232128,1,0,3:0:0:0:
158,149,232212,1,0,3:0:0:0:
346,252,232378,1,4,3:2:0:0:
