osu file format v14

[General]
AudioFilename: audio.mp3
AudioLeadIn: 0
PreviewTime: 138045
Countdown: 0
SampleSet: Soft
StackLeniency: 0.4
Mode: 0
LetterboxInBreaks: 0
WidescreenStoryboard: 1

[Editor]
Bookmarks: 393,11037,21704,32371,42045,43037,53704,64371,75037,85704,96371,107037,117704,128371,139037,149704,160371,172371,177704,188371,199045,209704,220371,231037
DistanceSpacing: 0.9
BeatDivisor: 4
GridSize: 16
TimelineZoom: 1.8

[Metadata]
Title:With Fire and Sword (2013)
TitleUnicode:With Fire and Sword (2013)
Artist:Loki
ArtistUnicode:Loki
Creator:Daycore
Version:Insane
Source:osu!
Tags:thaehan rock metal symphonic tales of the moutains fa featured artist mappers' guild neonat taeyang wenect unranked_mapper shmiklak marvollo m_a_r_v_o_l_l_o
BeatmapID:2025832
BeatmapSetID:963872

[Difficulty]
HPDrainRate:4.5
CircleSize:4
OverallDifficulty:7
ApproachRate:8.5
SliderMultiplier:1.75
SliderTickRate:1

[Events]
//Background and Video events
0,0,"with fire and sword.jpg",0,0
//Break Periods
2,107245,116962
//Storyboard Layer 0 (Background)
//Storyboard Layer 1 (Fail)
//Storyboard Layer 2 (Pass)
//Storyboard Layer 3 (Foreground)
//Storyboard Layer 4 (Overlay)
//Storyboard Sound Samples

[TimingPoints]
379,333.333333333333,4,2,1,60,1,0
379,-100,4,2,1,60,0,0
2628,-100,4,2,1,5,0,0
2712,-100,4,2,1,60,0,0
11045,-100,4,2,1,65,0,1
21712,-100,4,2,1,60,0,0
32378,-100,4,2,1,65,0,1
42712,-100,4,2,1,60,0,0
42962,-100,4,2,1,5,0,0
43045,-133.333333333333,4,2,1,60,0,0
45211,-100,4,2,1,60,0,0
45295,-100,4,2,1,50,0,0
45378,-100,4,2,1,60,0,0
45461,-100,4,2,1,60,0,0
48379,-133.333333333333,4,2,1,50,0,0
49045,-133.333333333333,4,2,1,60,0,0
51045,-100,4,2,1,60,0,0
53712,-133.333333333333,4,2,1,60,0,0
55045,-133.333333333333,4,2,1,60,0,0
56045,-100,4,2,1,60,0,0
59045,-133.333333333333,4,2,1,60,0,0
61712,-100,4,2,1,60,0,0
66212,-100,4,2,1,50,0,0
66378,-100,4,2,1,60,0,0
68878,-100,4,2,1,50,0,0
69045,-100,4,2,1,60,0,0
71545,-100,4,2,1,50,0,0
71712,-100,4,2,1,60,0,0
74627,-100,4,2,1,50,0,0
74712,-100,4,2,1,60,0,0
75295,-100,4,2,1,5,0,0
75378,-100,4,2,1,60,0,0
75545,-100,4,2,1,60,0,0
76629,-100,4,2,1,5,0,0
76711,-100,4,2,1,60,0,0
76712,-100,4,2,1,50,0,0
77045,-100,4,2,1,60,0,0
77962,-100,4,2,1,5,0,0
78045,-100,4,2,1,60,0,0
79295,-100,4,2,1,5,0,0
79378,-100,4,2,1,60,0,0
79379,-100,4,2,1,50,0,0
79545,-100,4,2,1,60,0,0
80629,-100,4,2,1,5,0,0
80711,-100,4,2,1,60,0,0
80712,-100,4,2,1,50,0,0
80878,-100,4,2,1,60,0,0
81962,-100,4,2,1,5,0,0
82045,-100,4,2,1,60,0,0
82212,-100,4,2,1,50,0,0
82378,-100,4,2,1,60,0,0
83295,-100,4,2,1,5,0,0
83378,-100,4,2,1,60,0,0
83379,-100,4,2,1,50,0,0
83545,-100,4,2,1,60,0,0
85295,-100,4,2,1,5,0,0
85378,-100,4,2,1,60,0,0
85379,-100,4,2,1,50,0,0
85462,-100,4,2,1,60,0,0
85712,-100,4,2,1,65,0,1
96378,-100,4,2,1,60,0,1
96545,-100,4,2,1,65,0,1
107045,-100,4,2,1,60,0,0
118878,-100,4,2,1,50,0,0
119045,-100,4,2,1,60,0,0
119628,-100,4,2,1,5,0,0
119712,-100,4,2,1,60,0,0
120295,-100,4,2,1,5,0,0
120378,-100,4,2,1,60,0,0
121545,-100,4,2,1,50,0,0
121712,-100,4,2,1,60,0,0
125628,-100,4,2,1,5,0,0
125712,-100,4,2,1,60,0,0
129712,-133.333333333333,4,2,1,60,0,0
132961,-133.333333333333,4,2,1,50,0,0
133045,-133.333333333333,4,2,1,60,0,0
136378,-133.333333333333,4,2,1,60,0,0
136961,-100,4,2,1,5,0,0
136962,-133.333333333333,4,2,1,5,0,0
137045,-133.333333333333,4,2,1,60,0,0
138712,-111.111111111111,4,2,1,60,0,0
139045,-100,4,2,1,65,0,1
160378,-100,4,2,1,60,0,0
166461,-100,4,2,1,50,0,0
166712,-100,4,2,1,60,0,0
166878,-100,4,2,1,50,0,0
167045,-100,4,2,1,60,0,0
167795,-100,4,2,1,50,0,0
167878,-100,4,2,1,60,0,0
167962,-100,4,2,1,50,0,0
168045,-100,4,2,1,60,0,0
168211,-100,4,2,1,50,0,0
168378,-100,4,2,1,60,0,0
171128,-100,4,2,1,50,0,0
172045,-100,4,2,1,60,0,0
172712,-100,4,2,1,5,0,0
173045,-100,4,2,1,60,0,0
173379,-100,4,2,1,5,0,0
173712,-100,4,2,1,60,0,0
174045,-100,4,2,1,5,0,0
174378,-100,4,2,1,60,0,0
174712,-100,4,2,1,5,0,0
175045,-100,4,2,1,60,0,0
176962,-100,4,2,1,5,0,0
177045,-100,4,2,1,60,0,0
188379,-100,4,2,1,60,0,0
199045,-133.333333333333,4,2,1,60,0,0
208462,-133.333333333333,4,2,1,50,0,0
208629,-133.333333333333,4,2,1,5,0,0
208712,-133.333333333333,4,2,1,50,0,0
209545,-133.333333333333,4,2,1,5,0,0
209712,-100,4,2,1,65,0,1
231045,-100,4,2,1,60,0,0

[Colours]
Combo1 : 212,212,212
Combo2 : 255,128,0
Combo3 : 128,64,64

[HitObjects]
170,56,379,5,4,3:2:0:0:
170,56,1712,1,4,3:2:0:0:
170,56,2378,1,12,3:2:0:0:
238,0,2712,1,0,3:0:0:0:
251,17,2795,1,0,3:0:0:0:
258,37,2878,1,8,3:0:0:0:
259,59,2962,1,8,3:0:0:0:
254,80,3045,5,4,3:2:0:0:
254,80,4378,1,4,3:2:0:0:
254,80,5045,1,12,3:2:0:0:
257,92,5128,1,8,3:2:0:0:
261,104,5212,1,8,3:2:0:0:
262,182,5378,2,0,P|299:174|312:162,2,43.75,8|8|8,3:2|3:2|3:0,3:0:0:0:
222,175,5628,1,8,3:0:0:0:
222,175,5712,5,4,3:2:0:0:
222,175,7045,1,4,3:2:0:0:
222,175,7712,1,12,3:2:0:0:
143,213,8045,1,0,3:0:0:0:
135,192,8128,1,0,3:0:0:0:
133,170,8212,1,8,3:0:0:0:
137,149,8295,1,8,3:0:0:0:
147,130,8378,5,4,3:2:0:0:
147,130,9712,2,0,P|205:135|235:113,1,87.5,4|8,3:2|3:2,3:0:0:0:
277,48,10045,1,0,3:0:0:0:
277,48,10212,1,8,3:0:0:0:
360,72,10378,1,8,3:2:0:0:
310,144,10545,1,0,3:0:0:0:
376,201,10712,1,8,3:2:0:0:
359,215,10795,1,8,3:2:0:0:
340,225,10878,1,8,3:2:0:0:
319,230,10962,1,8,3:2:0:0:
295,227,11045,6,0,P|341:237|370:288,1,87.5,12|0,3:2|3:0,3:0:0:0:
377,318,11295,1,0,3:0:0:0:
377,318,11378,1,8,3:2:0:0:
271,318,11545,1,0,3:0:0:0:
165,321,11712,2,0,P|126:308|64:331,1,87.5,8|0,3:2|3:0,3:0:0:0:
8,242,12045,2,0,P|38:214|49:149,1,87.5,8|0,3:2|3:0,3:0:0:0:
151,138,12378,6,0,P|159:178|210:220,1,87.5,8|0,3:2|3:0,3:0:0:0:
238,233,12628,1,0,3:0:0:0:
238,233,12712,1,8,3:2:0:0:
342,226,12878,1,0,3:0:0:0:
439,266,13045,2,0,P|449:219|423:164,1,87.5,8|0,3:2|3:0,3:0:0:0:
354,50,13378,2,0,P|344:97|372:147,1,87.5,8|0,3:2|3:0,3:0:0:0:
508,84,13712,6,0,L|420:87,1,87.5,8|0,3:2|3:0,3:0:0:0:
387,68,13962,1,0,3:0:0:0:
354,50,14045,1,8,3:2:0:0:
249,62,14212,1,0,3:0:0:0:
151,25,14378,2,0,P|140:67|154:113,1,87.5,8|0,3:2|3:0,3:0:0:0:
225,226,14712,2,0,P|236:184|222:138,1,87.5,8|0,3:2|3:0,3:0:0:0:
175,283,15045,6,0,P|260:296|269:290,1,87.5,8|0,3:2|3:0,3:0:0:0:
303,275,15295,1,0,3:0:0:0:
303,275,15378,1,8,3:2:0:0:
396,226,15545,1,0,3:0:0:0:
490,272,15712,1,8,3:2:0:0:
500,253,15795,1,8,3:2:0:0:
505,231,15878,1,0,3:0:0:0:
503,210,15962,1,0,3:0:0:0:
495,189,16045,2,0,P|482:164|473:120,3,43.75,8|8|8|8,3:0|3:0|3:0|3:0,3:0:0:0:
483,97,16378,6,0,P|433:110|380:77,1,87.5,12|0,3:2|3:0,3:0:0:0:
364,59,16628,1,0,3:0:0:0:
364,59,16712,1,12,3:2:0:0:
259,52,16878,1,0,3:0:0:0:
161,90,17045,2,0,P|154:31|175:-5,1,87.5,12|0,3:2|3:0,3:0:0:0:
234,135,17378,2,0,P|241:194|220:230,1,87.5,12|0,3:2|3:0,3:0:0:0:
204,264,17628,1,0,3:0:0:0:
204,264,17712,6,0,L|314:276,1,87.5,12|0,3:2|3:0,3:0:0:0:
343,270,17962,1,0,3:0:0:0:
343,270,18045,1,12,3:2:0:0:
447,285,18212,1,0,3:0:0:0:
364,348,18378,2,0,P|338:290|346:262,1,87.5,12|0,3:2|3:0,3:0:0:0:
386,131,18712,2,0,P|412:189|406:220,1,87.5,12|0,3:2|3:0,3:0:0:0:
334,73,19045,6,0,P|308:131|316:159,1,87.5,12|0,3:2|3:0,3:0:0:0:
335,190,19295,1,0,3:0:0:0:
335,190,19378,1,12,3:2:0:0:
249,250,19545,1,0,3:0:0:0:
164,312,19712,2,0,P|146:272|151:229,1,87.5,12|0,3:2|3:0,3:0:0:0:
335,190,20045,2,0,P|352:229|347:272,1,87.5,12|0,3:2|3:0,3:0:0:0:
316,316,20295,1,0,3:0:0:0:
316,316,20378,5,12,3:2:0:0:
420,308,20545,1,8,3:2:0:0:
512,273,20712,2,0,P|520:321|500:360,2,87.5,8|0|8,3:0|3:0|3:2,3:0:0:0:
433,202,21212,1,0,3:0:0:0:
485,111,21378,1,8,3:2:0:0:
483,89,21462,1,8,3:2:0:0:
482,67,21545,1,8,3:2:0:0:
481,45,21628,1,8,3:2:0:0:
480,21,21712,6,0,B|370:-8|420:65|294:43,1,175,6|0,3:2|3:0,3:0:0:0:
210,24,22212,1,8,3:2:0:0:
105,33,22378,2,0,B|91:62|91:62|99:128,1,87.5,2|8,3:2|3:2,3:0:0:0:
159,236,22712,2,0,B|173:207|173:207|165:141,1,87.5,2|8,3:2|3:2,3:0:0:0:
183,317,23045,6,0,B|230:302|245:257|245:257|279:303|342:290,1,175,2|0,3:2|3:0,3:0:0:0:
423,289,23545,1,8,3:2:0:0:
311,212,23712,1,0,3:0:0:0:
451,299,23878,2,0,P|447:224|454:176,1,87.5,8|0,3:2|3:0,3:0:0:0:
414,111,24212,1,8,3:2:0:0:
471,56,24378,6,0,B|440:96|440:96|353:96|353:96|310:49,1,175,6|0,3:2|3:0,3:0:0:0:
262,9,24878,1,8,3:2:0:0:
179,39,25045,2,0,P|158:72|175:143,1,87.5,2|8,3:2|3:2,3:0:0:0:
308,148,25378,2,0,P|329:115|312:44,1,87.5,2|8,3:2|3:2,3:0:0:0:
243,91,25712,5,14,3:2:0:0:
218,192,25878,1,0,3:0:0:0:
308,148,26045,1,12,3:2:0:0:
283,249,26212,1,2,3:2:0:0:
385,224,26378,6,0,P|385:273|353:319,1,87.5,14|0,3:2|3:0,3:0:0:0:
264,332,26712,2,0,P|249:350|238:384,3,43.75,8|8|10|8,3:2|3:2|3:2|3:2,3:0:0:0:
189,382,27045,6,0,P|209:343|106:292,1,175,6|0,3:2|3:0,3:0:0:0:
52,360,27545,1,8,3:2:0:0:
10,263,27712,2,0,P|-1:195|24:153,1,87.5,2|8,3:2|3:2,3:0:0:0:
83,73,28045,2,0,P|94:141|69:183,1,87.5,2|8,3:2|3:2,3:0:0:0:
24,0,28378,6,0,B|98:4|98:4|119:15|119:15|202:16,1,175,2|0,3:2|3:0,3:0:0:0:
301,14,28878,1,8,3:2:0:0:
318,117,29045,1,0,3:0:0:0:
194,117,29212,1,8,3:2:0:0:
213,14,29378,2,0,L|314:14,1,87.5,0|8,3:0|3:2,3:0:0:0:
263,199,29712,6,0,L|162:199,1,87.5,6|8,3:2|3:2,3:0:0:0:
70,199,30045,1,10,3:2:0:0:
123,289,30212,1,10,3:2:0:0:
227,289,30378,2,0,L|316:289,1,87.5,2|8,3:2|3:2,3:0:0:0:
420,287,30712,1,10,3:0:0:0:
420,287,30878,1,10,3:0:0:0:
509,312,31045,6,0,P|513:270|505:246,3,43.75,6|0|8|0,3:2|3:0|3:2|3:0,3:0:0:0:
486,223,31378,2,0,P|482:181|490:157,3,43.75,4|0|8|0,3:2|3:0|3:2|3:0,3:0:0:0:
495,127,31712,2,0,P|499:85|491:61,3,43.75,4|0|8|0,3:2|3:0|3:2|3:0,3:0:0:0:
498,31,32045,1,8,3:2:0:0:
479,42,32128,1,8,3:0:0:0:
458,48,32212,1,8,3:0:0:0:
436,48,32295,1,8,3:0:0:0:
417,40,32378,6,0,B|306:24|363:80|248:72,1,175,6|0,3:2|3:0,3:0:0:0:
149,42,32878,1,8,3:2:0:0:
149,42,32962,1,0,3:0:0:0:
149,42,33045,2,0,B|140:86|140:86|150:132,1,87.5,6|8,3:2|3:2,3:0:0:0:
176,172,33295,1,0,3:0:0:0:
176,172,33378,2,0,B|185:216|185:216|175:262,1,87.5,6|8,3:2|3:2,3:0:0:0:
146,301,33628,1,0,3:0:0:0:
146,301,33712,6,0,B|221:298|221:298|252:310|252:310|351:306,1,175,6|0,3:2|3:0,3:0:0:0:
423,305,34212,1,8,3:2:0:0:
512,331,34378,2,0,P|512:273|498:246,1,87.5,0|8,3:0|3:2,3:0:0:0:
410,135,34712,2,0,P|410:193|424:220,1,87.5,0|8,3:0|3:2,3:0:0:0:
476,74,35045,6,0,L|286:94,1,175,6|0,3:2|3:0,3:0:0:0:
205,51,35545,1,8,3:2:0:0:
108,93,35712,2,0,P|97:43|112:-2,1,87.5,6|8,3:2|3:2,3:0:0:0:
299,8,36045,2,0,P|310:58|295:103,1,87.5,6|8,3:2|3:2,3:0:0:0:
252,185,36378,6,0,P|241:247|259:289,1,87.5,14|0,3:2|3:0,3:0:0:0:
333,330,36712,1,12,3:2:0:0:
436,317,36878,1,2,3:2:0:0:
492,187,37045,6,0,P|503:249|485:291,1,87.5,14|0,3:2|3:0,3:0:0:0:
420,337,37378,1,8,3:2:0:0:
398,335,37462,1,8,3:2:0:0:
376,333,37545,1,8,3:2:0:0:
354,331,37628,1,8,3:2:0:0:
333,330,37712,6,0,B|296:325|271:302|271:302|247:312|247:312|220:303|220:303|196:324|160:330,1,175,6|0,3:2|3:0,3:0:0:0:
73,354,38212,1,8,3:2:0:0:
73,354,38295,1,0,3:0:0:0:
73,354,38378,2,0,P|57:292|74:249,1,87.5,6|8,3:2|3:2,3:0:0:0:
26,234,38628,1,0,3:0:0:0:
26,234,38712,2,0,P|58:178|100:160,1,87.5,6|8,3:2|3:2,3:0:0:0:
72,114,38962,1,0,3:0:0:0:
72,114,39045,6,0,P|133:98|215:176,1,175,6|0,3:2|3:0,3:0:0:0:
221,269,39545,1,8,3:2:0:0:
279,356,39712,2,0,P|328:352|370:323,1,87.5,0|8,3:0|3:2,3:0:0:0:
293,141,40045,2,0,P|244:145|202:174,1,87.5,0|8,3:0|3:2,3:0:0:0:
399,143,40378,6,0,B|397:194|363:219|363:219|414:228|438:283,1,175,6|10,3:2|3:2,3:0:0:0:
496,352,40878,1,10,3:2:0:0:
388,349,41045,2,0,P|444:273|384:224,1,175,6|10,3:2|3:0,3:0:0:0:
377,220,41462,1,8,3:0:0:0:
355,220,41545,1,2,3:2:0:0:
334,214,41628,1,0,3:0:0:0:
313,202,41712,6,0,B|273:183|273:183|209:192,1,87.5,6|0,3:2|3:0,3:0:0:0:
216,293,42045,2,0,B|256:312|256:312|320:303,1,87.5,0|0,3:0|3:0,3:0:0:0:
128,269,42378,2,0,P|130:215|170:164,1,87.5,12|0,3:2|3:0,3:0:0:0:
101,89,42712,2,0,P|140:129|215:90,1,131.25,0|0,3:0|3:0,3:0:0:0:
223,73,43045,5,4,3:2:0:0:
223,73,43712,1,8,3:2:0:0:
289,20,43878,1,0,3:0:0:0:
355,73,44045,1,8,3:0:0:0:
287,125,44212,1,0,3:0:0:0:
221,176,44378,6,0,B|372:176|372:176|371:289|371:289|305:289,1,328.125012516976,4|0,3:2|3:0,3:0:0:0:
262,289,45295,1,0,3:0:0:0:
218,289,45378,2,0,L|158:289,3,43.75,8|8|8|8,3:2|3:2|3:2|3:2,3:0:0:0:
134,308,45712,6,0,P|145:247|37:183,1,175,4|0,3:2|3:0,3:0:0:0:
80,92,46212,1,8,3:2:0:0:
5,136,46378,2,0,P|52:176|161:114,1,175,0|0,3:0|3:0,3:0:0:0:
184,70,46878,1,8,3:2:0:0:
271,63,47045,6,0,P|318:22|324:143,1,262.5,0|8,3:0|3:2,3:0:0:0:
246,167,47712,2,0,P|241:231|258:266,1,87.5,0|8,3:0|3:2,3:0:0:0:
312,340,48045,1,8,3:2:0:0:
312,340,48128,1,8,3:0:0:0:
312,340,48212,1,0,3:0:0:0:
312,340,48295,1,0,3:0:0:0:
312,340,48378,5,4,3:2:0:0:
312,340,49045,1,8,3:2:0:0:
354,265,49212,1,0,3:0:0:0:
296,202,49378,1,8,3:2:0:0:
220,241,49545,1,8,3:0:0:0:
223,283,49628,1,8,3:0:0:0:
228,326,49712,5,4,3:2:0:0:
228,326,50378,5,0,3:0:0:0:
228,326,50545,1,0,3:0:0:0:
145,305,50712,2,0,P|89:299|59:313,1,65.6250025033952,0|8,3:0|3:2,3:0:0:0:
27,232,51045,6,0,P|60:186|59:125,1,87.5,4|8,3:2|3:2,3:0:0:0:
152,151,51378,2,0,P|174:202|228:232,1,87.5,0|8,3:0|3:2,3:0:0:0:
286,222,51712,1,0,3:0:0:0:
326,144,51878,1,8,3:2:0:0:
373,217,52045,2,0,L|272:222,1,87.5,0|8,3:0|3:2,3:0:0:0:
286,309,52378,6,0,L|387:314,1,87.5,0|8,3:0|3:2,3:0:0:0:
373,217,52712,2,0,L|285:221,1,87.5,0|8,3:0|3:2,3:0:0:0:
209,264,53045,1,8,3:2:0:0:
209,264,53128,1,8,3:2:0:0:
209,264,53212,1,8,3:0:0:0:
209,264,53295,1,8,3:0:0:0:
209,264,53378,2,0,P|176:279|136:279,3,43.75,0|0|0|0,3:0|3:0|3:0|3:0,3:0:0:0:
127,292,53712,6,0,B|126:236|126:236|142:210|142:210|175:135|115:88|45:141|79:192,1,262.500010013581,4|8,3:2|3:2,3:0:0:0:
22,244,54545,1,0,3:0:0:0:
67,316,54712,2,0,P|106:294|146:293,1,65.6250025033952,8|0,3:0|3:0,3:0:0:0:
188,350,55045,6,0,P|155:293|322:291,1,328.125012516976,4|0,3:2|3:0,3:0:0:0:
319,356,56045,2,0,P|364:345|374:337,3,43.75,8|8|8|8,3:2|3:2|3:2|3:2,3:0:0:0:
403,355,56378,6,0,B|436:318|406:267|406:267|447:243|450:194,1,175,4|0,3:2|3:0,3:0:0:0:
469,118,56878,1,8,3:2:0:0:
469,118,57045,2,0,P|406:112|378:63,1,87.5,4|8,3:2|3:2,3:0:0:0:
247,57,57378,2,0,P|283:33|326:37,1,87.5,4|8,3:2|3:2,3:0:0:0:
168,21,57712,6,0,B|166:85|166:85|194:120|194:120|185:203,1,175,4|0,3:2|3:0,3:0:0:0:
154,267,58212,1,8,3:2:0:0:
111,342,58378,2,0,P|171:354|200:344,1,87.5,0|8,3:0|3:2,3:0:0:0:
282,357,58712,1,8,3:2:0:0:
283,335,58795,1,8,3:0:0:0:
279,313,58878,1,0,3:0:0:0:
269,294,58962,1,0,3:0:0:0:
255,275,59045,6,0,P|264:312|370:229,1,262.500010013581,4|8,3:2|3:2,3:0:0:0:
321,169,59878,1,0,3:0:0:0:
347,87,60045,1,8,3:2:0:0:
289,24,60212,1,8,3:0:0:0:
289,24,60295,1,8,3:0:0:0:
289,24,60378,6,0,B|192:22|192:22|167:43|167:43|165:42|165:42|169:44|169:44|167:43|167:43|134:69|134:69|32:71,1,262.500010013581,4|0,3:2|3:0,3:0:0:0:
29,153,61212,1,0,3:0:0:0:
113,152,61378,2,0,L|207:150,1,65.6250025033952,0|8,3:0|3:2,3:0:0:0:
196,237,61712,6,0,L|93:241,1,87.5,12|0,3:2|3:0,3:0:0:0:
251,322,62045,2,0,L|354:326,1,87.5,12|0,3:2|3:0,3:0:0:0:
443,332,62378,1,12,3:2:0:0:
393,239,62545,1,0,3:0:0:0:
444,147,62712,1,12,3:2:0:0:
444,147,62795,1,0,3:0:0:0:
444,147,62878,1,0,3:0:0:0:
489,52,63045,6,0,P|437:44|419:53,3,43.75,12|8|0|0,3:2|3:2|3:0|3:0,3:0:0:0:
397,56,63378,2,0,P|345:64|327:55,3,43.75,0|0|0|0,3:0|3:0|3:0|3:0,3:0:0:0:
307,42,63712,2,0,P|255:34|237:43,3,43.75,0|0|0|0,3:0|3:0|3:0|3:0,3:0:0:0:
223,63,64045,1,2,3:0:0:0:
51,79,64378,6,0,B|52:141|52:141|74:177|74:177|71:264,1,175,4|8,3:2|3:2,3:0:0:0:
131,334,64878,1,0,3:0:0:0:
216,272,65045,2,0,B|262:257|262:257|328:274,1,87.5,0|0,3:0|3:0,3:0:0:0:
358,179,65378,2,0,B|347:226|347:226|300:274,1,87.5,8|0,3:2|3:0,3:0:0:0:
366,348,65712,6,0,B|330:315|330:315|320:254|320:254|347:225|347:225|353:198,1,175,0|8,3:0|3:2,3:0:0:0:
370,98,66212,1,0,3:0:0:0:
270,64,66378,2,0,P|209:61|178:77,1,87.5,0|0,3:0|3:0,3:0:0:0:
195,197,66712,2,0,P|256:200|287:184,1,87.5,8|0,3:2|3:0,3:0:0:0:
96,55,67045,6,0,B|126:136|126:136|106:237,1,175,4|8,3:2|3:2,3:0:0:0:
76,323,67545,1,0,3:0:0:0:
21,220,67712,2,0,L|122:223,1,87.5,0|0,3:0|3:0,3:0:0:0:
254,293,68045,2,0,L|166:290,1,87.5,8|0,3:2|3:0,3:0:0:0:
342,357,68378,6,0,B|299:320|299:320|314:189,1,175,4|8,3:2|3:2,3:0:0:0:
338,100,68878,1,0,3:0:0:0:
399,214,69045,2,0,L|298:200,1,87.5,0|0,3:0|3:0,3:0:0:0:
207,193,69378,1,8,3:2:0:0:
254,293,69545,1,8,3:2:0:0:
172,369,69712,6,0,B|246:342|246:342|341:356,1,175,4|8,3:2|3:2,3:0:0:0:
445,368,70212,1,0,3:0:0:0:
409,269,70378,2,0,P|404:212|418:163,1,87.5,0|0,3:0|3:0,3:0:0:0:
255,259,70712,1,8,3:2:0:0:
329,303,70878,1,8,3:2:0:0:
360,107,71045,6,0,P|304:166|193:165,1,175,4|8,3:2|3:2,3:0:0:0:
118,131,71545,1,0,3:0:0:0:
211,90,71712,2,0,P|222:153|211:178,1,87.5,0|0,3:0|3:0,3:0:0:0:
20,176,72045,2,0,P|9:113|20:88,1,87.5,8|0,3:2|3:0,3:0:0:0:
116,45,72378,6,0,L|120:240,1,175,4|8,3:2|3:2,3:0:0:0:
80,317,72878,1,0,3:0:0:0:
169,372,73045,2,0,P|243:368|260:354,1,87.5,8|0,3:2|3:0,3:0:0:0:
348,271,73378,2,0,P|274:275|257:289,1,87.5,8|0,3:2|3:0,3:0:0:0:
401,332,73712,5,4,3:2:0:0:
395,299,73795,1,0,3:0:0:0:
389,267,73878,1,0,3:0:0:0:
384,235,73962,1,0,3:0:0:0:
378,202,74045,6,0,P|373:183|373:151,3,43.75,8|0|0|0,3:2|3:0|3:0|3:0,3:0:0:0:
399,114,74378,1,0,3:0:0:0:
301,77,74545,1,8,3:2:0:0:
270,67,74628,1,0,3:0:0:0:
247,44,74712,1,8,3:0:0:0:
216,32,74795,1,8,3:0:0:0:
184,39,74878,1,0,3:0:0:0:
160,61,74962,1,0,3:0:0:0:
151,92,75045,6,0,P|189:123|125:210,1,175,4|8,3:2|3:2,3:0:0:0:
34,175,75545,1,0,3:0:0:0:
14,278,75712,2,0,P|5:316|26:370,1,87.5,0|0,3:0|3:0,3:0:0:0:
133,210,76045,2,0,P|146:250|138:293,1,87.5,8|0,3:2|3:0,3:0:0:0:
59,94,76378,6,0,P|103:162|214:141,1,175,0|8,3:0|3:2,3:0:0:0:
278,104,76878,1,0,3:0:0:0:
368,50,77045,2,0,P|386:111|373:153,1,87.5,0|0,3:0|3:0,3:0:0:0:
291,187,77378,2,0,P|273:126|286:84,1,87.5,8|0,3:2|3:0,3:0:0:0:
439,14,77712,6,0,P|462:77|426:211,1,175,4|8,3:2|3:2,3:0:0:0:
378,263,78212,1,0,3:0:0:0:
404,364,78378,2,0,P|351:365|317:345,1,87.5,0|0,3:0|3:0,3:0:0:0:
199,284,78712,2,0,P|238:265|281:269,1,87.5,8|0,3:2|3:0,3:0:0:0:
120,328,79045,6,0,B|124:255|124:255|147:224|147:224|153:148,1,175,4|8,3:2|3:2,3:0:0:0:
118,61,79545,1,0,3:0:0:0:
67,152,79712,2,0,P|112:165|167:155,1,87.5,0|0,3:0|3:0,3:0:0:0:
242,108,80045,2,0,P|287:95|342:105,1,87.5,8|8,3:2|3:2,3:0:0:0:
431,106,80378,6,0,P|409:150|327:94,1,175,4|8,3:2|3:2,3:0:0:0:
382,10,80878,1,0,3:0:0:0:
481,44,81045,2,0,P|510:106|503:140,1,87.5,0|0,3:0|3:0,3:0:0:0:
460,216,81378,2,0,P|431:278|438:312,1,87.5,8|8,3:2|3:2,3:0:0:0:
503,373,81712,6,0,B|430:329|430:329|313:331,1,175,4|8,3:2|3:2,3:0:0:0:
238,302,82212,1,0,3:0:0:0:
140,339,82378,2,0,P|92:339|39:352,1,87.5,0|0,3:0|3:0,3:0:0:0:
159,229,82712,2,0,P|111:229|58:216,1,87.5,8|0,3:2|3:0,3:0:0:0:
238,302,83045,6,0,B|192:274|192:274|195:130,1,175,4|8,3:2|3:2,3:0:0:0:
209,48,83545,1,0,3:0:0:0:
209,48,83712,1,8,3:2:0:0:
115,95,83878,1,0,3:0:0:0:
268,110,84045,1,8,3:2:0:0:
123,10,84212,1,0,3:0:0:0:
120,187,84378,5,4,3:2:0:0:
339,55,84712,2,0,P|358:98|350:149,1,87.5,8|0,3:2|3:0,3:0:0:0:
419,196,85045,2,0,P|362:184|325:283,1,175,4|8,3:2|3:2,3:0:0:0:
331,294,85462,1,0,3:0:0:0:
333,315,85545,1,8,3:0:0:0:
327,336,85628,1,8,3:0:0:0:
309,353,85712,6,0,L|190:345,1,87.5,12|0,3:2|3:0,3:0:0:0:
189,332,85962,1,0,3:0:0:0:
189,332,86045,1,8,3:2:0:0:
97,280,86212,1,0,3:0:0:0:
0,320,86378,2,0,P|-10:262|8:222,1,87.5,8|0,3:2|3:0,3:0:0:0:
79,101,86712,2,0,P|89:159|71:199,1,87.5,8|0,3:2|3:0,3:0:0:0:
35,28,87045,6,0,P|93:18|133:36,1,87.5,8|0,3:2|3:0,3:0:0:0:
165,52,87295,1,0,3:0:0:0:
165,52,87378,1,8,3:2:0:0:
229,135,87545,1,0,3:0:0:0:
314,73,87712,1,8,3:2:0:0:
393,142,87878,1,0,3:0:0:0:
310,204,88045,1,8,3:2:0:0:
310,204,88212,1,0,3:0:0:0:
352,290,88378,6,0,P|305:298|254:282,1,87.5,8|0,3:2|3:0,3:0:0:0:
241,263,88628,1,0,3:0:0:0:
241,263,88712,1,8,3:2:0:0:
146,225,88878,1,0,3:0:0:0:
55,277,89045,2,0,P|38:212|54:169,1,87.5,8|0,3:2|3:0,3:0:0:0:
235,177,89378,2,0,P|245:245|229:288,1,87.5,8|0,3:2|3:0,3:0:0:0:
84,108,89712,6,0,L|195:100,1,87.5,8|0,3:2|3:0,3:0:0:0:
333,53,90045,2,0,L|245:46,1,87.5,8|0,3:2|3:0,3:0:0:0:
397,142,90378,1,8,3:2:0:0:
397,142,90462,1,8,3:2:0:0:
397,142,90545,1,8,3:0:0:0:
397,142,90628,1,8,3:0:0:0:
397,142,90712,2,0,P|396:169|391:201,3,43.75,0|0|0|0,3:0|3:0|3:0|3:0,3:0:0:0:
372,229,91045,6,0,B|414:243|414:243|452:288,1,87.5,12|0,3:2|3:0,3:0:0:0:
453,320,91295,1,0,3:0:0:0:
453,320,91378,1,8,3:2:0:0:
356,325,91545,1,0,3:0:0:0:
259,329,91712,2,0,L|156:333,1,87.5,8|0,3:2|3:0,3:0:0:0:
62,260,92045,2,0,L|149:256,1,87.5,8|0,3:2|3:0,3:0:0:0:
201,165,92378,6,0,P|165:151|113:161,1,87.5,8|0,3:2|3:0,3:0:0:0:
281,213,92712,2,0,P|317:199|368:209,1,87.5,8|0,3:2|3:0,3:0:0:0:
446,273,93045,1,8,3:2:0:0:
446,273,93212,1,0,3:0:0:0:
463,169,93378,1,8,3:2:0:0:
364,207,93545,1,0,3:0:0:0:
475,350,93712,6,0,P|432:355|394:337,1,87.5,8|0,3:2|3:0,3:0:0:0:
368,311,93962,1,0,3:0:0:0:
368,311,94045,1,8,3:2:0:0:
251,289,94212,1,0,3:0:0:0:
167,352,94378,2,0,L|58:356,1,87.5,8|0,3:2|3:0,3:0:0:0:
66,250,94712,2,0,L|175:254,1,87.5,8|0,3:2|3:0,3:0:0:0:
179,151,95045,6,0,L|70:155,2,87.5,4|8|8,3:2|3:2|3:0,3:0:0:0:
261,86,95545,1,0,3:0:0:0:
349,28,95712,2,0,P|368:101|355:132,1,87.5,8|0,3:2|3:0,3:0:0:0:
300,192,96045,1,8,3:2:0:0:
332,191,96128,1,8,3:2:0:0:
365,190,96212,1,8,3:2:0:0:
398,189,96295,1,8,3:2:0:0:
431,188,96378,6,0,P|447:232|426:283,1,87.5,12|0,3:2|3:0,3:0:0:0:
419,301,96628,1,0,3:0:0:0:
419,301,96712,1,12,3:2:0:0:
315,347,96878,1,0,3:0:0:0:
209,303,97045,1,12,3:2:0:0:
104,349,97212,1,0,3:0:0:0:
2,297,97378,2,0,P|8:246|33:197,1,87.5,12|0,3:2|3:0,3:0:0:0:
21,160,97628,1,0,3:0:0:0:
21,160,97712,6,0,P|90:145|115:150,1,87.5,12|0,3:2|3:0,3:0:0:0:
150,175,97962,1,0,3:0:0:0:
150,175,98045,1,12,3:2:0:0:
252,149,98212,1,0,3:0:0:0:
223,48,98378,1,12,3:2:0:0:
120,71,98545,1,0,3:0:0:0:
150,175,98712,2,0,P|159:231|173:274,1,87.5,12|0,3:2|3:0,3:0:0:0:
207,295,98962,1,0,3:0:0:0:
207,295,99045,6,0,L|311:285,1,87.5,12|0,3:2|3:0,3:0:0:0:
345,300,99295,1,0,3:0:0:0:
345,300,99378,1,12,3:2:0:0:
444,265,99545,1,0,3:0:0:0:
440,159,99712,1,12,3:2:0:0:
340,126,99878,1,0,3:0:0:0:
283,215,100045,2,0,P|226:195|182:198,1,87.5,12|0,3:2|3:0,3:0:0:0:
149,177,100295,1,0,3:0:0:0:
149,177,100378,6,0,P|194:137|214:98,1,87.5,12|0,3:2|3:0,3:0:0:0:
208,61,100628,1,0,3:0:0:0:
208,61,100712,1,12,3:2:0:0:
103,56,100878,1,0,3:0:0:0:
64,153,101045,1,12,3:2:0:0:
64,163,101128,1,8,3:2:0:0:
65,174,101212,1,8,3:0:0:0:
66,185,101295,1,8,3:0:0:0:
68,198,101378,2,0,P|65:237|70:282,3,43.75,0|0|0|0,3:0|3:0|3:0|3:0,3:0:0:0:
44,291,101712,6,0,P|107:284|161:293,1,87.5,12|0,3:2|3:0,3:0:0:0:
176,313,101962,1,0,3:0:0:0:
176,313,102045,1,12,3:2:0:0:
273,274,102212,1,0,3:0:0:0:
354,339,102378,1,12,3:2:0:0:
370,235,102545,1,0,3:0:0:0:
280,179,102712,2,0,P|240:181|190:226,1,87.5,12|0,3:2|3:0,3:0:0:0:
153,184,102962,1,0,3:0:0:0:
153,184,103045,6,0,P|157:134|134:76,1,87.5,12|0,3:2|3:0,3:0:0:0:
188,66,103295,1,0,3:0:0:0:
188,66,103378,1,12,3:2:0:0:
293,63,103545,1,0,3:0:0:0:
398,60,103712,1,12,3:2:0:0:
370,160,103878,1,0,3:0:0:0:
330,257,104045,2,0,L|262:177,1,87.5,12|0,3:2|3:0,3:0:0:0:
221,202,104295,1,0,3:0:0:0:
221,202,104378,6,0,L|187:297,1,87.5,12|0,3:2|3:0,3:0:0:0:
222,327,104628,1,0,3:0:0:0:
222,327,104712,1,12,3:2:0:0:
118,340,104878,1,0,3:0:0:0:
14,360,105045,1,12,3:2:0:0:
48,260,105212,1,0,3:0:0:0:
4,165,105378,2,0,L|71:86,1,87.5,12|0,3:2|3:0,3:0:0:0:
93,57,105628,1,0,3:0:0:0:
93,57,105712,5,4,3:2:0:0:
197,65,105878,1,8,3:2:0:0:
302,70,106045,2,0,L|297:176,2,87.5,8|0|8,3:0|3:0|3:2,3:0:0:0:
406,77,106545,1,0,3:0:0:0:
509,96,106712,1,8,3:2:0:0:
507,117,106795,1,8,3:2:0:0:
506,139,106878,1,8,3:2:0:0:
505,161,106962,1,8,3:2:0:0:
504,183,107045,5,4,3:2:0:0:
512,384,117712,6,0,P|495:350|491:295,1,87.5,4|0,3:2|3:0,3:0:0:0:
403,288,118045,2,0,P|415:251|451:210,1,87.5,0|0,3:0|3:0,3:0:0:0:
507,151,118378,2,0,P|440:183|314:61,1,262.5,8|0,3:2|3:0,3:0:0:0:
313,74,119045,5,0,3:0:0:0:
226,72,119212,1,0,3:0:0:0:
139,65,119378,2,0,B|138:121|138:121|156:149|156:149|153:224,1,131.25,0|0,3:0|3:0,3:0:0:0:
139,232,119712,2,0,P|209:217|228:228,1,87.5,8|0,3:2|3:0,3:0:0:0:
264,297,120045,2,0,P|258:215|324:188,1,131.25,0|0,3:0|3:0,3:0:0:0:
335,186,120378,6,0,P|406:189|437:175,1,87.5,0|0,3:0|3:0,3:0:0:0:
497,226,120712,2,0,P|458:285|455:319,1,87.5,0|0,3:0|3:0,3:0:0:0:
397,365,121045,2,0,L|114:351,1,262.5,8|0,3:2|3:0,3:0:0:0:
47,343,121712,5,4,3:2:0:0:
104,277,121878,1,0,3:0:0:0:
134,352,122045,2,0,L|251:358,1,87.5,12|0,3:2|3:0,3:0:0:0:
279,290,122378,5,4,3:2:0:0:
221,356,122545,1,0,3:0:0:0:
191,281,122712,1,12,3:2:0:0:
103,276,122878,1,8,3:2:0:0:
15,267,123045,6,0,P|38:213|77:190,1,87.5,4|0,3:2|3:0,3:0:0:0:
145,177,123378,2,0,P|120:131|64:202,1,175,0|8,3:0|3:2,3:0:0:0:
103,276,123878,1,0,3:0:0:0:
191,282,124045,2,0,B|250:285|250:285|275:309|275:309|363:315,1,175,0|0,3:0|3:0,3:0:0:0:
442,327,124545,5,0,3:0:0:0:
495,257,124712,2,0,B|498:191|498:191|474:156|474:156|478:80,1,175,0|8,3:0|3:2,3:0:0:0:
427,17,125212,1,0,3:0:0:0:
341,35,125378,2,0,B|261:80|261:80|216:62,1,131.25,0|0,3:0|3:0,3:0:0:0:
185,44,125712,6,0,P|167:90|165:144,1,87.5,12|0,3:2|3:0,3:0:0:0:
261,242,126045,2,0,P|256:198|239:158,1,87.5,4|0,3:2|3:0,3:0:0:0:
209,313,126378,2,0,P|263:331|315:317,1,87.5,12|0,3:2|3:0,3:0:0:0:
368,282,126712,1,4,3:2:0:0:
368,282,126878,1,0,3:0:0:0:
450,311,127045,6,0,P|453:262|428:217,1,87.5,12|8,3:2|3:2,3:0:0:0:
424,141,127378,2,0,P|380:162|353:207,1,87.5,0|0,3:0|3:0,3:0:0:0:
289,251,127712,2,0,P|329:278|381:278,1,87.5,10|10,3:0|3:0,3:0:0:0:
450,311,128045,1,2,3:2:0:0:
437,227,128212,1,2,3:2:0:0:
424,141,128378,6,0,B|217:162|349:28|106:35,1,350,4|10,3:2|3:2,3:0:0:0:
44,91,129212,1,10,3:0:0:0:
51,175,129378,1,2,3:2:0:0:
51,175,129462,1,2,3:0:0:0:
51,175,129545,1,2,3:2:0:0:
10,250,129712,6,0,P|63:209|77:337,1,262.500010013581,6|2,3:2|3:2,3:0:0:0:
2,346,130545,1,0,3:0:0:0:
87,334,130712,1,10,3:2:0:0:
242,280,131045,6,0,B|255:209|255:209|312:190|312:190|372:213|372:213|382:294,1,262.500010013581,6|10,3:2|3:0,3:0:0:0:
386,293,131795,1,8,3:0:0:0:
394,308,131878,1,2,3:2:0:0:
407,318,131962,1,0,3:0:0:0:
423,321,132045,2,0,L|466:317,2,32.8125012516976,10|2|2,3:2|3:0|3:0,3:0:0:0:
490,249,132378,6,0,B|487:165|487:165|425:119|425:119|419:33,1,229.687508761883,6|0,3:2|3:0,3:0:0:0:
417,7,133045,2,0,L|357:14,3,32.8125012516976,10|8|10|8,3:2|3:2|3:0|3:0,3:0:0:0:
347,31,133378,2,0,L|287:24,3,32.8125012516976,2|0|2|0,3:2|3:0|3:2|3:0,3:0:0:0:
271,20,133712,6,0,L|264:115,1,65.6250025033952,14|0,3:2|3:0,3:0:0:0:
256,170,134045,1,0,3:0:0:0:
387,172,134212,6,0,L|308:118,1,65.6250025033952,14|0,3:2|3:0,3:0:0:0:
266,85,134545,1,0,3:0:0:0:
197,199,134712,6,0,L|282:157,1,65.6250025033952,14|0,3:2|3:0,3:0:0:0:
333,135,135045,1,0,3:0:0:0:
271,20,135212,6,0,L|264:115,1,65.6250025033952,14|0,3:2|3:0,3:0:0:0:
256,170,135545,1,0,3:0:0:0:
388,172,135712,6,0,L|309:118,1,65.6250025033952,14|0,3:2|3:0,3:0:0:0:
266,85,136045,1,12,3:2:0:0:
476,138,136378,6,0,P|473:226|395:153,1,229.687508761883,6|0,3:2|3:0,3:0:0:0:
394,129,137045,6,0,P|372:128|334:117,3,32.8125012516976,0|0|0|0,3:0|3:0|3:0|3:0,3:0:0:0:
323,107,137378,2,0,P|301:108|263:119,3,32.8125012516976,0|0|0|0,3:0|3:0|3:0|3:0,3:0:0:0:
252,131,137712,5,12,3:2:0:0:
252,131,138712,1,8,3:2:0:0:
73,58,139045,6,0,B|175:71|125:12|240:16,1,175,6|0,3:2|3:0,3:0:0:0:
341,13,139545,1,8,3:2:0:0:
341,13,139628,1,0,3:0:0:0:
341,13,139712,2,0,P|388:44|406:87,1,87.5,2|8,3:2|3:2,3:0:0:0:
402,123,139962,1,0,3:0:0:0:
402,123,140045,2,0,P|364:145|321:147,1,87.5,2|8,3:2|3:2,3:0:0:0:
278,118,140295,1,0,3:0:0:0:
278,118,140378,6,0,B|286:190|286:190|272:222|272:222|280:303,1,175,2|0,3:2|3:0,3:0:0:0:
204,363,140878,1,8,3:2:0:0:
107,320,141045,2,0,B|131:275|131:275|139:206,1,87.5,0|8,3:0|3:2,3:0:0:0:
75,152,141378,1,0,3:0:0:0:
149,78,141545,1,8,3:2:0:0:
149,78,141628,1,0,3:0:0:0:
149,78,141712,6,0,B|200:83|221:40|221:40|254:84|329:73,1,175,6|0,3:2|3:0,3:0:0:0:
397,43,142212,1,8,3:2:0:0:
397,43,142295,1,0,3:0:0:0:
397,43,142378,2,0,B|403:81|403:81|379:161,1,87.5,6|8,3:2|3:2,3:0:0:0:
353,167,142628,1,0,3:0:0:0:
353,167,142712,2,0,B|347:205|347:205|371:285,1,87.5,6|8,3:2|3:2,3:0:0:0:
401,287,142962,1,0,3:0:0:0:
401,287,143045,6,0,L|211:266,1,175,6|0,3:2|3:0,3:0:0:0:
122,254,143545,1,8,3:2:0:0:
188,172,143712,1,0,3:0:0:0:
85,149,143878,1,8,3:2:0:0:
151,67,144045,1,8,3:2:0:0:
182,60,144128,1,8,3:2:0:0:
215,62,144212,1,8,3:2:0:0:
245,75,144295,1,8,3:2:0:0:
271,95,144378,6,0,P|379:108|306:205,1,262.5,6|8,3:2|3:2,3:0:0:0:
270,215,144962,1,0,3:0:0:0:
270,215,145045,2,0,P|250:257|268:320,1,87.5,6|8,3:2|3:2,3:0:0:0:
268,347,145295,1,0,3:0:0:0:
268,347,145378,2,0,L|154:346,1,87.5,2|8,3:2|3:2,3:0:0:0:
93,351,145712,5,6,3:2:0:0:
62,269,145878,1,10,3:2:0:0:
129,214,146045,1,2,3:2:0:0:
202,262,146212,1,10,3:2:0:0:
180,346,146378,2,0,B|266:347|266:347|328:290|328:290|444:293,1,262.5,6|8,3:2|3:2,3:0:0:0:
467,318,146962,1,0,3:0:0:0:
467,318,147045,6,0,B|425:269|438:177|517:220|513:95|449:66,1,262.5,6|8,3:2|3:2,3:0:0:0:
416,57,147628,1,0,3:0:0:0:
416,57,147712,2,0,P|377:79|310:79,1,87.5,6|10,3:2|3:2,3:0:0:0:
290,55,147962,1,0,3:0:0:0:
290,55,148045,2,0,P|251:33|184:33,1,87.5,6|10,3:2|3:2,3:0:0:0:
162,52,148295,1,0,3:0:0:0:
162,52,148378,6,0,P|165:78|162:129,11,43.75,14|8|8|8|0|0|0|0|0|0|0|0,3:2|3:2|3:0|3:0|3:0|3:0|3:0|3:0|3:0|3:0|3:0|3:0,3:0:0:0:
154,147,149378,1,8,3:2:0:0:
152,157,149462,1,8,3:2:0:0:
151,168,149545,1,8,3:2:0:0:
150,179,149628,1,8,3:2:0:0:
150,190,149712,6,0,B|276:199|200:138|350:144,1,175,6|0,3:2|3:0,3:0:0:0:
418,148,150212,1,8,3:2:0:0:
418,148,150295,1,0,3:0:0:0:
418,148,150378,2,0,P|420:204|402:247,1,87.5,2|8,3:2|3:2,3:0:0:0:
373,271,150628,1,0,3:0:0:0:
373,271,150712,2,0,P|320:290|273:286,1,87.5,2|8,3:2|3:2,3:0:0:0:
237,276,150962,1,0,3:0:0:0:
237,276,151045,6,0,P|220:237|315:212,1,175,2|0,3:2|3:0,3:0:0:0:
385,288,151545,1,8,3:2:0:0:
298,348,151712,2,0,P|250:367|207:362,1,87.5,0|8,3:0|3:2,3:0:0:0:
140,290,152045,1,0,3:0:0:0:
39,321,152212,1,8,3:2:0:0:
39,321,152295,1,0,3:0:0:0:
39,321,152378,6,0,B|63:281|29:236|29:236|71:202|57:136,1,175,6|0,3:2|3:0,3:0:0:0:
60,57,152878,1,8,3:2:0:0:
60,57,152962,1,0,3:0:0:0:
60,57,153045,2,0,B|105:41|105:41|177:56,1,87.5,6|8,3:2|3:2,3:0:0:0:
187,79,153295,1,0,3:0:0:0:
187,79,153378,2,0,B|232:95|232:95|304:80,1,87.5,6|8,3:2|3:2,3:0:0:0:
322,74,153628,1,0,3:0:0:0:
322,74,153712,6,0,B|318:147|318:147|297:178|297:178|293:276,1,175,6|0,3:2|3:0,3:0:0:0:
189,245,154212,1,8,3:2:0:0:
237,337,154378,1,0,3:0:0:0:
132,327,154545,1,8,3:2:0:0:
26,320,154712,1,8,3:2:0:0:
37,289,154795,1,8,3:2:0:0:
40,256,154878,1,8,3:2:0:0:
35,224,154962,1,8,3:2:0:0:
22,194,155045,6,0,B|38:135|38:135|95:106|95:106|163:130|163:130|193:205,1,262.5,6|8,3:2|3:2,3:0:0:0:
189,245,155628,1,0,3:0:0:0:
189,245,155712,2,0,P|260:240|303:245,1,87.5,6|8,3:2|3:2,3:0:0:0:
322,215,155962,1,0,3:0:0:0:
322,215,156045,2,0,P|393:220|436:215,1,87.5,2|8,3:2|3:2,3:0:0:0:
511,207,156378,5,6,3:2:0:0:
484,105,156545,1,10,3:2:0:0:
393,51,156712,1,2,3:2:0:0:
288,55,156878,1,10,3:2:0:0:
204,124,157045,2,0,P|287:94|178:46,1,262.5,6|8,3:2|3:2,3:0:0:0:
143,53,157628,1,0,3:0:0:0:
143,53,157712,6,0,B|106:80|103:127|103:127|58:143|58:143|36:215|36:215|66:265,1,262.5,6|8,3:2|3:2,3:0:0:0:
106,290,158295,1,0,3:0:0:0:
106,290,158378,2,0,P|176:272|198:277,1,87.5,6|10,3:2|3:2,3:0:0:0:
236,299,158628,1,0,3:0:0:0:
236,299,158712,2,0,P|306:317|328:312,1,87.5,6|10,3:2|3:2,3:0:0:0:
423,297,159045,5,14,3:2:0:0:
423,297,159212,1,8,3:0:0:0:
459,199,159378,1,0,3:0:0:0:
459,199,159545,1,0,3:0:0:0:
436,96,159712,2,0,P|393:108|326:101,1,87.5,8|8,3:2|3:0,3:0:0:0:
264,46,160045,2,0,P|221:34|154:41,1,87.5,0|0,3:0|3:0,3:0:0:0:
78,1,160378,6,0,P|73:51|103:110,1,87.5,4|0,3:2|3:0,3:0:0:0:
51,184,160712,2,0,P|100:189|160:159,1,87.5,8|0,3:2|3:0,3:0:0:0:
236,207,161045,1,0,3:0:0:0:
70,336,161378,1,8,3:2:0:0:
278,363,161712,6,0,P|344:356|373:323,1,87.5,0|0,3:0|3:0,3:0:0:0:
462,361,162045,2,0,P|455:295|422:266,1,87.5,8|0,3:2|3:0,3:0:0:0:
457,176,162378,2,0,P|391:183|362:216,1,87.5,0|0,3:0|3:0,3:0:0:0:
273,178,162712,1,8,3:2:0:0:
51,184,163045,6,0,B|48:137|48:137|73:75,1,87.5,0|0,3:0|3:0,3:0:0:0:
168,97,163378,2,0,B|183:134|183:134|180:181,1,87.5,8|0,3:2|3:0,3:0:0:0:
256,240,163712,1,0,3:0:0:0:
256,240,163878,1,0,3:0:0:0:
192,320,164045,1,8,3:2:0:0:
320,320,164212,1,0,3:0:0:0:
331,181,164378,6,0,B|328:134|328:134|344:97,1,87.5,0|0,3:0|3:0,3:0:0:0:
448,99,164712,2,0,B|464:137|464:137|461:184,1,87.5,8|0,3:2|3:0,3:0:0:0:
400,256,165045,1,0,3:0:0:0:
480,320,165212,1,8,3:2:0:0:
400,384,165378,1,8,3:0:0:0:
320,320,165545,1,0,3:0:0:0:
218,346,165712,6,0,P|172:325|146:278,1,87.5,4|0,3:2|3:0,3:0:0:0:
242,177,166045,2,0,P|246:227|219:273,1,87.5,8|0,3:2|3:0,3:0:0:0:
159,203,166378,2,0,P|105:216|96:226,3,43.75,0|0|0|0,3:0|3:0|3:0|3:0,3:0:0:0:
70,234,166712,2,0,P|72:155|83:107,1,87.5,8|0,3:2|3:0,3:0:0:0:
148,28,167045,6,0,B|158:69|158:69|151:115,1,87.5,0|0,3:0|3:0,3:0:0:0:
242,177,167378,2,0,B|272:147|272:147|315:130,1,87.5,8|0,3:2|3:0,3:0:0:0:
414,96,167712,2,0,B|429:106|429:106|453:112,3,43.75,0|0|0|0,3:0|3:0|3:0|3:0,3:0:0:0:
503,96,168045,2,0,B|492:146|492:146|503:208,1,87.5,8|0,3:2|3:0,3:0:0:0:
477,284,168378,6,0,P|420:307|378:296,1,87.5,0|0,3:0|3:0,3:0:0:0:
293,331,168712,2,0,P|236:308|194:319,1,87.5,8|0,3:2|3:0,3:0:0:0:
111,344,169045,1,0,3:0:0:0:
39,266,169212,1,0,3:0:0:0:
97,179,169378,1,8,3:2:0:0:
196,212,169545,1,0,3:0:0:0:
210,311,169712,6,0,P|254:309|292:330,1,87.5,8|0,3:2|3:0,3:0:0:0:
477,284,170045,2,0,P|433:282|395:303,1,87.5,8|0,3:2|3:0,3:0:0:0:
196,212,170378,2,0,P|239:210|277:231,1,87.5,8|0,3:2|3:0,3:0:0:0:
378,203,170712,1,8,3:0:0:0:
479,177,170878,1,0,3:0:0:0:
408,98,171045,5,4,3:2:0:0:
256,192,171128,12,8,172045,3:2:0:0:
113,129,172378,6,0,B|192:80|192:80|193:261,1,262.5,4|0,3:2|3:0,3:0:0:0:
147,344,173045,2,0,B|304:358|233:268|395:286,1,262.5,4|0,3:2|3:0,3:0:0:0:
480,345,173712,2,0,B|480:249|480:249|425:189|425:189|425:87,1,262.5,4|0,3:2|3:0,3:0:0:0:
502,33,174378,2,0,B|419:67|419:67|419:194|419:194|455:234,1,262.5,4|0,3:2|3:0,3:0:0:0:
449,228,175045,6,0,P|382:220|337:231,1,87.5,4|0,3:2|3:0,3:0:0:0:
281,288,175378,2,0,P|213:296|168:285,1,87.5,0|0,3:0|3:0,3:0:0:0:
115,222,175712,1,4,3:2:0:0:
363,222,176045,1,8,3:2:0:0:
29,256,176378,6,0,B|45:172|45:172|94:143|94:143|103:75|103:75|154:97|206:60|194:18,1,306.25,4|0,3:2|0:0,3:0:0:0:
196,1,177045,2,0,L|246:10,3,43.75,0|0|0|0,3:0|3:0|3:0|3:0,3:0:0:0:
290,19,177378,1,8,3:2:0:0:
318,35,177462,1,8,3:2:0:0:
335,62,177545,1,8,3:2:0:0:
338,94,177628,1,8,3:2:0:0:
327,123,177712,6,0,B|311:185|311:185|336:224|336:224|318:298,1,175,6|0,3:2|3:0,3:0:0:0:
240,326,178212,1,8,3:2:0:0:
168,281,178378,2,0,B|154:310|154:310|162:376,1,87.5,2|8,3:2|3:2,3:0:0:0:
313,370,178712,2,0,B|327:341|327:341|319:275,1,87.5,2|8,3:2|3:2,3:0:0:0:
181,204,179045,6,0,B|230:199|254:159|254:159|277:211|341:213,1,175,2|0,3:2|3:0,3:0:0:0:
448,211,179545,1,8,3:2:0:0:
334,134,179712,1,0,3:0:0:0:
251,264,179878,2,0,P|233:327|251:371,1,87.5,8|0,3:2|3:0,3:0:0:0:
338,377,180212,1,8,3:2:0:0:
423,291,180378,6,0,L|231:260,1,175,6|0,3:2|3:0,3:0:0:0:
147,239,180878,1,8,3:2:0:0:
61,177,181045,2,0,P|40:210|57:281,1,87.5,2|8,3:2|3:2,3:0:0:0:
147,145,181378,2,0,P|168:112|151:41,1,87.5,2|8,3:2|3:2,3:0:0:0:
71,79,181712,5,14,3:2:0:0:
147,145,181878,1,0,3:0:0:0:
76,223,182045,1,12,3:2:0:0:
0,157,182212,1,2,3:2:0:0:
147,145,182378,6,0,P|173:185|170:259,1,87.5,14|0,3:2|3:0,3:0:0:0:
137,321,182712,2,0,P|122:339|111:373,3,43.75,8|8|10|8,3:2|3:2|3:2|3:2,3:0:0:0:
64,376,183045,6,0,L|243:375,1,175,6|0,3:2|3:0,3:0:0:0:
341,350,183545,1,8,3:2:0:0:
445,341,183712,2,0,P|456:273|431:231,1,87.5,2|8,3:2|3:2,3:0:0:0:
372,151,184045,2,0,P|361:219|386:261,1,87.5,2|8,3:2|3:2,3:0:0:0:
460,111,184378,6,0,B|382:110|382:110|361:99|361:99|287:95,1,175,2|0,3:2|3:0,3:0:0:0:
187,63,184878,1,8,3:2:0:0:
107,131,185045,1,0,3:0:0:0:
168,216,185212,1,8,3:2:0:0:
258,162,185378,2,0,L|365:167,1,87.5,0|8,3:0|3:2,3:0:0:0:
372,268,185712,6,0,L|271:268,1,87.5,6|8,3:2|3:2,3:0:0:0:
179,260,186045,1,10,3:2:0:0:
73,263,186212,1,10,3:2:0:0:
73,158,186378,2,0,L|164:153,1,87.5,2|8,3:2|3:2,3:0:0:0:
263,168,186712,1,10,3:0:0:0:
263,168,186878,1,2,3:2:0:0:
289,300,187045,6,0,P|293:258|285:234,3,43.75,6|0|8|0,3:2|3:0|3:2|3:0,3:0:0:0:
266,211,187378,2,0,P|262:169|270:145,3,43.75,4|0|8|0,3:2|3:0|3:2|3:0,3:0:0:0:
292,123,187712,2,0,P|296:81|288:57,3,43.75,0|0|8|0,3:2|3:0|3:2|3:0,3:0:0:0:
298,27,188045,1,8,3:2:0:0:
279,38,188128,1,8,3:0:0:0:
258,44,188212,1,0,3:0:0:0:
236,44,188295,1,0,3:0:0:0:
215,35,188378,6,0,B|231:146|175:89|183:204,1,175,6|0,3:2|3:0,3:0:0:0:
250,292,188878,1,8,3:2:0:0:
250,292,188962,1,0,3:0:0:0:
250,292,189045,2,0,B|254:272|241:248|241:248|255:229|258:202,1,87.5,6|8,3:2|3:2,3:0:0:0:
284,164,189295,1,0,3:0:0:0:
284,164,189378,2,0,B|280:144|293:120|293:120|279:101|276:74,1,87.5,6|8,3:2|3:2,3:0:0:0:
236,44,189628,1,0,3:0:0:0:
236,44,189712,6,0,B|311:47|311:47|342:35|342:35|441:39,1,175,6|0,3:2|3:0,3:0:0:0:
470,123,190212,1,8,3:2:0:0:
409,208,190378,2,0,P|409:266|395:293,1,87.5,0|8,3:0|3:2,3:0:0:0:
252,255,190712,2,0,P|252:197|266:170,1,87.5,0|8,3:0|3:2,3:0:0:0:
312,312,191045,6,0,L|122:292,1,175,6|0,3:2|3:0,3:0:0:0:
70,213,191545,1,8,3:2:0:0:
2,292,191712,2,0,P|-9:342|6:387,1,87.5,6|8,3:2|3:2,3:0:0:0:
135,377,192045,2,0,P|146:327|131:282,1,87.5,6|8,3:2|3:2,3:0:0:0:
70,213,192378,6,0,P|59:151|77:109,1,87.5,14|0,3:2|3:0,3:0:0:0:
148,62,192712,1,12,3:2:0:0:
151,166,192878,1,2,3:2:0:0:
231,216,193045,6,0,P|242:154|224:112,1,87.5,14|0,3:2|3:0,3:0:0:0:
148,62,193378,1,8,3:2:0:0:
170,60,193462,1,8,3:2:0:0:
192,58,193545,1,8,3:2:0:0:
214,56,193628,1,8,3:2:0:0:
235,54,193712,6,0,B|349:43|349:43|381:106,1,175,6|0,3:2|3:0,3:0:0:0:
465,153,194212,1,8,3:2:0:0:
465,153,194295,1,0,3:0:0:0:
465,153,194378,2,0,B|480:195|480:195|466:258,1,87.5,6|8,3:2|3:2,3:0:0:0:
430,270,194628,1,0,3:0:0:0:
430,270,194712,2,0,B|415:312|415:312|429:375,1,87.5,6|8,3:2|3:2,3:0:0:0:
475,370,194962,1,0,3:0:0:0:
475,370,195045,6,0,L|278:363,1,175,6|0,3:2|3:0,3:0:0:0:
213,320,195545,1,8,3:2:0:0:
280,257,195712,2,0,P|241:236|198:233,1,87.5,0|8,3:0|3:2,3:0:0:0:
46,301,196045,2,0,P|95:297|137:268,1,87.5,0|8,3:0|3:2,3:0:0:0:
160,153,196378,6,0,B|142:194|91:203|91:203|125:228|127:279,1,175,6|10,3:2|3:2,3:0:0:0:
144,381,196878,1,10,3:2:0:0:
213,320,197045,2,0,B|336:320|259:273|402:261,1,175,6|10,3:2|3:0,3:0:0:0:
395,262,197462,1,8,3:0:0:0:
417,262,197545,1,2,3:2:0:0:
438,268,197628,1,0,3:0:0:0:
454,284,197712,6,0,P|454:200|466:181,1,87.5,6|0,3:2|3:0,3:0:0:0:
376,128,198045,2,0,P|385:85|375:43,1,87.5,0|0,3:0|3:0,3:0:0:0:
270,37,198378,1,12,3:2:0:0:
165,28,198545,1,8,3:0:0:0:
156,132,198712,1,0,3:0:0:0:
260,140,198878,1,0,3:0:0:0:
71,83,199045,6,0,B|74:180|74:180|142:219|142:219|148:314,2,262.500010013581,4|4|4,3:2|3:2|3:2,3:0:0:0:
379,17,201045,1,0,3:0:0:0:
354,91,201212,1,0,3:0:0:0:
384,163,201378,1,8,3:2:0:0:
292,34,201712,6,0,B|184:22|247:81|120:76|120:76|172:61|184:22,2,262.500010013581,4|4|4,3:2|3:2|3:2,3:0:0:0:
470,44,203712,1,8,3:2:0:0:
470,44,203795,1,8,3:2:0:0:
470,44,203878,1,8,3:0:0:0:
470,44,203962,1,8,3:0:0:0:
470,44,204045,2,0,L|460:94,3,32.8125012516976,0|0|0|0,3:0|3:0|3:0|3:0,3:0:0:0:
437,106,204378,6,0,P|431:226|316:195,1,262.500010013581,4|12,3:2|3:2,3:0:0:0:
214,89,205378,1,0,3:0:0:0:
56,81,205712,6,0,B|48:166|48:166|98:229|98:229|86:354,1,262.500010013581,4|12,3:2|3:2,3:0:0:0:
167,334,206545,1,8,3:2:0:0:
245,341,206712,1,0,3:0:0:0:
396,348,207045,6,0,B|375:318|407:262|407:262|446:206|418:152|345:155|348:221,1,262.500010013581,4|4,3:2|3:2,3:0:0:0:
348,210,208045,1,4,3:2:0:0:
348,210,208378,5,4,3:2:0:0:
256,192,208462,12,0,209545,3:2:0:0:
93,31,209712,6,0,B|78:73|78:73|97:130,1,87.5,14|0,3:2|3:0,3:0:0:0:
121,157,209962,1,0,3:0:0:0:
121,157,210045,2,0,B|136:199|136:199|117:256,1,87.5,10|2,3:2|3:2,3:0:0:0:
99,287,210295,1,0,3:0:0:0:
99,287,210378,2,0,P|132:301|216:288,1,87.5,10|0,3:2|3:0,3:0:0:0:
310,256,210712,1,10,3:2:0:0:
341,246,210795,1,0,3:0:0:0:
372,253,210878,1,0,3:0:0:0:
397,275,210962,1,0,3:0:0:0:
408,305,211045,6,0,L|400:118,1,175,10|8,3:2|3:2,3:0:0:0:
435,31,211545,1,0,3:0:0:0:
435,31,211628,1,0,3:0:0:0:
435,31,211712,2,0,P|392:23|338:56,1,87.5,8|0,3:2|3:0,3:0:0:0:
249,56,212045,2,0,P|263:97|319:127,1,87.5,8|0,3:2|3:0,3:0:0:0:
364,203,212378,6,0,P|358:245|330:278,1,87.5,10|0,3:2|3:0,3:0:0:0:
277,284,212628,1,0,3:0:0:0:
277,284,212712,2,0,L|188:284,1,87.5,10|2,3:2|3:2,3:0:0:0:
136,281,212962,1,0,3:0:0:0:
137,281,213045,2,0,P|108:248|103:205,1,87.5,10|0,3:2|3:0,3:0:0:0:
129,103,213378,1,8,3:2:0:0:
156,120,213462,1,0,3:0:0:0:
188,122,213545,1,2,3:2:0:0:
218,108,213628,1,0,3:0:0:0:
238,83,213712,6,0,P|287:52|381:106,1,175,10|8,3:2|3:2,3:0:0:0:
415,202,214212,1,0,3:0:0:0:
420,231,214295,1,0,3:0:0:0:
415,261,214378,5,8,3:2:0:0:
403,279,214462,1,8,3:2:0:0:
387,293,214545,1,8,3:0:0:0:
366,300,214628,1,8,3:0:0:0:
342,300,214712,6,0,P|296:294|278:296,3,43.75,0|0|0|0,3:0|3:0|3:0|3:0,3:0:0:0:
246,300,215045,2,0,B|260:260|260:260|244:218,1,87.5,14|0,3:2|3:0,3:0:0:0:
203,193,215295,1,0,3:0:0:0:
203,193,215378,2,0,B|161:177|161:177|101:199,1,87.5,10|2,3:2|3:2,3:0:0:0:
86,231,215628,1,0,3:0:0:0:
86,231,215712,2,0,B|70:273|70:273|92:333,1,87.5,10|0,3:2|3:0,3:0:0:0:
183,349,216045,1,10,3:2:0:0:
215,346,216128,1,0,3:0:0:0:
248,343,216212,1,0,3:0:0:0:
281,340,216295,1,0,3:0:0:0:
313,338,216378,6,0,B|377:333|377:333|414:305|414:305|484:299,1,175,10|8,3:2|3:2,3:0:0:0:
477,194,216878,1,0,3:0:0:0:
477,194,216962,1,0,3:0:0:0:
477,194,217045,2,0,L|385:202,1,87.5,10|0,3:2|3:0,3:0:0:0:
300,145,217378,2,0,L|208:137,1,87.5,8|0,3:2|3:0,3:0:0:0:
96,256,217712,6,0,L|188:248,1,87.5,14|0,3:2|3:0,3:0:0:0:
236,245,217962,1,0,3:0:0:0:
236,245,218045,2,0,L|328:237,1,87.5,10|2,3:2|3:2,3:0:0:0:
375,231,218295,1,0,3:0:0:0:
375,231,218378,2,0,L|467:223,1,87.5,14|0,3:2|3:0,3:0:0:0:
466,117,218712,1,10,3:2:0:0:
466,117,218795,1,0,3:0:0:0:
466,117,218878,1,2,3:2:0:0:
466,117,218962,1,0,3:0:0:0:
466,117,219045,6,0,P|443:91|421:57,7,43.75,6|0|0|0|0|0|0|0,3:2|3:0|3:0|3:0|3:0|3:0|3:0|3:0,3:0:0:0:
415,35,219712,1,8,3:2:0:0:
415,35,219795,1,8,3:2:0:0:
415,35,219878,2,0,P|361:25|347:27,5,43.75,0|0|8|8|8|8,3:0|3:0|3:0|3:0|3:0|3:0,3:0:0:0:
335,61,220378,6,0,P|330:116|339:160,1,87.5,14|0,3:2|3:0,3:0:0:0:
343,199,220628,1,0,3:0:0:0:
343,199,220712,2,0,B|306:176|306:176|231:182,1,87.5,14|2,3:2|3:2,3:0:0:0:
214,201,220962,1,0,3:0:0:0:
214,201,221045,2,0,B|177:224|177:224|102:218,1,87.5,14|0,3:2|3:0,3:0:0:0:
80,212,221295,1,0,3:0:0:0:
64,188,221378,1,14,3:2:0:0:
63,161,221462,1,0,3:0:0:0:
75,138,221545,1,2,3:2:0:0:
97,125,221628,1,0,3:0:0:0:
124,125,221712,6,0,P|151:117|177:88,3,43.75,14|0|0|0,3:2|3:0|3:0|3:0,3:0:0:0:
210,86,222045,2,0,P|237:94|263:123,3,43.75,12|0|0|0,3:2|3:0|3:0|3:0,3:0:0:0:
290,135,222378,2,0,P|317:127|343:98,3,43.75,12|0|0|0,3:2|3:0|3:0|3:0,3:0:0:0:
376,96,222712,2,0,P|403:104|429:133,3,43.75,12|0|0|0,3:2|3:0|3:0|3:0,3:0:0:0:
448,154,223045,6,0,B|440:199|440:199|464:253,1,87.5,14|0,3:2|3:0,3:0:0:0:
474,287,223295,1,0,3:0:0:0:
474,287,223378,2,0,P|417:270|371:272,1,87.5,14|2,3:2|3:2,3:0:0:0:
348,303,223628,1,0,3:0:0:0:
348,303,223712,2,0,P|291:320|245:318,1,87.5,14|0,3:2|3:0,3:0:0:0:
211,307,223962,1,0,3:0:0:0:
185,303,224045,1,14,3:2:0:0:
159,300,224128,1,0,3:0:0:0:
132,297,224212,1,2,3:2:0:0:
106,294,224295,1,0,3:0:0:0:
79,291,224378,6,0,P|90:262|80:213,3,43.75,14|0|0|0,3:2|3:0|3:0|3:0,3:0:0:0:
75,198,224712,2,0,P|64:169|74:120,3,43.75,12|0|0|0,3:2|3:0|3:0|3:0,3:0:0:0:
81,107,225045,1,12,3:2:0:0:
93,104,225128,1,8,3:2:0:0:
105,101,225212,1,8,3:0:0:0:
117,98,225295,1,8,3:0:0:0:
129,95,225378,2,0,P|160:89|200:88,3,43.75,0|0|0|0,3:0|3:0|3:0|3:0,3:0:0:0:
215,57,225712,6,0,P|272:68|310:57,1,87.5,14|0,3:2|3:0,3:0:0:0:
345,35,225962,1,0,3:0:0:0:
345,35,226045,2,0,P|341:93|361:129,1,87.5,14|2,3:2|3:2,3:0:0:0:
374,166,226295,1,0,3:0:0:0:
374,166,226378,2,0,P|316:162|280:182,1,87.5,14|0,3:2|3:0,3:0:0:0:
272,223,226628,1,0,3:0:0:0:
272,223,226712,2,0,B|284:247|274:266|274:266|293:282|299:316,1,87.5,14|0,3:2|3:0,3:0:0:0:
326,344,226962,1,0,3:0:0:0:
326,344,227045,6,0,L|271:363,3,43.75,14|0|0|0,3:2|3:0|3:0|3:0,3:0:0:0:
232,353,227378,2,0,L|177:334,3,43.75,12|0|0|0,3:2|3:0|3:0|3:0,3:0:0:0:
149,304,227712,2,0,L|94:285,3,43.75,14|0|0|0,3:2|3:0|3:0|3:0,3:0:0:0:
78,246,228045,2,0,L|23:227,3,43.75,12|0|0|0,3:2|3:0|3:0|3:0,3:0:0:0:
14,184,228378,6,0,B|37:140|37:140|31:77,1,87.5,14|0,3:2|3:0,3:0:0:0:
22,50,228628,1,0,3:0:0:0:
22,50,228712,1,14,3:2:0:0:
121,94,228878,1,2,3:2:0:0:
121,94,228962,1,0,3:0:0:0:
121,94,229045,2,0,B|117:131|117:131|140:175,1,87.5,14|0,3:2|3:0,3:0:0:0:
239,211,229378,1,14,3:2:0:0:
252,208,229462,1,0,3:0:0:0:
264,206,229545,1,2,3:2:0:0:
276,204,229628,1,0,3:0:0:0:
289,202,229712,6,0,P|323:198|360:202,3,43.75,14|0|0|0,3:2|3:0|3:0|3:0,3:0:0:0:
365,220,230045,2,0,P|379:251|386:287,3,43.75,12|0|0|0,3:2|3:0|3:0|3:0,3:0:0:0:
363,294,230378,2,0,P|337:317|305:335,3,43.75,12|0|0|0,3:2|3:0|3:0|3:0,3:0:0:0:
291,331,230712,2,0,P|261:314|233:289,3,43.75,12|0|0|0,3:2|3:0|3:0|3:0,3:0:0:0:
236,273,231045,5,4,3:2:0:0:
13,14,231712,1,8,3:2:0:0:
13,14,231795,1,8,3:2:0:0:
13,14,231878,1,8,3:2:0:0:
91,18,232045,2,0,B|141:28|141:28|195:16,1,87.5,8|0,3:0|3:0,3:0:0:0:
253,2,232378,5,4,3:2:0:0:
