osu file format v14

[General]
AudioFilename: audio.mp3
AudioLeadIn: 0
PreviewTime: 138045
Countdown: 0
SampleSet: Soft
StackLeniency: 0.4
Mode: 0
LetterboxInBreaks: 0
WidescreenStoryboard: 1

[Editor]
Bookmarks: 393,11037,21704,32371,43037,53704,64371,75037,84037,85704,96371,107037,117704,128371,139037,149704,160371,169045,171037,188371,199037,209704,220371,231037
DistanceSpacing: 1.1
BeatDivisor: 4
GridSize: 32
TimelineZoom: 2.899999

[Metadata]
Title:With Fire and Sword (2013)
TitleUnicode:With Fire and Sword (2013)
Artist:Loki
ArtistUnicode:Loki
Creator:Daycore
Version:Hard
Source:osu!
Tags:thaehan rock metal symphonic tales of the moutains fa featured artist mappers' guild neonat taeyang wenect unranked_mapper shmiklak marvollo m_a_r_v_o_l_l_o
BeatmapID:2021294
BeatmapSetID:963872

[Difficulty]
HPDrainRate:4
CircleSize:4
OverallDifficulty:6
ApproachRate:7.5
SliderMultiplier:1.6
SliderTickRate:1

[Events]
//Background and Video events
0,0,"with fire and sword.jpg",0,0
//Break Periods
2,107245,127478
//Storyboard Layer 0 (Background)
//Storyboard Layer 1 (Fail)
//Storyboard Layer 2 (Pass)
//Storyboard Layer 3 (Foreground)
//Storyboard Layer 4 (Overlay)
//Storyboard Sound Samples

[TimingPoints]
379,333.333333333333,4,2,1,60,1,0
379,-100,4,2,1,60,0,0
11045,-100,4,2,1,65,0,1
21712,-100,4,2,1,60,0,0
32378,-100,4,2,1,65,0,1
42712,-100,4,2,1,60,0,1
42962,-100,4,2,1,5,0,1
43045,-125,4,2,1,60,0,0
45712,-100,4,2,1,60,0,0
48378,-125,4,2,1,60,0,0
51045,-100,4,2,1,60,0,0
53712,-125,4,2,1,60,0,0
56378,-100,4,2,1,60,0,0
59045,-125,4,2,1,60,0,0
61712,-100,4,2,1,60,0,0
66212,-100,4,2,1,50,0,0
66378,-100,4,2,1,60,0,0
68878,-100,4,2,1,50,0,0
69045,-100,4,2,1,60,0,0
71545,-100,4,2,1,50,0,0
71712,-100,4,2,1,60,0,0
74628,-100,4,2,1,50,0,0
74712,-100,4,2,1,60,0,0
75295,-100,4,2,1,5,0,0
75378,-100,4,2,1,60,0,0
75545,-100,4,2,1,60,0,0
76629,-100,4,2,1,5,0,0
76711,-100,4,2,1,60,0,0
77045,-100,4,2,1,60,0,0
77962,-100,4,2,1,5,0,0
78045,-100,4,2,1,60,0,0
79295,-100,4,2,1,5,0,0
79378,-100,4,2,1,60,0,0
79545,-100,4,2,1,60,0,0
80629,-100,4,2,1,5,0,0
80711,-100,4,2,1,60,0,0
80878,-100,4,2,1,60,0,0
81962,-100,4,2,1,5,0,0
82045,-100,4,2,1,60,0,0
82212,-100,4,2,1,50,0,0
82378,-100,4,2,1,60,0,0
83295,-100,4,2,1,5,0,0
83378,-100,4,2,1,60,0,0
83545,-100,4,2,1,60,0,0
85295,-100,4,2,1,5,0,0
85378,-100,4,2,1,60,0,0
85461,-100,4,2,1,60,0,0
85712,-100,4,2,1,65,0,1
96378,-90.9090909090909,4,2,1,65,0,1
107045,-100,4,2,1,60,0,0
128378,-153.846153846153,4,2,1,60,0,0
136962,-153.846153846153,4,2,1,5,0,0
137044,-153.846153846153,4,2,1,60,0,0
137378,-153.846153846153,4,2,1,60,0,0
139045,-100,4,2,1,65,0,1
160378,-100,4,2,1,60,0,0
172712,-100,4,2,1,5,0,0
173044,-100,4,2,1,60,0,0
173045,-100,4,2,1,50,0,0
173379,-100,4,2,1,5,0,0
173712,-100,4,2,1,60,0,0
174045,-100,4,2,1,5,0,0
174378,-100,4,2,1,60,0,0
174379,-100,4,2,1,50,0,0
174712,-100,4,2,1,5,0,0
175045,-100,4,2,1,60,0,0
188379,-100,4,2,1,60,0,0
199045,-133.333333333333,4,2,1,60,0,0
208629,-133.333333333333,4,2,1,5,0,0
208712,-133.333333333333,4,2,1,40,0,0
209378,-133.333333333333,4,2,1,60,0,0
209712,-100,4,2,1,65,0,1
231045,-100,4,2,1,60,0,0

[Colours]
Combo1 : 212,212,212
Combo2 : 255,128,0
Combo3 : 128,64,64

[HitObjects]
177,157,11045,6,0,P|220:152|263:164,1,80,12|0,3:2|3:0,0:0:0:0:
287,78,11378,2,0,P|320:104|342:143,1,80,8|0,3:2|3:0,0:0:0:0:
422,102,11712,2,0,P|427:145|415:188,1,80,8|0,3:2|3:0,0:0:0:0:
501,212,12045,2,0,P|474:245|435:267,1,80,8|0,3:2|3:0,0:0:0:0:
380,327,12378,6,0,B|332:327|332:327|291:301,1,80,8|0,3:2|3:0,0:0:0:0:
216,309,12712,2,0,B|188:326|188:326|140:326,1,80,8|0,3:2|3:0,0:0:0:0:
58,366,13045,6,0,P|49:318|77:265,1,80,8|0,3:2|3:0,0:0:0:0:
115,222,13378,2,0,P|124:174|96:121,1,80,8|0,3:2|3:0,0:0:0:0:
46,80,13712,6,0,P|115:63|146:74,1,80,8|0,3:2|3:0,0:0:0:0:
194,14,14045,2,0,P|211:83|200:114,1,80,8|0,3:2|3:0,0:0:0:0:
264,158,14378,2,0,P|195:175|164:164,1,80,8|0,3:2|3:0,0:0:0:0:
115,222,14712,2,0,P|98:153|109:122,1,80,8|0,3:2|3:0,0:0:0:0:
46,80,15045,6,0,P|115:63|146:74,1,80,8|0,3:2|3:0,0:0:0:0:
194,14,15378,2,0,P|263:31|294:20,1,80,8|0,3:2|3:0,0:0:0:0:
358,33,15712,6,0,L|366:73,3,40,8|8|0|0,3:2|3:2|3:0|3:0,0:0:0:0:
389,104,16045,2,0,L|381:144,3,40,8|8|8|8,3:0|3:0|3:0|3:0,0:0:0:0:
369,181,16378,6,0,P|368:217|340:259,1,80,12|0,3:2|3:0,0:0:0:0:
278,298,16712,2,0,P|243:308|194:294,1,80,12|0,3:2|3:0,0:0:0:0:
141,245,17045,2,0,P|120:215|118:164,1,80,12|0,3:2|3:0,0:0:0:0:
146,97,17378,2,0,P|167:68|215:50,1,80,12|0,3:2|3:0,0:0:0:0:
287,56,17712,6,0,P|320:68|352:107,1,80,12|0,3:2|3:0,0:0:0:0:
410,153,18045,2,0,P|382:176|332:183,1,80,12|0,3:2|3:0,0:0:0:0:
261,168,18378,2,0,L|160:160,1,80,12|0,3:2|3:0,0:0:0:0:
167,241,18712,2,0,L|246:247,1,80,12|0,3:2|3:0,0:0:0:0:
238,327,19045,6,0,B|199:336|199:336|155:321,1,80,12|0,3:2|3:0,0:0:0:0:
99,373,19378,2,0,B|78:338|78:338|79:292,1,80,12|0,3:2|3:0,0:0:0:0:
6,263,19712,2,0,B|32:232|32:232|76:219,1,80,12|0,3:2|3:0,0:0:0:0:
85,142,20045,2,0,B|121:157|121:157|148:195,1,80,12|0,3:2|3:0,0:0:0:0:
202,246,20378,5,12,3:2:0:0:
202,246,20545,2,0,P|252:259|311:257,1,80,8|8,3:2|3:0,0:0:0:0:
355,233,20878,1,0,3:0:0:0:
429,263,21045,2,0,P|434:220|414:177,1,80,8|0,3:2|3:0,0:0:0:0:
363,130,21378,2,0,P|360:110|373:61,3,40,8|8|8|8,3:2|3:2|3:2|3:2,0:0:0:0:
386,58,21712,6,0,L|203:77,1,160,6|0,3:2|3:0,0:0:0:0:
146,79,22212,1,8,3:2:0:0:
146,79,22378,2,0,P|133:128|143:176,1,80,2|8,3:2|3:2,0:0:0:0:
189,216,22712,2,0,P|202:265|192:313,1,80,2|8,3:2|3:2,0:0:0:0:
173,369,23045,6,0,B|280:379|221:320|358:327,1,160,2|0,3:2|3:0,0:0:0:0:
402,321,23545,1,8,3:2:0:0:
402,321,23712,2,0,P|409:266|426:225,1,80,0|8,3:0|3:2,0:0:0:0:
460,175,24045,2,0,P|453:120|436:79,1,80,0|8,3:0|3:2,0:0:0:0:
471,21,24378,6,0,B|447:58|447:58|323:81,1,160,6|0,3:2|3:0,0:0:0:0:
274,24,24878,1,8,3:2:0:0:
274,24,25045,2,0,P|252:74|263:117,1,80,2|8,3:2|3:2,0:0:0:0:
273,175,25378,1,2,3:2:0:0:
273,175,25545,1,8,3:2:0:0:
206,219,25712,6,0,P|206:261|173:311,1,80,14|0,3:2|3:0,0:0:0:0:
113,320,26045,2,0,P|73:302|49:245,1,80,12|2,3:2|3:2,0:0:0:0:
67,193,26378,1,14,3:2:0:0:
143,167,26545,1,0,3:0:0:0:
82,114,26712,2,0,L|66:71,3,40,8|8|10|8,3:2|3:2|3:2|3:2,0:0:0:0:
46,43,27045,6,0,B|144:59|90:11|228:31,1,160,6|0,3:2|3:0,0:0:0:0:
282,28,27545,1,8,3:2:0:0:
282,28,27712,2,0,P|330:65|343:102,1,80,2|8,3:2|3:2,0:0:0:0:
406,40,28045,2,0,P|413:100|396:135,1,80,2|8,3:2|3:2,0:0:0:0:
486,134,28378,6,0,P|454:183|346:170,1,160,2|0,3:2|3:0,0:0:0:0:
285,154,28878,1,8,3:2:0:0:
285,154,29045,2,0,B|271:197|271:197|279:250,1,80,0|8,3:0|3:2,0:0:0:0:
202,263,29378,2,0,B|171:229|171:229|121:209,1,80,0|8,3:0|3:2,0:0:0:0:
81,160,29712,5,6,3:2:0:0:
81,160,29878,2,0,P|129:128|144:83,1,80,8|10,3:2|3:2,0:0:0:0:
164,32,30212,1,10,3:2:0:0:
242,18,30378,2,0,P|274:2|348:9,1,80,2|8,3:2|3:2,0:0:0:0:
382,46,30712,1,10,3:0:0:0:
382,46,30878,1,10,3:0:0:0:
430,109,31045,6,0,L|421:152,3,40,6|0|8|0,3:2|3:0|3:2|3:0,3:0:0:0:
409,186,31378,2,0,L|418:229,3,40,4|0|8|0,3:2|3:0|3:2|3:0,3:0:0:0:
432,263,31712,2,0,L|440:302,3,40,4|0|8|0,3:2|3:0|3:2|3:0,3:0:0:0:
439,342,32045,2,0,L|384:338,3,40,8|8|8|8,3:2|3:0|3:0|3:0,3:0:0:0:
361,323,32378,6,0,B|312:329|285:303|285:303|256:346|190:341,1,160,6|0,3:2|3:0,3:0:0:0:
144,370,32878,1,8,3:2:0:0:
144,370,33045,2,0,P|139:330|154:288,1,80,6|8,3:2|3:2,0:0:0:0:
129,215,33378,2,0,P|97:238|57:240,1,80,6|8,3:2|3:2,0:0:0:0:
0,294,33712,6,0,P|-20:226|60:159,1,160,6|0,3:2|3:0,0:0:0:0:
102,126,34212,1,8,3:2:0:0:
167,80,34378,2,0,P|210:72|272:82,1,80,0|8,3:0|3:2,0:0:0:0:
328,61,34712,2,0,P|371:69|433:59,1,80,0|8,3:0|3:2,0:0:0:0:
442,47,34962,1,0,3:0:0:0:
442,47,35045,6,0,B|409:77|409:77|405:212,1,160,6|0,3:2|3:0,0:0:0:0:
407,272,35545,1,8,3:2:0:0:
436,346,35712,2,0,P|380:349|357:338,1,80,6|8,3:2|3:2,0:0:0:0:
312,274,36045,2,0,P|256:271|233:282,1,80,6|8,3:2|3:2,0:0:0:0:
182,340,36378,6,0,P|191:281|147:176,2,160,14|12|14,3:2|3:2|3:2,0:0:0:0:
260,322,37212,1,0,3:0:0:0:
308,258,37378,2,0,L|320:209,3,40,8|8|8|8,3:2|3:2|3:2|3:2,0:0:0:0:
313,179,37712,6,0,P|350:182|386:66,1,160,6|0,3:2|3:0,0:0:0:0:
361,17,38212,1,8,3:2:0:0:
281,23,38378,2,0,B|244:36|244:36|188:28,1,80,6|8,3:2|3:2,0:0:0:0:
124,15,38712,2,0,B|88:31|88:31|54:77,1,80,6|8,3:2|3:2,0:0:0:0:
56,103,38962,1,0,3:0:0:0:
56,103,39045,6,0,B|147:130|127:63|226:102,1,160,6|0,3:2|3:0,0:0:0:0:
257,162,39545,1,8,3:2:0:0:
327,124,39712,2,0,P|336:180|315:215,1,80,0|8,3:0|3:2,0:0:0:0:
284,267,40045,2,0,P|275:323|296:358,1,80,0|8,3:0|3:2,0:0:0:0:
359,369,40378,6,0,L|175:370,1,160,6|10,3:2|3:2,0:0:0:0:
139,316,40878,1,10,3:2:0:0:
60,333,41045,2,0,B|68:272|68:272|104:246|104:246|115:187,1,160,6|10,3:2|3:0,0:0:0:0:
74,123,41545,1,2,3:2:0:0:
74,123,41628,1,0,3:0:0:0:
74,123,41712,6,0,P|148:118|163:126,1,80,6|0,3:2|3:0,0:0:0:0:
216,166,42045,2,0,P|290:171|305:163,1,80,0|0,3:0|3:0,0:0:0:0:
360,125,42378,1,12,3:2:0:0:
360,125,42545,1,0,3:0:0:0:
426,80,42712,6,0,P|440:135|363:206,1,160,0|4,3:0|3:2,0:0:0:0:
375,204,43712,2,0,P|377:249|400:288,1,64,8|0,3:2|3:0,0:0:0:0:
395,342,44045,2,0,P|439:321|455:285,1,64,8|0,3:0|3:0,0:0:0:0:
495,248,44378,6,0,B|374:203|374:203|213:333,1,320,4|0,3:2|3:0,0:0:0:0:
158,360,45378,2,0,L|117:350,3,32,8|8|8|8,3:2|3:2|3:2|3:2,0:0:0:0:
78,356,45712,6,0,P|86:314|81:267,1,80,4|8,3:2|3:2,0:0:0:0:
47,205,46045,1,0,3:0:0:0:
47,205,46212,2,0,P|39:163|44:116,1,80,8|0,3:2|3:0,0:0:0:0:
95,66,46545,1,8,3:2:0:0:
95,66,46712,1,0,3:0:0:0:
173,51,46878,2,0,B|219:58|219:58|257:46,1,80,8|0,3:2|3:0,0:0:0:0:
329,28,47212,5,8,3:2:0:0:
408,37,47378,2,0,P|407:107|421:141,1,80,0|8,3:0|3:2,0:0:0:0:
392,194,47712,2,0,P|397:233|390:272,1,80,0|8,3:0|3:2,0:0:0:0:
403,351,48045,1,8,3:2:0:0:
403,351,48128,1,8,3:2:0:0:
403,351,48212,1,0,3:0:0:0:
322,332,48378,6,0,B|254:292|177:322|219:376|129:395|66:351,1,256,4|8,3:2|3:2,0:0:0:0:
46,294,49212,1,0,3:0:0:0:
46,294,49378,2,0,P|53:239|45:204,1,64,8|8,3:2|3:0,0:0:0:0:
39,194,49628,1,8,3:0:0:0:
39,194,49712,6,0,B|50:152|106:148|106:148|185:148|185:148|248:148|263:96,1,256,4|0,3:2|3:0,0:0:0:0:
190,71,50545,1,0,3:0:0:0:
190,71,50712,2,0,L|101:73,1,64,0|8,3:0|3:2,0:0:0:0:
31,53,51045,6,0,L|21:103,3,40,4|0|8|0,3:2|3:0|3:2|3:0,0:0:0:0:
31,139,51378,2,0,L|41:189,3,40,0|0|8|0,3:0|3:0|3:2|3:0,0:0:0:0:
75,211,51712,2,0,L|85:261,3,40,0|0|8|0,3:0|3:0|3:2|3:0,0:0:0:0:
75,297,52045,2,0,L|65:347,3,40,0|0|8|0,3:0|3:0|3:2|3:0,0:0:0:0:
49,381,52378,6,0,B|89:371|89:371|153:376,1,80,0|8,3:0|3:2,0:0:0:0:
163,355,52628,1,0,3:0:0:0:
163,355,52712,2,0,B|203:365|203:365|267:360,1,80,0|8,3:0|3:2,0:0:0:0:
321,356,53045,2,0,P|325:335|319:300,3,40,8|8|8|8,3:2|3:2|3:0|3:0,0:0:0:0:
340,279,53378,2,0,P|336:258|342:223,3,40,0|0|0|0,3:0|3:0|3:0|3:0,0:0:0:0:
358,204,53712,6,0,P|369:160|232:180,1,256,4|8,3:2|3:2,0:0:0:0:
201,211,54545,1,0,3:0:0:0:
201,211,54712,2,0,P|145:202|123:211,1,64,8|0,3:0|3:0,0:0:0:0:
60,211,55045,6,0,B|121:148|121:148|122:320|122:320|181:259,1,320,4|0,3:2|3:0,0:0:0:0:
206,348,56045,2,0,L|229:324,3,32,8|8|8|8,3:2|3:2|3:2|3:2,0:0:0:0:
253,294,56378,6,0,P|312:304|353:283,1,80,4|8,3:2|3:2,0:0:0:0:
385,239,56712,2,0,P|395:180|374:139,1,80,0|8,3:0|3:2,0:0:0:0:
426,91,57045,2,0,B|310:70|369:133|253:111,2,160,4|4|4,3:2|3:2|3:2,0:0:0:0:
490,139,57878,5,8,3:2:0:0:
478,218,58045,2,0,P|481:277|495:307,1,80,0|8,3:0|3:2,0:0:0:0:
419,336,58378,2,0,P|366:309|333:306,1,80,0|8,3:0|3:2,0:0:0:0:
322,229,58712,2,0,P|344:219|370:179,3,40,8|8|0|0,3:2|3:0|3:0|3:0,0:0:0:0:
375,171,59045,6,0,P|379:86|296:162,1,256,4|8,3:2|3:2,0:0:0:0:
322,229,59878,1,0,3:0:0:0:
280,301,60045,1,8,3:2:0:0:
198,317,60212,1,8,3:0:0:0:
198,317,60295,1,8,3:0:0:0:
198,317,60378,1,4,3:2:0:0:
34,107,61045,5,0,3:0:0:0:
34,107,61212,1,0,3:0:0:0:
35,189,61378,2,0,P|76:180|108:149,1,64,0|8,3:0|3:2,0:0:0:0:
145,105,61712,6,0,P|195:82|244:97,1,80,12|0,3:2|3:0,0:0:0:0:
276,28,62045,2,0,P|299:78|286:127,1,80,12|0,3:2|3:0,0:0:0:0:
353,158,62378,2,0,P|303:181|254:166,1,80,12|0,3:2|3:0,0:0:0:0:
222,235,62712,2,0,P|199:185|212:136,1,80,12|0,3:2|3:0,0:0:0:0:
218,84,63045,5,12,3:2:0:0:
218,84,63128,1,8,3:2:0:0:
218,84,63212,2,0,L|175:82,5,40,0|0|8|8|0|0,3:0|3:0|3:0|3:0|3:0|3:0,0:0:0:0:
144,59,63712,2,0,L|83:66,3,40,8|8|0|0,3:0|3:0|3:0|3:0,0:0:0:0:
73,88,64045,1,2,0:0:0:0:
42,244,64378,6,0,B|154:252|88:203|221:212,1,160,4|8,3:2|3:2,0:0:0:0:
270,235,64878,1,0,3:0:0:0:
334,281,65045,2,0,P|348:234|337:195,1,80,0|0,3:0|3:0,0:0:0:0:
298,137,65378,2,0,P|284:90|295:51,1,80,8|0,3:2|3:0,0:0:0:0:
364,28,65712,6,0,L|179:30,1,160,0|8,3:0|3:2,0:0:0:0:
123,30,66212,1,0,3:0:0:0:
123,30,66378,2,0,P|110:96|115:123,1,80,0|0,3:0|3:0,0:0:0:0:
158,173,66712,2,0,P|171:239|166:266,1,80,8|0,3:2|3:0,0:0:0:0:
119,313,67045,6,0,B|160:288|160:288|286:295,1,160,4|8,3:2|3:2,0:0:0:0:
351,299,67545,1,0,3:0:0:0:
422,334,67712,2,0,P|429:286|412:250,1,80,0|0,3:0|3:0,0:0:0:0:
359,202,68045,2,0,P|352:154|369:118,1,80,8|0,3:2|3:0,0:0:0:0:
417,66,68378,6,0,P|472:101|417:171,1,160,4|8,3:2|3:2,0:0:0:0:
359,202,68878,1,0,3:0:0:0:
359,202,69045,2,0,B|316:191|316:191|261:200,1,80,0|0,3:0|3:0,0:0:0:0:
209,232,69378,2,0,B|166:243|166:243|111:234,1,80,8|8,3:2|3:2,0:0:0:0:
53,260,69712,6,0,B|41:164|108:206|90:85,1,160,4|8,3:2|3:2,0:0:0:0:
139,44,70212,1,0,3:0:0:0:
217,30,70378,2,0,P|249:25|297:60,1,80,0|0,3:0|3:0,0:0:0:0:
310,125,70712,1,8,3:2:0:0:
310,125,70878,1,8,3:2:0:0:
267,192,71045,6,0,P|317:207|390:117,1,160,4|8,3:2|3:2,0:0:0:0:
451,89,71545,1,0,3:0:0:0:
451,89,71712,2,0,P|467:139|458:183,1,80,0|0,3:0|3:0,0:0:0:0:
427,236,72045,2,0,P|411:286|420:330,1,80,8|0,3:2|3:0,0:0:0:0:
474,365,72378,6,0,B|402:360|402:360|382:370|382:370|306:367,1,160,4|8,3:2|3:2,0:0:0:0:
245,330,72878,1,0,3:0:0:0:
168,352,73045,2,0,P|167:304|200:263,1,80,8|0,3:2|3:0,0:0:0:0:
197,198,73378,2,0,P|200:158|182:123,1,80,8|0,3:2|3:0,0:0:0:0:
126,65,73712,6,0,P|104:90|98:129,3,40,4|0|0|0,3:2|3:0|3:0|3:0,0:0:0:0:
87,133,74045,2,0,P|109:158|115:197,3,40,8|0|0|0,3:2|3:0|3:0|3:0,0:0:0:0:
122,202,74378,2,0,B|165:201|165:201|166:204|166:204|226:202,1,80,0|8,3:0|3:2,0:0:0:0:
239,207,74628,1,0,3:0:0:0:
239,207,74712,2,0,L|304:203,3,40,8|8|0|0,3:0|3:0|3:0|3:0,0:0:0:0:
312,226,75045,6,0,P|319:161|429:107,1,160,4|8,3:2|3:2,0:0:0:0:
470,115,75545,1,0,3:0:0:0:
497,190,75712,2,0,P|482:234|488:274,1,80,0|0,3:0|3:0,0:0:0:0:
433,327,76045,2,0,P|402:292|364:277,1,80,8|0,3:2|3:0,0:0:0:0:
312,226,76378,6,0,B|267:225|237:255|237:255|207:208|139:209,1,160,0|8,3:0|3:2,0:0:0:0:
102,179,76878,1,0,3:0:0:0:
102,179,77045,2,0,P|65:163|41:131,1,80,0|0,3:0|3:0,0:0:0:0:
58,53,77378,2,0,P|94:68|118:100,1,80,8|0,3:2|3:0,0:0:0:0:
184,146,77712,6,0,P|248:154|277:48,1,160,4|8,3:2|3:2,0:0:0:0:
353,29,78212,1,0,3:0:0:0:
427,0,78378,2,0,P|428:58|412:83,1,80,0|0,3:0|3:0,0:0:0:0:
367,138,78712,2,0,P|366:196|382:221,1,80,8|0,3:2|3:0,0:0:0:0:
441,259,79045,6,0,B|381:262|381:262|335:286|335:286|284:288,1,160,4|8,3:2|3:2,0:0:0:0:
210,264,79545,1,0,3:0:0:0:
210,264,79712,2,0,L|121:265,1,80,0|0,3:0|3:0,0:0:0:0:
128,184,80045,2,0,L|207:184,1,80,8|8,3:2|3:2,0:0:0:0:
288,188,80378,6,0,P|246:168|263:49,1,160,4|8,3:2|3:2,0:0:0:0:
306,18,80878,1,0,3:0:0:0:
384,32,81045,2,0,P|390:77|425:117,1,80,0|0,3:0|3:0,0:0:0:0:
464,163,81378,2,0,P|458:208|423:248,1,80,8|8,3:2|3:2,0:0:0:0:
462,313,81712,6,0,B|360:324|420:268|288:279,1,160,4|8,3:2|3:2,0:0:0:0:
230,276,82212,1,0,3:0:0:0:
230,276,82378,2,0,B|185:271|185:271|130:292,1,80,0|0,3:0|3:0,0:0:0:0:
75,259,82712,2,0,B|101:222|101:222|111:164,1,80,8|0,3:2|3:0,0:0:0:0:
162,130,83045,6,0,L|235:288,1,160,4|8,3:2|3:2,0:0:0:0:
291,325,83545,1,0,3:0:0:0:
349,270,83712,2,0,L|392:181,1,80,8|0,3:2|3:0,0:0:0:0:
396,118,84045,2,0,L|353:29,1,80,8|0,3:2|3:0,0:0:0:0:
284,68,84378,6,0,B|321:146|321:146|271:238,1,160,4|8,3:2|3:2,0:0:0:0:
210,237,84878,1,0,3:0:0:0:
210,237,85045,2,0,P|163:198|168:131,1,120,4|0,3:2|0:0,0:0:0:0:
174,105,85378,2,0,P|183:90|189:49,3,40,8|0|8|8,3:2|3:0|3:0|3:0,0:0:0:0:
188,27,85712,6,0,P|260:14|300:29,1,80,12|0,3:2|3:0,0:0:0:0:
344,0,86045,2,0,P|378:64|376:107,1,80,8|0,3:2|3:0,0:0:0:0:
431,131,86378,2,0,P|380:183|339:195,1,80,8|0,3:2|3:0,0:0:0:0:
321,244,86712,2,0,P|255:212|231:176,1,80,8|0,3:2|3:0,0:0:0:0:
199,146,87045,6,0,P|155:142|108:181,1,80,8|0,3:2|3:0,0:0:0:0:
82,90,87378,2,0,P|48:118|42:179,1,80,8|0,3:2|3:0,0:0:0:0:
36,232,87712,6,0,B|75:220|75:220|127:238,1,80,8|0,3:2|3:0,0:0:0:0:
114,313,88045,2,0,B|74:324|74:324|22:306,1,80,8|0,3:2|3:0,0:0:0:0:
36,232,88378,6,0,B|75:220|75:220|127:238,1,80,8|0,3:2|3:0,0:0:0:0:
184,267,88712,2,0,B|223:278|223:278|275:260,1,80,8|0,3:2|3:0,0:0:0:0:
297,195,89045,2,0,B|257:183|257:183|220:195,1,80,8|0,3:2|3:0,0:0:0:0:
159,143,89378,2,0,B|119:154|119:154|82:142,1,80,8|0,3:2|3:0,0:0:0:0:
77,62,89712,6,0,L|170:62,1,80,8|0,3:2|3:0,0:0:0:0:
229,96,90045,2,0,L|322:96,1,80,8|0,3:2|3:0,0:0:0:0:
385,73,90378,2,0,P|388:106|381:128,3,40,8|8|8|8,3:2|3:2|3:0|3:0,0:0:0:0:
374,151,90712,2,0,P|371:184|378:206,3,40,0|0|0|0,3:0|3:0|3:0|3:0,0:0:0:0:
392,225,91045,6,0,L|289:232,1,80,12|0,3:2|3:0,0:0:0:0:
309,310,91378,2,0,L|388:315,1,80,8|0,3:2|3:0,0:0:0:0:
469,320,91712,1,8,3:2:0:0:
469,320,91878,1,0,3:0:0:0:
487,242,92045,2,0,P|479:193|494:157,1,80,8|0,3:2|3:0,0:0:0:0:
512,84,92378,6,0,P|504:38|469:10,1,80,8|0,3:2|3:0,0:0:0:0:
401,1,92712,2,0,P|354:18|330:49,1,80,8|0,3:2|3:0,0:0:0:0:
297,110,93045,2,0,P|268:137|230:148,1,80,8|0,3:2|3:0,0:0:0:0:
150,140,93378,2,0,P|111:150|82:178,1,80,8|0,3:2|3:0,0:0:0:0:
73,258,93712,6,0,L|73:345,1,80,8|0,3:2|3:0,0:0:0:0:
137,384,94045,2,0,L|224:384,1,80,8|0,3:2|3:0,0:0:0:0:
297,384,94378,2,0,L|297:297,1,80,8|0,3:2|3:0,0:0:0:0:
298,223,94712,2,0,L|378:223,1,80,8|0,3:2|3:0,0:0:0:0:
452,191,95045,6,0,P|460:243|441:281,2,80,4|8|8,3:2|3:2|3:0,0:0:0:0:
413,120,95545,1,0,3:0:0:0:
453,50,95712,2,0,P|410:39|360:59,1,80,8|0,3:2|3:0,0:0:0:0:
319,104,96045,2,0,P|294:113|246:116,3,40,8|8|8|8,3:2|3:2|3:2|3:2,0:0:0:0:
237,105,96378,6,0,B|247:151|247:151|230:204,1,88.000002685547,12|0,3:2|3:0,0:0:0:0:
158,236,96712,2,0,B|148:190|148:190|165:137,1,88.000002685547,12|0,3:2|3:0,0:0:0:0:
77,80,97045,2,0,B|87:126|87:126|75:165,1,88.000002685547,12|0,3:2|3:0,0:0:0:0:
38,189,97295,1,0,3:0:0:0:
0,213,97378,2,0,B|-9:167|-9:167|3:129,1,88.000002685547,12|0,3:2|3:0,0:0:0:0:
31,9,97712,6,0,P|108:0|133:15,1,88.000002685547,12|0,3:2|3:0,0:0:0:0:
179,62,98045,2,0,P|256:71|281:56,1,88.000002685547,12|0,3:2|3:0,0:0:0:0:
346,40,98378,6,0,L|342:137,1,88.000002685547,12|0,3:2|3:0,0:0:0:0:
304,207,98712,2,0,L|300:304,1,88.000002685547,12|0,3:2|3:0,0:0:0:0:
341,371,99045,6,0,P|274:379|247:363,1,88.000002685547,12|0,3:2|3:0,0:0:0:0:
169,372,99378,2,0,P|161:305|177:278,1,88.000002685547,12|0,3:2|3:0,0:0:0:0:
168,199,99712,2,0,P|235:191|262:207,1,88.000002685547,12|0,3:2|3:0,0:0:0:0:
295,199,99962,1,0,3:0:0:0:
340,198,100045,2,0,P|348:265|332:292,1,88.000002685547,12|0,3:2|3:0,0:0:0:0:
253,286,100378,5,12,3:2:0:0:
253,286,100545,1,0,3:0:0:0:
168,288,100712,2,0,B|123:277|123:277|63:291,1,88.000002685547,12|0,3:2|3:0,0:0:0:0:
0,315,101045,2,0,P|-7:292|-2:247,3,44.0000013427735,12|8|8|8,3:2|3:2|3:0|3:0,0:0:0:0:
13,233,101378,2,0,P|24:211|59:183,3,44.0000013427735,0|0|0|0,3:0|3:0|3:0|3:0,0:0:0:0:
35,152,101712,6,0,P|87:164|148:143,1,88.000002685547,12|0,3:2|3:0,0:0:0:0:
146,241,102045,2,0,P|191:212|219:154,1,88.000002685547,12|0,3:2|3:0,0:0:0:0:
287,227,102378,2,0,P|299:175|278:114,1,88.000002685547,12|0,3:2|3:0,0:0:0:0:
335,129,102628,1,0,3:0:0:0:
379,124,102712,2,0,P|350:78|292:50,1,88.000002685547,12|0,3:2|3:0,0:0:0:0:
235,44,103045,6,0,L|142:44,1,88.000002685547,12|0,3:2|3:0,0:0:0:0:
70,1,103378,2,0,B|56:44|56:44|73:108,1,88.000002685547,12|0,3:2|3:0,0:0:0:0:
144,129,103712,6,0,B|184:129|184:129|184:127|184:127|184:131|184:131|184:129|184:129|248:128,1,88.000002685547,12|0,3:2|3:0,0:0:0:0:
308,82,104045,2,0,B|304:108|322:125|322:125|304:144|305:189,1,88.000002685547,12|0,3:2|3:0,0:0:0:0:
301,250,104378,6,0,P|367:233|388:182,1,88.000002685547,12|0,3:2|3:0,0:0:0:0:
466,220,104712,2,0,P|447:285|481:329,1,88.000002685547,12|0,3:2|3:0,0:0:0:0:
411,378,105045,2,0,P|363:329|308:336,1,88.000002685547,12|0,3:2|3:0,0:0:0:0:
302,328,105295,1,0,3:0:0:0:
258,326,105378,2,0,L|160:326,1,88.000002685547,12|0,3:2|3:0,0:0:0:0:
94,278,105712,6,0,P|81:312|99:377,2,88.000002685547,4|8|8,3:2|3:2|3:0,0:0:0:0:
117,193,106212,1,0,3:0:0:0:
77,114,106378,2,0,P|131:103|174:121,1,88.000002685547,8|0,3:2|3:0,0:0:0:0:
235,63,106712,2,0,P|289:74|311:69,3,44.0000013427735,8|8|8|8,3:2|3:2|3:2|3:2,0:0:0:0:
316,64,107045,5,4,3:2:0:0:
66,173,128378,6,0,B|200:182|128:104|274:109,1,207.999990478516,4|10,3:2|3:2,0:0:0:0:
333,120,129212,1,10,3:0:0:0:
408,128,129378,2,0,L|415:162,2,25.9999988098145,2|2|2,3:2|0:0|3:2,0:0:0:0:
480,104,129712,6,0,P|402:51|332:128,1,207.999990478516,6|2,3:2|3:2,0:0:0:0:
323,197,130545,1,0,3:0:0:0:
323,275,130712,1,10,3:2:0:0:
483,284,131045,6,0,B|322:275|322:275|276:308,1,207.999990478516,6|10,3:2|3:0,0:0:0:0:
223,356,131878,1,2,3:2:0:0:
145,361,132045,2,0,L|99:359,2,25.9999988098145,10|2|2,3:2|0:0|0:0,0:0:0:0:
43,373,132378,6,0,P|46:319|143:366,1,207.999990478516,6|10,3:2|3:2,0:0:0:0:
223,356,133212,1,10,3:0:0:0:
279,302,133378,2,0,P|341:265|341:265,1,51.999997619629,2|2,3:2|3:2,0:0:0:0:
361,206,133712,6,0,P|392:233|402:262,2,51.999997619629,14|0|0,3:2|3:0|3:0,0:0:0:0:
288,177,134212,2,0,P|249:190|219:184,2,51.999997619629,14|0|0,3:2|3:0|3:0,0:0:0:0:
349,128,134712,2,0,P|357:87|377:64,2,51.999997619629,14|0|0,3:2|3:0|3:0,0:0:0:0:
361,206,135212,6,0,P|392:233|402:262,1,51.999997619629,14|0,3:2|3:0,0:0:0:0:
418,317,135545,1,0,3:0:0:0:
357,366,135712,2,0,P|318:379|288:373,1,51.999997619629,14|0,3:2|3:0,0:0:0:0:
232,359,136045,1,12,3:2:0:0:
76,356,136378,6,0,B|76:321|76:321|74:321|74:321|78:321|78:321|76:321|76:321|79:288|79:288|120:226|120:226|120:204|120:204|119:204|119:204|121:204|121:204|120:204|120:204|120:155,1,207.999990478516,6|0,3:2|3:0,0:0:0:0:
110,16,137378,1,0,3:0:0:0:
254,76,137712,1,12,3:2:0:0:
254,76,138712,5,8,3:2:0:0:
316,25,139045,6,0,P|334:77|260:155,1,160,6|0,3:2|3:0,0:0:0:0:
186,139,139545,1,8,3:2:0:0:
102,110,139712,2,0,P|95:148|112:184,1,80,2|8,3:2|3:2,0:0:0:0:
143,209,139962,1,0,3:0:0:0:
143,209,140045,2,0,P|149:247|132:283,1,80,2|8,3:2|3:2,0:0:0:0:
93,354,140378,6,0,L|270:355,1,160,2|0,3:2|3:0,0:0:0:0:
334,321,140878,1,8,3:2:0:0:
417,291,141045,2,0,P|421:330|400:379,2,80,0|8|0,3:0|3:2|3:0,0:0:0:0:
387,207,141545,1,8,3:2:0:0:
421,125,141712,6,0,B|318:109|360:168|236:145,1,160,6|0,3:2|3:0,0:0:0:0:
183,120,142212,1,8,3:2:0:0:
96,103,142378,2,0,B|105:142|105:142|89:195,1,80,6|8,3:2|3:2,0:0:0:0:
74,215,142628,1,0,3:0:0:0:
74,215,142712,2,0,B|65:254|65:254|81:307,1,80,6|8,3:2|3:2,0:0:0:0:
73,371,143045,6,0,B|144:373|144:373|153:369|153:369|268:373,1,160,6|0,3:2|3:0,0:0:0:0:
317,348,143545,1,8,3:2:0:0:
400,377,143712,2,0,P|404:338|391:301,1,80,0|8,3:0|3:2,0:0:0:0:
353,221,144045,2,0,P|344:200|341:154,3,40,8|8|8|8,3:2|3:2|3:2|3:2,0:0:0:0:
350,140,144378,6,0,B|250:129|299:178|185:171,1,160,6|0,3:2|3:0,0:0:0:0:
110,153,144878,1,8,3:2:0:0:
25,179,145045,2,0,B|27:119|27:119|51:91|51:91|53:28,2,160,6|2|6,3:2|3:2|3:2,0:0:0:0:
67,256,145878,5,10,3:2:0:0:
22,332,146045,2,0,P|65:345|111:332,1,80,2|10,3:2|3:2,0:0:0:0:
180,371,146378,2,0,B|147:339|147:339|154:210,1,160,6|0,3:2|3:0,0:0:0:0:
193,146,146878,1,8,3:2:0:0:
161,63,147045,6,0,P|205:107|301:54,1,160,6|0,3:2|3:0,0:0:0:0:
366,36,147545,1,8,3:2:0:0:
438,86,147712,2,0,B|427:124|427:124|449:181,1,80,6|10,3:2|3:2,0:0:0:0:
464,246,148045,2,0,B|475:284|475:284|453:341,1,80,6|10,3:2|3:2,0:0:0:0:
378,353,148378,6,0,P|345:359|307:353,11,40,14|8|8|8|0|0|0|0|0|0|0|0,3:2|3:2|3:0|3:0|3:0|3:0|3:0|3:0|3:0|3:0|3:0|3:0,0:0:0:0:
302,333,149378,2,0,P|269:327|231:333,3,40,8|8|8|8,3:2|3:2|3:2|3:2,0:0:0:0:
219,340,149712,6,0,B|207:313|206:251|248:271|259:221|217:165,1,160,6|0,3:2|3:0,0:0:0:0:
230,99,150212,1,8,3:2:0:0:
178,28,150378,2,0,P|232:10|282:30,1,80,2|8,3:2|3:2,0:0:0:0:
286,37,150628,1,0,3:0:0:0:
286,37,150712,2,0,P|340:55|390:35,1,80,2|8,3:2|3:2,0:0:0:0:
448,65,151045,6,0,B|413:97|413:97|415:232,1,160,2|0,3:2|3:0,0:0:0:0:
453,288,151545,1,8,3:2:0:0:
414,367,151712,2,0,P|462:377|497:362,2,80,0|8|0,3:0|3:2|3:0,0:0:0:0:
339,319,152212,1,8,3:2:0:0:
251,324,152378,6,0,B|203:335|178:301|178:301|143:343|88:326,1,160,6|0,3:2|3:0,0:0:0:0:
29,291,152878,1,8,3:2:0:0:
18,203,153045,2,0,P|17:148|49:112,1,80,6|8,3:2|3:2,0:0:0:0:
41,85,153295,1,0,3:0:0:0:
41,85,153378,2,0,P|89:111|104:157,1,80,6|8,3:2|3:2,0:0:0:0:
178,149,153712,6,0,B|288:153|219:106|361:113,1,160,6|0,3:2|3:0,0:0:0:0:
417,99,154212,1,8,3:2:0:0:
498,66,154378,2,0,B|478:100|478:100|489:143,1,80,0|8,3:0|3:2,0:0:0:0:
500,227,154712,2,0,B|501:248|501:248|494:283,3,40,8|8|8|8,3:2|3:2|3:2|3:2,0:0:0:0:
505,310,155045,6,0,B|463:285|463:285|342:297,1,160,6|0,3:2|3:0,0:0:0:0:
264,307,155545,1,8,3:2:0:0:
233,223,155712,2,0,P|285:220|352:304,2,160,6|2|6,3:2|3:2|3:2,0:0:0:0:
150,254,156545,5,10,3:2:0:0:
73,298,156712,2,0,P|60:249|82:198,1,80,2|10,3:2|3:2,0:0:0:0:
10,153,157045,2,0,P|48:179|119:99,1,160,6|0,3:2|3:0,0:0:0:0:
185,54,157545,1,8,3:2:0:0:
270,32,157712,6,0,B|376:28|309:76|449:67,1,160,6|0,3:2|3:0,0:0:0:0:
487,126,158212,1,8,3:2:0:0:
477,213,158378,2,0,P|468:261|486:310,1,80,6|10,3:2|3:2,0:0:0:0:
398,334,158712,2,0,P|360:302|309:293,1,80,6|10,3:2|3:2,0:0:0:0:
277,224,159045,6,0,P|283:295|156:219,1,320,14|8,3:2|3:2,0:0:0:0:
163,137,159878,1,8,3:0:0:0:
117,61,160045,2,0,P|158:46|202:57,1,80,0|0,3:0|3:0,0:0:0:0:
319,122,160378,6,0,P|279:127|243:113,2,80,4|0|8,3:2|3:0|3:2,0:0:0:0:
392,90,160878,1,0,3:0:0:0:
392,90,161045,2,0,B|349:125|349:125|351:243,1,160,0|8,3:0|3:2,0:0:0:0:
436,364,161712,6,0,P|472:377|514:371,2,80,0|0|8,3:0|3:0|3:2,0:0:0:0:
362,330,162212,1,0,3:0:0:0:
289,363,162378,2,0,P|280:332|296:286,1,80,0|0,3:0|3:0,0:0:0:0:
350,229,162712,1,8,3:2:0:0:
437,95,163045,6,0,P|492:73|520:72,2,80,0|0|8,3:0|3:0|3:2,0:0:0:0:
459,172,163545,1,0,3:0:0:0:
459,172,163712,2,0,P|450:230|437:255,2,80,0|0|8,3:0|3:0|3:2,0:0:0:0:
382,148,164212,1,0,3:0:0:0:
382,148,164378,6,0,P|335:111|320:87,1,80,0|0,3:0|3:0,0:0:0:0:
285,24,164712,1,8,3:2:0:0:
285,24,164878,1,0,3:0:0:0:
211,55,165045,2,0,B|189:66|189:66|100:66,1,80,0|8,3:0|3:2,0:0:0:0:
132,146,165378,2,0,B|187:146|187:146|209:157,1,80,8|0,3:0|3:0,0:0:0:0:
282,190,165712,6,0,P|257:216|252:276,2,80,4|0|8,3:2|3:0|3:2,0:0:0:0:
360,174,166212,1,0,3:0:0:0:
360,174,166378,2,0,P|397:213|320:246,1,160,0|8,3:0|3:2,0:0:0:0:
461,166,167045,6,0,P|473:212|464:262,2,80,0|0|8,3:0|3:0|3:2,0:0:0:0:
471,86,167545,1,0,3:0:0:0:
471,86,167712,2,0,P|407:79|383:61,1,80,0|0,3:0|3:0,0:0:0:0:
336,16,168045,1,8,3:2:0:0:
176,16,168378,6,0,B|136:19|136:19|97:49,2,80,0|0|8,3:0|3:0|3:2,0:0:0:0:
210,88,168878,1,0,3:0:0:0:
181,162,169045,2,0,B|141:159|141:159|102:129,2,80,0|0|8,3:0|3:0|3:2,0:0:0:0:
210,88,169545,1,0,3:0:0:0:
275,42,169712,6,0,P|288:102|277:126,1,80,8|0,3:2|3:0,0:0:0:0:
300,195,170045,2,0,P|287:255|298:279,1,80,8|0,3:2|3:0,0:0:0:0:
340,334,170378,1,8,3:2:0:0:
340,334,170545,1,0,3:0:0:0:
420,336,170712,1,8,3:0:0:0:
420,336,170878,1,0,3:0:0:0:
478,266,171045,6,0,B|503:244|507:126|452:55|336:64|332:188|415:201,1,320,4|0,3:2|3:0,0:0:0:0:
313,216,171878,1,0,3:0:0:0:
239,184,172045,1,8,3:2:0:0:
36,199,172378,6,0,B|43:85|43:85|103:59|137:125|82:152|82:152|119:164|131:208,1,320,4|4,3:2|3:2,0:0:0:0:
242,81,173712,2,0,P|239:195|283:84,1,320,4|4,3:2|3:2,0:0:0:0:
190,319,175045,6,0,P|252:330|277:323,1,80,4|0,3:2|3:0,0:0:0:0:
330,277,175378,2,0,P|392:266|417:273,1,80,0|0,3:0|3:0,0:0:0:0:
480,304,175712,1,4,3:2:0:0:
365,192,176045,1,8,3:2:0:0:
491,74,176378,6,0,P|394:97|506:196,1,320,4|0,3:2|3:0,0:0:0:0:
366,305,177378,1,8,3:2:0:0:
126,326,177712,6,0,L|309:307,1,160,6|0,3:2|3:0,0:0:0:0:
366,305,178212,1,8,3:2:0:0:
366,305,178378,2,0,P|379:256|369:208,1,80,2|8,3:2|3:2,0:0:0:0:
323,168,178712,2,0,P|310:119|320:71,1,80,2|8,3:2|3:2,0:0:0:0:
339,15,179045,6,0,B|232:5|291:64|154:57,1,160,2|0,3:2|3:0,0:0:0:0:
110,63,179545,1,8,3:2:0:0:
110,63,179712,2,0,P|103:118|86:159,1,80,0|8,3:0|3:2,0:0:0:0:
52,209,180045,2,0,P|59:264|76:305,1,80,0|8,3:0|3:2,0:0:0:0:
41,363,180378,6,0,B|65:326|65:326|189:303,1,160,6|0,3:2|3:0,0:0:0:0:
238,360,180878,1,8,3:2:0:0:
238,360,181045,2,0,P|260:310|249:267,1,80,2|8,3:2|3:2,0:0:0:0:
239,209,181378,1,2,3:2:0:0:
239,209,181545,1,8,3:2:0:0:
306,165,181712,6,0,P|306:123|339:73,1,80,14|0,3:2|3:0,0:0:0:0:
399,64,182045,2,0,P|439:82|463:139,1,80,12|2,3:2|3:2,0:0:0:0:
445,191,182378,1,14,3:2:0:0:
369,217,182545,1,0,3:0:0:0:
430,270,182712,2,0,L|446:313,3,40,8|8|10|8,3:2|3:2|3:2|3:2,0:0:0:0:
466,341,183045,6,0,B|368:325|422:373|284:353,1,160,6|0,3:2|3:0,0:0:0:0:
230,356,183545,1,8,3:2:0:0:
230,356,183712,2,0,P|182:319|169:282,1,80,2|8,3:2|3:2,0:0:0:0:
106,344,184045,2,0,P|99:284|116:249,1,80,2|8,3:2|3:2,0:0:0:0:
26,250,184378,6,0,P|58:201|166:214,1,160,2|0,3:2|3:0,0:0:0:0:
227,230,184878,1,8,3:2:0:0:
227,230,185045,2,0,B|241:187|241:187|233:134,1,80,0|8,3:0|3:2,0:0:0:0:
310,121,185378,2,0,B|341:155|341:155|391:175,1,80,0|8,3:0|3:2,0:0:0:0:
431,224,185712,5,6,3:2:0:0:
431,224,185878,2,0,P|383:256|368:301,1,80,8|10,3:2|3:2,0:0:0:0:
348,352,186212,1,10,3:2:0:0:
270,366,186378,2,0,P|238:382|164:375,1,80,2|8,3:2|3:2,0:0:0:0:
130,338,186712,1,10,3:0:0:0:
130,338,186878,1,2,3:2:0:0:
82,275,187045,6,0,L|91:232,3,40,6|0|8|0,3:2|3:0|3:2|3:0,3:0:0:0:
103,198,187378,2,0,L|94:155,3,40,4|0|8|0,3:2|3:0|3:2|3:0,3:0:0:0:
80,121,187712,2,0,L|72:82,3,40,0|0|8|0,3:2|3:0|3:2|3:0,3:0:0:0:
73,42,188045,2,0,L|128:46,3,40,8|8|0|0,3:2|3:0|3:0|3:0,3:0:0:0:
151,61,188378,6,0,B|200:55|227:81|227:81|256:38|322:43,1,160,6|0,3:2|3:0,0:0:0:0:
368,14,188878,1,8,3:2:0:0:
368,14,189045,2,0,P|373:54|358:96,1,80,6|8,3:2|3:2,0:0:0:0:
383,169,189378,2,0,P|415:146|455:144,1,80,6|8,3:2|3:2,0:0:0:0:
512,91,189712,6,0,P|532:159|452:226,1,160,6|0,3:2|3:0,0:0:0:0:
407,258,190212,1,8,3:2:0:0:
343,306,190378,2,0,P|300:314|238:304,1,80,0|8,3:0|3:2,0:0:0:0:
184,323,190712,2,0,P|141:315|79:325,1,80,0|8,3:0|3:2,0:0:0:0:
67,341,190962,1,0,3:0:0:0:
67,341,191045,6,0,B|100:311|100:311|104:176,1,160,6|0,3:2|3:0,0:0:0:0:
33,142,191545,1,8,3:2:0:0:
70,62,191712,2,0,P|126:59|149:70,1,80,6|8,3:2|3:2,0:0:0:0:
204,126,192045,2,0,P|260:129|283:118,1,80,6|8,3:2|3:2,0:0:0:0:
316,48,192378,6,0,P|307:107|351:212,2,160,14|12|14,3:2|3:2|3:2,0:0:0:0:
236,53,193212,1,0,3:0:0:0:
204,126,193378,2,0,L|192:175,3,40,8|8|8|8,3:2|3:2|3:2|3:2,0:0:0:0:
199,205,193712,6,0,P|162:202|126:318,1,160,6|0,3:2|3:0,0:0:0:0:
151,367,194212,1,8,3:2:0:0:
231,361,194378,2,0,B|268:348|268:348|324:356,1,80,6|8,3:2|3:2,0:0:0:0:
388,369,194712,2,0,B|424:353|424:353|458:307,1,80,6|8,3:2|3:2,0:0:0:0:
469,281,194962,1,0,3:0:0:0:
469,281,195045,6,0,B|378:254|398:321|299:282,1,160,6|0,3:2|3:0,0:0:0:0:
255,222,195545,1,8,3:2:0:0:
185,260,195712,2,0,P|176:204|197:169,1,80,0|8,3:0|3:2,0:0:0:0:
228,117,196045,2,0,P|237:61|216:26,1,80,0|8,3:0|3:2,0:0:0:0:
153,15,196378,6,0,L|337:14,1,160,6|10,3:2|3:2,0:0:0:0:
373,68,196878,1,10,3:2:0:0:
452,51,197045,2,0,B|444:112|444:112|408:138|408:138|397:197,1,160,6|10,3:2|3:0,0:0:0:0:
438,261,197545,1,2,3:2:0:0:
438,261,197628,1,0,3:0:0:0:
438,261,197712,6,0,P|364:266|349:258,1,80,6|0,3:2|3:0,0:0:0:0:
296,218,198045,2,0,P|222:213|207:221,1,80,0|0,3:0|3:0,0:0:0:0:
152,259,198378,1,12,3:2:0:0:
152,259,198545,1,8,3:0:0:0:
86,304,198712,2,0,P|68:245|87:204,1,80,0|0,3:0|3:0,0:0:0:0:
14,176,199045,6,0,P|70:186|60:41,2,240.000009155274,4|4|4,3:2|3:2|3:2,0:0:0:0:
256,114,201045,1,0,3:0:0:0:
256,192,201212,1,0,3:0:0:0:
256,269,201378,1,8,3:2:0:0:
498,176,201712,6,0,P|442:186|452:41,2,240.000009155274,4|4|4,3:2|3:2|3:2,0:0:0:0:
256,96,203712,2,0,L|256:141,3,30.0000011444092,8|8|8|8,3:2|3:2|3:0|3:0,0:0:0:0:
256,165,204045,2,0,L|256:210,3,30.0000011444092,0|0|0|0,3:0|3:0|3:0|3:0,0:0:0:0:
255,234,204378,6,0,B|298:250|297:291|297:291|271:336|218:322|218:322|192:291|142:295,1,240.000009155274,4|12,3:2|3:2,0:0:0:0:
3,256,205378,1,0,3:0:0:0:
186,117,205712,6,0,B|155:295|155:295|200:296|215:321,1,240.000009155274,4|12,3:2|3:2,0:0:0:0:
278,349,206545,1,8,3:2:0:0:
354,332,206712,1,0,3:0:0:0:
398,182,207045,6,0,B|260:169|327:241|144:224,2,240.000009155274,4|4|4,3:2|3:2|3:2,0:0:0:0:
256,192,208712,12,8,209378,3:2:0:0:
422,108,209712,6,0,B|379:97|379:97|324:117,1,80,14|0,3:2|3:0,0:0:0:0:
284,45,210045,2,0,B|260:82|260:82|262:140,1,80,10|2,3:2|3:2,0:0:0:0:
182,156,210378,2,0,B|210:190|210:190|266:206,1,80,10|0,3:2|3:0,0:0:0:0:
257,289,210712,2,0,B|298:272|298:272|330:224,1,80,10|0,3:2|3:0,0:0:0:0:
405,258,211045,6,0,B|402:213|402:213|366:167,1,80,10|0,3:2|3:0,0:0:0:0:
386,97,211378,2,0,B|341:99|341:99|295:135,1,80,8|0,3:2|3:0,0:0:0:0:
225,114,211712,2,0,B|227:158|227:158|263:204,1,80,8|0,3:2|3:0,0:0:0:0:
244,275,212045,2,0,B|288:272|288:272|334:236,1,80,8|0,3:2|3:0,0:0:0:0:
380,185,212378,6,0,B|402:213|402:213|405:258,1,80,10|0,3:2|3:0,0:0:0:0:
390,345,212712,1,10,3:2:0:0:
302,337,212878,1,2,3:2:0:0:
316,250,213045,2,0,B|288:272|288:272|244:275,1,80,10|0,3:2|3:0,0:0:0:0:
155,276,213378,2,0,B|110:273|110:273|82:251,1,80,8|2,3:2|3:2,0:0:0:0:
4,292,213712,6,0,P|49:245|19:129,1,160,10|8,3:2|3:2,0:0:0:0:
59,68,214212,1,0,3:0:0:0:
136,27,214378,2,0,P|172:28|203:36,3,40,8|8|8|8,3:2|3:2|3:0|3:0,0:0:0:0:
207,25,214712,2,0,P|231:51|248:78,3,40,0|0|0|0,3:0|3:0|3:0|3:0,0:0:0:0:
265,62,215045,6,0,P|240:94|243:147,1,80,14|0,3:2|3:0,0:0:0:0:
301,192,215378,2,0,P|260:196|225:236,1,80,10|2,3:2|3:2,0:0:0:0:
227,310,215712,2,0,P|195:285|142:288,1,80,10|0,3:2|3:0,0:0:0:0:
97,346,216045,2,0,P|92:305|52:270,1,80,10|0,3:2|3:0,0:0:0:0:
7,356,216378,6,0,L|167:360,1,160,10|8,3:2|3:2,0:0:0:0:
227,310,216878,1,0,3:0:0:0:
312,333,217045,2,0,B|316:279|316:279|336:267|336:267|336:266|336:266|338:269|338:269|337:268|337:268|360:255|360:255|365:180,1,160,10|8,3:2|3:2,0:0:0:0:
398,133,217545,1,0,3:0:0:0:
364,51,217712,6,0,P|327:39|267:60,1,80,14|0,3:2|3:0,0:0:0:0:
234,117,218045,1,10,3:2:0:0:
322,114,218212,1,2,3:2:0:0:
276,193,218378,2,0,P|240:201|180:180,1,80,14|0,3:2|3:0,0:0:0:0:
145,117,218712,1,10,3:2:0:0:
234,117,218878,1,2,3:2:0:0:
276,193,219045,6,0,P|281:214|281:257,7,40,6|0|0|0|0|0|0|0,3:2|3:0|3:0|3:0|3:0|3:0|3:0|3:0,0:0:0:0:
304,272,219712,1,8,3:2:0:0:
304,272,219795,1,8,3:2:0:0:
304,272,219878,2,0,P|293:304|264:330,5,40,0|0|8|8|8|8,3:0|3:0|3:0|3:0|3:0|3:0,0:0:0:0:
297,352,220378,6,0,B|257:342|257:342|198:359,1,80,14|0,3:2|3:0,0:0:0:0:
145,304,220712,1,14,3:2:0:0:
182,236,220878,1,2,3:2:0:0:
264,205,221045,2,0,B|275:244|275:244|319:287,1,80,14|0,3:2|3:0,0:0:0:0:
347,277,221295,1,0,3:0:0:0:
391,271,221378,2,0,B|418:244|418:244|430:204,1,80,14|2,3:2|3:2,0:0:0:0:
387,126,221712,6,0,B|349:115|349:115|309:125,1,80,14|0,3:2|3:0,0:0:0:0:
224,101,222045,2,0,B|186:111|186:111|146:101,1,80,12|0,3:2|3:0,0:0:0:0:
82,41,222378,2,0,B|63:74|63:74|27:96,1,80,12|0,3:2|3:0,0:0:0:0:
12,183,222712,2,0,B|22:220|22:220|12:260,1,80,12|0,3:2|3:0,0:0:0:0:
10,348,223045,6,0,P|49:331|102:342,1,80,14|0,3:2|3:0,0:0:0:0:
128,344,223295,1,0,3:0:0:0:
170,356,223378,1,14,3:2:0:0:
175,267,223545,1,2,3:2:0:0:
260,286,223712,2,0,B|260:258|260:258|270:244|270:244|268:198,1,80,14|0,3:2|3:0,0:0:0:0:
356,209,224045,2,0,B|354:243|354:243|364:257|364:257|364:285,1,80,14|2,3:2|3:2,0:0:0:0:
352,365,224378,6,0,B|319:385|319:385|276:361,2,80,14|0|12,3:2|3:0|3:2,0:0:0:0:
429,333,224878,1,0,3:0:0:0:
509,351,225045,2,0,P|512:331|509:312,3,40,12|8|8|8,3:2|3:2|3:0|3:0,0:0:0:0:
488,272,225378,2,0,P|485:252|488:232,3,40,0|0|0|0,3:0|3:0|3:0|3:0,0:0:0:0:
503,190,225712,6,0,P|468:200|412:170,1,80,14|0,3:2|3:0,0:0:0:0:
393,158,225962,1,0,3:0:0:0:
359,130,226045,2,0,P|324:120|268:150,1,80,14|2,3:2|3:2,0:0:0:0:
221,71,226378,6,0,P|239:127|194:235,2,160,14|14|14,3:2|3:2|3:2,0:0:0:0:
140,32,227212,1,0,3:0:0:0:
59,65,227378,2,0,P|44:111|57:149,1,80,12|0,3:2|3:0,0:0:0:0:
2,213,227712,2,0,B|56:156|56:156|170:179,1,160,14|12,3:2|3:2,0:0:0:0:
208,220,228212,1,0,3:0:0:0:
208,220,228295,1,0,3:0:0:0:
208,220,228378,6,0,B|302:228|258:178|386:195,1,160,14|14,3:2|3:2,0:0:0:0:
431,247,228878,1,2,3:2:0:0:
431,247,228962,1,0,3:0:0:0:
431,247,229045,2,0,B|397:212|397:212|400:90,1,160,14|14,3:2|3:2,0:0:0:0:
450,28,229545,1,2,3:2:0:0:
450,28,229628,1,0,3:0:0:0:
450,28,229712,6,0,B|423:80|362:59|362:59|271:22|225:64|246:148|320:122,2,320,14|12|4,3:2|3:2|3:2,0:0:0:0:
511,284,231712,1,8,3:2:0:0:
511,284,231795,1,8,3:2:0:0:
511,284,231878,1,8,3:2:0:0:
441,337,232045,2,0,P|381:335|329:337,1,80,8|0,3:0|3:0,0:0:0:0:
278,304,232378,5,4,3:2:0:0:
