osu file format v14

[General]
AudioFilename: audio.mp3
AudioLeadIn: 0
PreviewTime: 109976
Countdown: 0
SampleSet: Drum
StackLeniency: 0.3
Mode: 0
LetterboxInBreaks: 0
WidescreenStoryboard: 1

[Editor]
Bookmarks: 11331,33274,38760,60682,71740,82625,131997,145711,178540,189597,201940
DistanceSpacing: 1
BeatDivisor: 4
GridSize: 4
TimelineZoom: 1.5952

[Metadata]
Title:Troll of the Forsaken Cave
TitleUnicode:Troll of the Forsaken Cave
Artist:Loki
ArtistUnicode:Loki
Creator:Cris-
Version:TheShadow's Normal
Source:osu!
Tags:TheShadowOfDark walaowey [_L_u_k_a_s_] Lukas Seolv Minorsonek M2Usonek Loki's "Tales of the Mountains" Beatmap Pack FA Featured Artist Symphonic Metal Instrumental Rock Thaehan Gremio Mappers' Guild MG
BeatmapID:2238386
BeatmapSetID:1052028

[Difficulty]
HPDrainRate:4
CircleSize:3.2
OverallDifficulty:4
ApproachRate:5
SliderMultiplier:1
SliderTickRate:1

[Events]
//Background and Video events
0,0,"BG.jpg",0,0
//Break Periods
2,145711,153940
//Storyboard Layer 0 (Background)
//Storyboard Layer 1 (Fail)
//Storyboard Layer 2 (Pass)
//Storyboard Layer 3 (Foreground)
//Storyboard Layer 4 (Overlay)
//Storyboard Sound Samples

[TimingPoints]
368,342.857142857143,4,3,1,30,1,0
368,-111.111111111111,4,3,1,30,0,0
11339,-111.111111111111,4,3,1,40,0,0
11596,-111.111111111111,4,3,1,5,0,0
11682,-111.111111111111,4,3,1,40,0,0
12625,-111.111111111111,4,3,1,5,0,0
12710,-111.111111111111,4,3,1,40,0,0
12968,-111.111111111111,4,3,1,5,0,0
13053,-111.111111111111,4,3,1,40,0,0
13310,-111.111111111111,4,3,1,5,0,0
13396,-111.111111111111,4,3,1,40,0,0
13996,-111.111111111111,4,3,1,5,0,0
14082,-111.111111111111,4,3,1,40,0,0
14339,-111.111111111111,4,3,1,5,0,0
14425,-111.111111111111,4,3,1,40,0,0
14682,-111.111111111111,4,3,1,5,0,0
14768,-111.111111111111,4,3,1,40,0,0
15025,-111.111111111111,4,3,1,5,0,0
15110,-111.111111111111,4,3,1,40,0,0
15368,-111.111111111111,4,3,1,5,0,0
15453,-111.111111111111,4,3,1,40,0,0
15710,-111.111111111111,4,3,1,5,0,0
15796,-111.111111111111,4,3,1,40,0,0
16825,-111.111111111111,4,3,1,40,0,0
17082,-111.111111111111,4,3,1,5,0,0
17168,-111.111111111111,4,3,1,40,0,0
17425,-111.111111111111,4,3,1,5,0,0
17510,-111.111111111111,4,3,1,40,0,0
18110,-111.111111111111,4,3,1,5,0,0
18196,-111.111111111111,4,3,1,40,0,0
18453,-111.111111111111,4,3,1,5,0,0
18539,-111.111111111111,4,3,1,40,0,0
18796,-111.111111111111,4,3,1,5,0,0
18882,-111.111111111111,4,3,1,40,0,0
19482,-111.111111111111,4,3,1,5,0,0
19568,-111.111111111111,4,3,1,40,0,0
20168,-111.111111111111,4,3,1,5,0,0
20253,-111.111111111111,4,3,1,40,0,0
20510,-111.111111111111,4,3,1,5,0,0
20596,-111.111111111111,4,3,1,40,0,0
20853,-111.111111111111,4,3,1,5,0,0
20939,-111.111111111111,4,3,1,40,0,0
22310,-111.111111111111,4,3,1,45,0,0
22568,-111.111111111111,4,3,1,5,0,0
22653,-111.111111111111,4,3,1,45,0,0
23596,-111.111111111111,4,3,1,5,0,0
23682,-111.111111111111,4,3,1,45,0,0
23939,-111.111111111111,4,3,1,5,0,0
24025,-111.111111111111,4,3,1,45,0,0
24282,-111.111111111111,4,3,1,5,0,0
24368,-111.111111111111,4,3,1,45,0,0
24968,-111.111111111111,4,3,1,5,0,0
25053,-111.111111111111,4,3,1,45,0,0
25310,-111.111111111111,4,3,1,5,0,0
25396,-111.111111111111,4,3,1,45,0,0
25653,-111.111111111111,4,3,1,5,0,0
25739,-111.111111111111,4,3,1,45,0,0
25996,-111.111111111111,4,3,1,5,0,0
26082,-111.111111111111,4,3,1,45,0,0
26339,-111.111111111111,4,3,1,5,0,0
26425,-111.111111111111,4,3,1,45,0,0
26682,-111.111111111111,4,3,1,5,0,0
26768,-111.111111111111,4,3,1,45,0,0
27796,-111.111111111111,4,3,1,45,0,0
28053,-111.111111111111,4,3,1,5,0,0
28139,-111.111111111111,4,3,1,45,0,0
28396,-111.111111111111,4,3,1,5,0,0
28482,-111.111111111111,4,3,1,45,0,0
29081,-111.111111111111,4,3,1,5,0,0
29168,-111.111111111111,4,3,1,45,0,0
29425,-111.111111111111,4,3,1,5,0,0
29510,-111.111111111111,4,3,1,45,0,0
29768,-111.111111111111,4,3,1,5,0,0
29853,-111.111111111111,4,3,1,45,0,0
30453,-111.111111111111,4,3,1,5,0,0
30539,-111.111111111111,4,3,1,45,0,0
30882,-111.111111111111,4,3,1,45,0,0
31139,-111.111111111111,4,3,1,5,0,0
31225,-111.111111111111,4,3,1,45,0,0
31482,-111.111111111111,4,3,1,5,0,0
31568,-111.111111111111,4,3,1,45,0,0
31825,-111.111111111111,4,3,1,5,0,0
31910,-111.111111111111,4,3,1,45,0,0
32939,-111.111111111111,4,3,1,45,0,0
33196,-111.111111111111,4,3,1,5,0,0
33282,-111.111111111111,4,3,1,50,0,0
33453,-111.111111111111,4,3,1,5,0,0
33625,-111.111111111111,4,3,1,50,0,0
33796,-111.111111111111,4,3,1,5,0,0
33968,-111.111111111111,4,3,1,50,0,0
34139,-111.111111111111,4,3,1,5,0,0
34310,-111.111111111111,4,3,1,50,0,0
34482,-111.111111111111,4,3,1,5,0,0
34653,-111.111111111111,4,3,1,50,0,0
34825,-111.111111111111,4,3,1,5,0,0
34996,-111.111111111111,4,3,1,50,0,0
35168,-111.111111111111,4,3,1,5,0,0
35339,-111.111111111111,4,3,1,50,0,0
35510,-111.111111111111,4,3,1,5,0,0
35682,-111.111111111111,4,3,1,50,0,0
35853,-111.111111111111,4,3,1,5,0,0
36025,-111.111111111111,4,3,1,50,0,0
36196,-111.111111111111,4,3,1,5,0,0
36368,-111.111111111111,4,3,1,50,0,0
36539,-111.111111111111,4,3,1,5,0,0
36710,-111.111111111111,4,3,1,50,0,0
36882,-111.111111111111,4,3,1,5,0,0
37053,-111.111111111111,4,3,1,50,0,0
37225,-111.111111111111,4,3,1,5,0,0
37396,-111.111111111111,4,3,1,50,0,0
37568,-111.111111111111,4,3,1,5,0,0
37739,-111.111111111111,4,3,1,50,0,0
37910,-111.111111111111,4,3,1,5,0,0
38082,-111.111111111111,4,3,1,50,0,0
38253,-111.111111111111,4,3,1,5,0,0
38425,-111.111111111111,4,3,1,50,0,0
38596,-111.111111111111,4,3,1,5,0,0
38748,342.857142857143,4,3,1,60,1,0
38748,-100,4,3,1,60,0,0
39005,-100,4,3,1,5,0,0
39090,-100,4,3,1,60,0,0
39776,-100,4,3,1,60,0,0
40119,-100,4,3,1,60,0,0
40376,-100,4,3,1,5,0,0
40462,-100,4,3,1,60,0,0
41148,-100,4,3,1,60,0,0
41490,-100,4,3,1,60,0,0
41748,-100,4,3,1,5,0,0
41833,-100,4,3,1,60,0,0
42433,-100,4,3,1,5,0,0
42519,-100,4,3,1,60,0,0
42862,-100,4,3,1,60,0,0
43119,-100,4,3,1,5,0,0
43205,-100,4,3,1,60,0,0
44233,-100,4,3,1,60,0,0
44490,-100,4,3,1,5,0,0
44576,-100,4,3,1,60,0,0
45262,-100,4,3,1,60,0,0
45605,-100,4,3,1,60,0,0
45862,-100,4,3,1,5,0,0
45948,-100,4,3,1,60,0,0
46548,-100,4,3,1,5,0,0
46633,-100,4,3,1,60,0,0
46890,-100,4,3,1,5,0,0
46976,-100,4,3,1,60,0,0
47919,-100,4,3,1,5,0,0
48005,-100,4,3,1,60,0,0
48348,-100,4,3,1,60,0,0
49719,-100,4,3,1,60,0,0
49976,-100,4,3,1,5,0,0
50062,-100,4,3,1,60,0,0
50662,-100,4,3,1,5,0,0
50748,-100,4,3,1,60,0,0
51090,-100,4,3,1,60,0,0
51348,-100,4,3,1,5,0,0
51433,-100,4,3,1,60,0,0
52033,-100,4,3,1,5,0,0
52119,-100,4,3,1,60,0,0
52462,-100,4,3,1,60,0,0
52719,-100,4,3,1,5,0,0
52805,-100,4,3,1,60,0,0
53405,-100,4,3,1,5,0,0
53490,-100,4,3,1,60,0,0
53833,-100,4,3,1,60,0,0
54090,-100,4,3,1,5,0,0
54176,-100,4,3,1,60,0,0
54776,-100,4,3,1,5,0,0
54862,-100,4,3,1,60,0,0
55462,-100,4,3,1,5,0,0
55548,-100,4,3,1,60,0,0
56148,-100,4,3,1,5,0,0
56233,-100,4,3,1,60,0,0
56576,-100,4,3,1,60,0,0
56833,-100,4,3,1,5,0,0
56919,-100,4,3,1,60,0,0
57519,-100,4,3,1,5,0,0
57605,-100,4,3,1,60,0,0
57948,-100,4,3,1,60,0,0
59233,-100,4,3,1,5,0,0
59319,-100,4,3,1,60,0,0
60605,-100,4,3,1,5,0,0
60690,-100,4,3,1,65,0,0
61976,-100,4,3,1,5,0,0
62062,-100,4,3,1,65,0,0
62748,-100,4,3,1,65,0,0
63433,-100,4,3,1,65,0,0
65490,-100,4,3,1,65,0,0
66176,-100,4,3,1,65,0,0
66862,-100,4,3,1,65,0,0
67805,-100,4,3,1,5,0,0
67890,-100,4,3,1,65,0,0
68148,-100,4,3,1,5,0,0
68233,-100,4,3,1,65,0,0
68919,-100,4,3,1,65,0,0
69605,-100,4,3,1,65,0,0
70290,-100,4,3,1,65,0,0
70976,-100,4,3,1,65,0,0
71233,-100,4,3,1,5,0,0
71319,-100,4,3,1,65,0,0
71662,-100,4,3,1,70,0,0
72005,-100,4,3,1,70,0,0
72262,-100,4,3,1,5,0,0
72348,-100,4,3,1,70,0,0
73290,-100,4,3,1,5,0,0
73376,-100,4,3,1,70,0,0
73633,-100,4,3,1,5,0,0
73719,-100,4,3,1,70,0,0
74319,-100,4,3,1,5,0,0
74405,-100,4,3,1,70,0,0
75005,-100,4,3,1,5,0,0
75090,-100,4,3,1,70,0,0
75348,-100,4,3,1,5,0,0
75433,-100,4,3,1,70,0,0
76033,-100,4,3,1,5,0,0
76119,-100,4,3,1,70,0,0
77062,-100,4,3,1,5,0,0
77148,-100,4,3,1,70,0,0
77490,-100,4,3,1,70,0,0
77748,-100,4,3,1,5,0,0
77833,-100,4,3,1,70,0,0
78776,-100,4,3,1,5,0,0
78862,-100,4,3,1,70,0,0
79119,-100,4,3,1,5,0,0
79205,-100,4,3,1,70,0,0
79805,-100,4,3,1,5,0,0
79890,-100,4,3,1,70,0,0
80576,-100,4,3,1,70,0,0
81262,-100,4,3,1,70,0,0
81948,-100,4,3,1,70,0,0
82205,-100,4,3,1,5,0,0
82290,-100,4,3,1,70,0,0
82633,-100,4,3,1,50,0,0
86233,-100,4,3,1,55,0,0
86748,-100,4,3,1,65,0,0
87090,-100,4,3,1,50,0,0
87262,-100,4,3,1,65,0,0
87605,-100,4,3,1,50,0,0
87776,-100,4,3,1,65,0,0
88119,-100,4,3,1,80,0,1
99090,-100,4,3,1,70,0,0
99176,-100,4,3,1,5,0,0
99262,-100,4,3,1,70,0,0
99519,-100,4,3,1,5,0,0
99605,-100,4,3,1,70,0,0
99862,-100,4,3,1,5,0,0
99948,-100,4,3,1,70,0,0
100205,-100,4,3,1,5,0,0
100290,-100,4,3,1,70,0,0
101919,-100,4,3,1,5,0,0
102005,-100,4,3,1,70,0,0
102262,-100,4,3,1,5,0,0
102348,-100,4,3,1,70,0,0
102605,-100,4,3,1,5,0,0
102690,-100,4,3,1,70,0,0
102948,-100,4,3,1,5,0,0
103033,-100,4,3,1,70,0,0
104662,-100,4,3,1,5,0,0
104748,-100,4,3,1,70,0,0
105005,-100,4,3,1,5,0,0
105090,-100,4,3,1,70,0,0
105348,-100,4,3,1,5,0,0
105433,-100,4,3,1,70,0,0
105690,-100,4,3,1,5,0,0
105776,-100,4,3,1,70,0,0
109548,-100,4,3,1,5,0,0
109890,-100,4,3,1,70,0,0
110062,-100,4,3,1,80,0,1
121033,-100,4,3,1,70,0,0
132005,-100,4,3,1,60,0,0
141776,-100,4,3,1,70,0,0
145719,-100,4,3,1,50,0,0
151205,-100,4,3,1,60,0,0
156690,-100,4,3,1,70,0,1
167662,-100,4,3,1,65,0,0
168948,-100,4,3,1,5,0,0
169033,-100,4,3,1,65,0,0
173833,-100,4,3,1,65,0,0
174776,-100,4,3,1,5,0,0
174862,-100,4,3,1,65,0,0
175119,-100,4,3,1,5,0,0
175205,-100,4,3,1,65,0,0
176576,-100,4,3,1,65,0,0
177262,-100,4,3,1,65,0,0
177948,-100,4,3,1,65,0,0
178205,-100,4,3,1,5,0,0
178290,-100,4,3,1,65,0,0
178633,-100,4,3,1,70,0,0
178976,-100,4,3,1,70,0,0
179233,-100,4,3,1,5,0,0
179319,-100,4,3,1,70,0,0
180262,-100,4,3,1,5,0,0
180348,-100,4,3,1,70,0,0
180605,-100,4,3,1,5,0,0
180690,-100,4,3,1,70,0,0
181290,-100,4,3,1,5,0,0
181376,-100,4,3,1,70,0,0
181976,-100,4,3,1,5,0,0
182062,-100,4,3,1,70,0,0
182319,-100,4,3,1,5,0,0
182405,-100,4,3,1,70,0,0
183005,-100,4,3,1,5,0,0
183090,-100,4,3,1,70,0,0
184033,-100,4,3,1,5,0,0
184119,-100,4,3,1,70,0,0
184462,-100,4,3,1,70,0,0
184719,-100,4,3,1,5,0,0
184805,-100,4,3,1,70,0,0
185748,-100,4,3,1,5,0,0
185833,-100,4,3,1,70,0,0
186090,-100,4,3,1,5,0,0
186176,-100,4,3,1,70,0,0
186776,-100,4,3,1,5,0,0
186862,-100,4,3,1,70,0,0
187548,-100,4,3,1,70,0,0
188233,-100,4,3,1,70,0,0
188919,-100,4,3,1,70,0,0
189176,-100,4,3,1,5,0,0
189262,-100,4,3,1,70,0,0
189605,-100,4,3,1,60,0,0
199376,-100,4,3,1,70,0,0

[Colours]
Combo1 : 211,162,107
Combo2 : 109,167,3
Combo3 : 204,186,55
Combo4 : 217,140,70

[HitObjects]
112,326,368,5,0,0:0:0:0:
96,234,710,1,2,0:2:0:0:
96,234,1739,5,0,0:0:0:0:
177,191,2082,1,2,0:2:0:0:
177,191,3110,5,0,0:0:0:0:
243,254,3453,1,2,0:2:0:0:
323,211,3796,1,2,0:2:0:0:
307,120,4139,1,2,0:2:0:0:
216,109,4482,5,2,0:2:0:0:
177,191,4825,2,0,L|125:202,2,44.999998626709,2|2|2,0:2|0:2|0:2,0:0:0:0:
177,191,5853,5,2,0:2:0:0:
243,254,6196,1,0,0:0:0:0:
243,254,7225,5,2,0:2:0:0:
323,211,7568,1,0,0:0:0:0:
323,211,8596,6,0,L|323:155,2,44.999998626709,2|2|0,0:2|0:2|0:0,0:0:0:0:
389,274,9282,1,0,0:0:0:0:
349,356,9625,1,0,0:0:0:0:
259,344,9968,6,0,L|207:337,1,44.999998626709,2|2,0:2|0:2,0:0:0:0:
171,350,10310,2,0,L|119:343,1,44.999998626709,2|2,0:2|0:2,0:0:0:0:
82,356,10653,2,0,P|85:311|72:268,1,89.9999972534181,2|2,0:2|0:2,0:0:0:0:
30,188,11339,5,2,0:2:0:0:
99,130,11682,2,0,P|174:95|273:125,1,179.999994506836,2|0,0:2|0:0,0:0:0:0:
342,163,12710,1,2,0:2:0:0:
426,131,13053,1,2,0:2:0:0:
419,220,13396,2,0,B|350:257|350:257|254:222,1,179.999994506836,0|2,0:0|0:2,0:0:0:0:
169,192,14425,5,2,0:2:0:0:
171,102,14768,1,2,0:2:0:0:
256,76,15110,1,2,0:2:0:0:
308,149,15453,1,2,0:2:0:0:
393,123,15796,2,0,L|456:107,2,44.999998626709,2|2|2,0:2|0:2|0:2,0:0:0:0:
393,123,16825,5,2,0:2:0:0:
308,149,17168,2,0,P|288:230|345:319,1,179.999994506836,0|0,0:0|0:0,0:0:0:0:
266,371,18196,1,2,0:2:0:0:
182,336,18539,1,0,0:0:0:0:
103,379,18882,2,0,P|90:336|100:293,1,89.9999972534181,2|0,0:2|0:0,0:0:0:0:
149,217,19568,6,0,L|217:219,2,44.999998626709,2|2|0,0:2|0:2|0:0,0:0:0:0:
123,130,20253,2,0,L|237:133,1,89.9999972534181,2|2,0:2|0:2,0:0:0:0:
286,80,20939,2,0,L|363:82,1,44.999998626709,2|2,0:2|0:2,0:0:0:0:
371,62,21282,2,0,L|448:64,1,44.999998626709,2|2,0:2|0:2,0:0:0:0:
456,44,21625,2,0,P|448:92|460:129,1,89.9999972534181,2|2,0:2|0:2,0:0:0:0:
499,211,22310,5,2,0:2:0:0:
414,242,22653,2,0,L|199:224,1,179.999994506836,2|0,0:2|0:0,0:0:0:0:
153,266,23682,1,2,0:2:0:0:
165,355,24025,1,2,0:2:0:0:
252,375,24368,2,0,L|467:357,1,179.999994506836,2|2,0:2|0:2,0:0:0:0:
497,298,25396,5,2,0:2:0:0:
473,211,25739,1,2,0:2:0:0:
411,145,26082,1,2,0:2:0:0:
321,136,26425,1,2,0:2:0:0:
240,175,26768,2,0,L|190:202,2,44.999998626709,2|2|2,0:2|0:2|0:2,0:0:0:0:
240,175,27796,5,2,0:2:0:0:
210,89,28139,2,0,P|131:50|46:98,1,179.999994506836,0|0,0:0|0:0,0:0:0:0:
1,161,29168,1,2,0:2:0:0:
18,249,29510,1,0,0:0:0:0:
99,287,29853,2,0,L|225:283,1,89.9999972534181,2|0,0:2|0:0,0:0:0:0:
276,262,30539,6,0,L|341:269,2,44.999998626709,2|2|2,0:2|0:2|0:2,0:0:0:0:
214,199,31225,2,0,P|196:148|204:109,1,89.9999972534181,2|2,0:2|0:2,0:0:0:0:
255,41,31910,2,0,L|327:39,1,44.999998626709,2|2,0:2|0:2,0:0:0:0:
344,29,32253,2,0,L|416:27,1,44.999998626709,2|2,0:2|0:2,0:0:0:0:
433,17,32596,2,0,P|423:60|432:104,1,89.9999972534181,2|2,0:2|0:2,0:0:0:0:
503,161,33282,6,0,P|468:189|424:195,1,89.9999972534181,2|0,0:2|0:0,0:0:0:0:
334,182,33968,2,0,P|289:179|238:206,1,89.9999972534181,2|0,0:2|0:0,0:0:0:0:
186,262,34653,2,0,L|190:366,1,89.9999972534181,2|0,0:2|0:0,0:0:0:0:
276,374,35339,2,0,L|272:284,1,89.9999972534181,2|0,0:2|0:0,0:0:0:0:
248,197,36025,6,0,P|209:174|165:173,1,89.9999972534181,2|0,0:2|0:0,0:0:0:0:
77,195,36710,2,0,P|33:191|1:160,1,89.9999972534181,2|0,0:2|0:0,0:0:0:0:
0,69,37396,2,0,P|31:38|78:31,1,89.9999972534181,2|0,0:2|0:0,0:0:0:0:
159,63,38082,2,0,L|275:61,1,89.9999972534181,2|0,0:2|0:0,0:0:0:0:
335,98,38748,5,4,0:2:0:0:
425,56,39090,2,0,L|435:6,2,50,2|2|8,0:2|0:2|0:2,0:0:0:0:
417,155,39776,1,2,0:2:0:0:
471,238,40119,2,0,P|425:254|376:245,1,100,6|2,0:0|0:2,0:0:0:0:
330,227,40633,1,2,0:2:0:0:
282,211,40805,2,0,P|233:202|186:218,1,100,8|2,0:2|0:2,0:0:0:0:
105,276,41490,6,0,L|100:149,1,100,6|2,0:0|0:2,0:0:0:0:
81,129,42005,2,0,L|78:65,1,50,2|8,0:2|0:2,0:0:0:0:
163,25,42519,1,2,0:2:0:0:
236,92,42862,1,6,0:0:0:0:
327,51,43205,2,0,L|378:49,1,50,2|2,0:2|0:2,0:0:0:0:
427,48,43548,2,0,P|468:74|489:118,1,100,8|4,0:2|0:0,0:0:0:0:
500,167,44062,1,4,0:0:0:0:
493,216,44233,5,6,0:0:0:0:
395,194,44576,2,0,L|385:145,2,50,2|2|8,0:2|0:2|0:2,0:0:0:0:
348,282,45262,1,2,0:2:0:0:
268,342,45605,2,0,P|247:276|258:236,1,100,6|2,0:0|0:2,0:0:0:0:
273,201,46119,1,2,0:2:0:0:
293,155,46290,2,0,P|314:89|303:49,1,100,8|2,0:2|0:2,0:0:0:0:
212,91,46976,6,0,L|101:86,1,100,6|2,0:0|0:2,0:0:0:0:
65,105,47490,2,0,L|9:102,1,50,2|8,0:2|0:2,0:0:0:0:
0,201,48005,1,0,0:0:0:0:
71,271,48348,2,0,L|126:268,1,50,6|4,0:0|0:0,0:0:0:0:
169,256,48690,2,0,L|224:253,1,50,4|4,0:0|0:0,0:0:0:0:
267,239,49033,2,0,P|291:282|288:331,1,100,8|4,0:2|0:3,0:0:0:0:
382,365,49719,5,4,0:2:0:0:
468,314,50062,2,0,L|484:375,2,50,2|2|8,0:2|0:2|0:2,0:0:0:0:
434,219,50748,1,2,0:2:0:0:
493,139,51090,1,6,0:0:0:0:
429,61,51433,2,0,L|362:69,1,50,2|2,0:2|0:2,0:0:0:0:
329,72,51776,2,0,P|271:69|235:47,1,100,8|2,0:2|0:2,0:0:0:0:
140,17,52462,6,0,L|145:116,1,100,6|2,0:0|0:2,0:0:0:0:
140,166,52976,1,2,0:2:0:0:
116,210,53148,2,0,P|81:245|33:257,1,100,8|2,0:2|0:2,0:0:0:0:
31,357,53833,2,0,L|149:353,1,100,6|2,0:0|0:2,0:0:0:0:
175,330,54348,2,0,L|239:327,1,50,2|8,0:2|0:2,0:0:0:0:
315,371,54862,1,4,0:0:0:0:
363,358,55033,1,4,0:0:0:0:
411,345,55205,5,6,0:0:0:0:
460,258,55548,2,0,L|517:268,2,50,2|2|8,0:2|0:2|0:2,0:0:0:0:
361,239,56233,1,2,0:2:0:0:
265,265,56576,1,6,0:0:0:0:
169,236,56919,2,0,L|108:233,1,50,2|2,0:2|0:2,0:0:0:0:
72,252,57262,2,0,P|79:182|64:147,1,100,8|2,0:2|0:2,0:0:0:0:
27,64,57948,6,0,L|135:64,1,100,6|2,0:0|0:2,0:0:0:0:
176,54,58462,1,2,0:2:0:0:
225,44,58633,2,0,L|333:44,1,100,8|0,0:2|0:0,0:0:0:0:
425,51,59319,2,0,L|445:-7,2,50,6|4|4,0:0|0:0|0:0,0:0:0:0:
407,97,59833,1,4,0:0:0:0:
392,145,60005,2,0,P|380:193|392:241,1,100,8|4,0:2|0:0,0:0:0:0:
436,330,60690,6,0,L|512:314,2,50,4|2|2,0:2|0:2|0:2,0:0:0:0:
341,364,61376,2,0,B|277:385|245:357|245:357|206:326|150:348,1,200,2|10,0:2|0:2,0:0:0:0:
55,378,62405,1,8,0:3:0:0:
4,291,62748,2,0,L|6:214,1,50,4|4,0:3|0:3,0:0:0:0:
10,191,63090,1,4,0:3:0:0:
47,98,63433,6,0,B|84:58|161:70|203:124|203:124|201:75|201:75|242:129|304:141|353:113,1,400,4|2,0:2|0:2,0:0:0:0:
440,61,65148,1,2,0:2:0:0:
497,142,65490,2,0,L|471:302,1,150,8|4,0:3|0:3,0:0:0:0:
460,338,66176,6,0,L|514:373,2,50,4|2|2,0:2|0:2|0:2,0:0:0:0:
362,360,66862,2,0,P|273:325|264:230,1,200,2|2,0:2|0:2,0:0:0:0:
313,143,67890,1,2,0:2:0:0:
248,66,68233,2,0,L|172:64,1,50,4|2,0:2|0:2,0:0:0:0:
147,64,68576,1,2,0:2:0:0:
59,14,68919,6,0,P|45:62|58:110,1,100,4|0,0:2|0:0,0:0:0:0:
135,174,69605,2,0,P|148:230|130:277,1,100,8|4,0:2|0:3,0:0:0:0:
67,343,70290,2,0,B|119:308|161:329|161:329|203:351|256:318,1,200,4|8,0:2|0:2,0:0:0:0:
341,267,71319,1,4,0:3:0:0:
424,321,71662,5,4,0:2:0:0:
467,295,71833,1,4,0:3:0:0:
510,270,72005,1,4,0:3:0:0:
510,168,72348,2,0,P|470:80|374:69,1,200,8|2,0:2|0:2,0:0:0:0:
283,105,73376,1,4,0:3:0:0:
199,50,73719,2,0,L|139:46,2,50,8|4|4,0:2|0:3|0:3,0:0:0:0:
282,104,74405,6,0,P|293:153|279:200,1,100,4|2,0:3|0:2,0:0:0:0:
206,269,75090,1,8,0:2:0:0:
122,213,75433,2,0,L|56:213,1,50,4|4,0:3|0:3,0:0:0:0:
27,236,75776,2,0,P|9:299|26:351,1,100,4|2,0:3|0:2,0:0:0:0:
101,383,76462,2,0,L|216:376,1,100,8|2,0:2|0:2,0:0:0:0:
286,324,77148,5,4,0:2:0:0:
279,274,77319,1,4,0:3:0:0:
272,224,77490,1,4,0:3:0:0:
183,177,77833,2,0,P|253:125|357:173,1,200,8|2,0:2|0:2,0:0:0:0:
421,233,78862,1,4,0:3:0:0:
482,154,79205,2,0,L|510:108,2,50,8|4|4,0:2|0:3|0:3,0:0:0:0:
421,232,79890,6,0,P|378:257|328:257,1,100,4|0,0:2|0:0,0:0:0:0:
232,230,80576,2,0,P|183:222|138:243,1,100,8|4,0:2|0:3,0:0:0:0:
56,300,81262,2,0,L|50:193,1,100,4|0,0:2|0:0,0:0:0:0:
0,116,81948,2,0,P|46:101|98:114,1,100,8|4,0:2|0:3,0:0:0:0:
180,164,82633,6,0,P|273:167|329:70,1,200,4|4,0:2|0:3,0:0:0:0:
229,75,83662,1,4,0:3:0:0:
130,92,84005,2,0,B|92:129|92:129|106:283,1,200,4|4,0:3|0:3,0:0:0:0:
171,350,85033,1,4,0:3:0:0:
247,285,85376,6,0,B|296:262|342:294|342:294|384:321|436:293,1,200,4|4,0:3|0:3,0:0:0:0:
509,224,86405,1,8,0:2:0:0:
428,164,86748,2,0,B|395:131|395:131|408:28,2,150,4|4|8,0:2|0:3|0:2,0:0:0:0:
509,224,88119,6,0,L|504:293,1,50,4|8,0:3|0:2,0:0:0:0:
463,301,88462,2,0,L|458:370,1,50,4|8,0:3|0:2,0:0:0:0:
417,378,88805,2,0,P|361:376|300:338,1,100,4|4,0:3|0:3,0:0:0:0:
250,287,89490,2,0,L|251:231,2,50,4|8|4,0:3|0:2|0:3,0:0:0:0:
212,321,90005,1,8,0:2:0:0:
168,345,90176,2,0,L|62:343,1,100,4|4,0:3|0:3,0:0:0:0:
49,244,90862,5,4,0:3:0:0:
49,244,91033,2,0,L|1:258,2,50,8|4|8,0:2|0:3|0:2,0:0:0:0:
96,226,91548,1,4,0:3:0:0:
190,193,91890,1,4,0:3:0:0:
280,236,92233,2,0,L|335:233,1,50,4|8,0:3|0:2,0:0:0:0:
374,209,92576,2,0,L|429:206,1,50,4|8,0:3|0:2,0:0:0:0:
472,220,92919,2,0,P|462:147|493:91,1,100,4|8,0:3|0:2,0:0:0:0:
481,23,93605,6,0,L|414:20,1,50,4|8,0:3|0:2,0:0:0:0:
383,37,93948,2,0,L|316:34,1,50,4|8,0:3|0:2,0:0:0:0:
285,50,94290,2,0,P|278:102|303:151,1,100,4|4,0:3|0:3,0:0:0:0:
374,209,94976,2,0,L|429:206,2,50,4|8|4,0:3|0:2|0:3,0:0:0:0:
332,237,95490,1,8,0:2:0:0:
290,264,95662,2,0,L|190:269,1,100,4|4,0:3|0:3,0:0:0:0:
92,244,96348,5,4,0:3:0:0:
92,244,96519,2,0,L|81:308,2,50,8|4|8,0:2|0:3|0:2,0:0:0:0:
106,195,97033,1,4,0:3:0:0:
42,117,97376,1,4,0:3:0:0:
94,31,97719,2,0,L|156:29,1,50,4|8,0:3|0:2,0:0:0:0:
187,54,98062,2,0,L|249:52,1,50,4|8,0:3|0:2,0:0:0:0:
281,74,98405,2,0,L|398:70,1,100,4|8,0:3|0:2,0:0:0:0:
469,115,99090,6,0,P|481:66|467:19,2,100,4|4|4,0:3|0:3|0:3,0:0:0:0:
408,194,100119,1,4,0:3:0:0:
331,129,100462,2,0,P|308:175|314:233,1,100,4|4,0:3|0:3,0:0:0:0:
384,292,101148,2,0,L|491:288,1,100,4|4,0:3|0:3,0:0:0:0:
507,190,101833,6,0,L|407:193,2,100,4|4|4,0:3|0:3|0:3,0:0:0:0:
508,89,102862,1,4,0:3:0:0:
411,61,103205,2,0,P|357:52|310:66,1,100,4|4,0:3|0:3,0:0:0:0:
229,116,103890,2,0,L|233:239,1,100,4|8,0:3|0:2,0:0:0:0:
240,265,104405,1,8,0:2:0:0:
272,302,104576,6,0,P|340:311|381:286,2,100,4|4|4,0:3|0:3|0:3,0:0:0:0:
190,360,105605,1,4,0:3:0:0:
98,319,105948,2,0,L|94:210,1,100,4|4,0:3|0:3,0:0:0:0:
34,139,106633,2,0,P|91:116|131:125,1,100,4|4,0:3|0:3,0:0:0:0:
224,147,107319,6,0,P|272:153|317:131,2,100,4|4|4,0:3|0:3|0:3,0:0:0:0:
127,123,108348,1,8,0:2:0:0:
138,23,108690,2,0,L|71:25,2,50,4|8|8,0:2|0:2|0:2,0:0:0:0:
185,40,109205,1,4,0:3:0:0:
231,57,109376,2,0,L|380:52,1,150,4|8,0:2|0:2,0:0:0:0:
431,53,110062,6,0,L|441:0,2,50,4|8|4,0:3|0:2|0:3,0:0:0:0:
422,102,110576,1,8,0:2:0:0:
414,151,110748,2,0,P|411:211|434:258,1,100,4|4,0:3|0:3,0:0:0:0:
442,345,111433,2,0,L|369:344,1,50,4|8,0:3|0:2,0:0:0:0:
344,361,111776,2,0,L|271:360,1,50,4|8,0:3|0:2,0:0:0:0:
246,343,112119,2,0,P|221:300|218:250,1,100,4|4,0:3|0:3,0:0:0:0:
241,153,112805,5,4,0:3:0:0:
191,151,112976,1,8,0:2:0:0:
140,149,113148,2,0,L|74:147,1,50,4|8,0:3|0:2,0:0:0:0:
42,162,113490,2,0,P|23:217|38:272,1,100,4|4,0:3|0:3,0:0:0:0:
65,351,114176,1,4,0:3:0:0:
65,351,114348,2,0,L|-4:363,2,50,8|4|8,0:2|0:3|0:2,0:0:0:0:
114,340,114862,1,4,0:3:0:0:
209,370,115205,1,8,0:2:0:0:
298,325,115548,6,0,L|321:381,2,50,4|8|4,0:3|0:2|0:3,0:0:0:0:
277,279,116062,1,8,0:2:0:0:
259,232,116233,2,0,P|247:171|264:121,1,100,4|4,0:3|0:3,0:0:0:0:
310,50,116919,2,0,L|227:47,1,50,4|8,0:3|0:2,0:0:0:0:
210,39,117262,2,0,L|127:36,1,50,4|8,0:3|0:2,0:0:0:0:
111,24,117605,2,0,L|117:148,1,100,4|4,0:3|0:3,0:0:0:0:
88,220,118290,5,4,0:3:0:0:
131,244,118462,1,8,0:2:0:0:
174,268,118633,2,0,L|221:295,1,50,4|8,0:3|0:2,0:0:0:0:
263,311,118976,2,0,P|311:320|359:307,1,100,4|4,0:3|0:3,0:0:0:0:
447,259,119662,1,4,0:3:0:0:
447,259,119833,2,0,L|459:324,2,50,8|4|8,0:2|0:3|0:2,0:0:0:0:
435,209,120348,1,4,0:3:0:0:
414,111,120690,1,8,0:2:0:0:
461,22,121033,6,0,P|413:8|362:24,1,100,4|8,0:2|0:2,0:0:0:0:
285,82,121719,2,0,L|278:2,2,75,4|4|4,0:3|0:3|0:3,0:0:0:0:
275,131,122405,2,0,L|283:230,1,100,4|8,0:3|0:2,0:0:0:0:
261,328,123090,2,0,P|298:329|333:317,2,75,4|4|0,0:3|0:3|0:0,0:0:0:0:
210,328,123776,6,0,P|160:327|115:348,1,100,4|8,0:3|0:2,0:0:0:0:
27,301,124462,2,0,L|17:375,2,75,4|4|8,0:3|0:3|0:2,0:0:0:0:
42,202,125319,1,4,0:3:0:0:
130,248,125662,1,4,0:3:0:0:
143,148,126005,1,4,0:3:0:0:
231,194,126348,1,4,0:3:0:0:
231,194,126519,6,0,P|282:207|329:194,1,100,4|8,0:2|0:2,0:0:0:0:
420,157,127205,2,0,L|419:242,2,75,4|4|4,0:3|0:3|0:3,0:0:0:0:
417,107,127890,2,0,P|378:70|319:57,1,100,4|8,0:3|0:2,0:0:0:0:
235,75,128576,2,0,L|228:0,2,75,4|4|0,0:3|0:3|0:0,0:0:0:0:
219,122,129262,6,0,L|227:221,1,100,4|8,0:3|0:2,0:0:0:0:
257,317,129948,2,0,P|216:321|181:308,2,75,4|4|4,0:3|0:3|0:3,0:0:0:0:
352,288,130805,1,8,0:2:0:0:
432,347,131148,1,8,0:2:0:0:
512,289,131490,1,8,0:2:0:0:
483,195,131833,1,4,0:3:0:0:
483,195,132005,6,0,P|422:121|325:119,1,200,4|8,0:2|0:2,0:0:0:0:
232,159,133033,2,0,L|222:87,1,50,2|2,0:2|0:2,0:0:0:0:
218,59,133376,2,0,B|118:52|118:52|40:114,1,200,4|8,0:2|0:2,0:0:0:0:
11,210,134405,2,0,L|72:207,1,50,2|2,0:2|0:2,0:0:0:0:
111,206,134748,6,0,P|166:255|133:379,1,200,4|8,0:2|0:2,0:0:0:0:
244,379,135776,2,0,L|316:376,1,50,2|2,0:2|0:2,0:0:0:0:
366,308,136290,1,4,0:3:0:0:
299,233,136633,1,4,0:3:0:0:
372,165,136976,1,4,0:3:0:0:
305,90,137319,1,4,0:3:0:0:
304,90,137490,6,0,P|386:64|471:148,1,200,4|8,0:2|0:2,0:0:0:0:
477,233,138519,2,0,L|404:230,1,50,2|2,0:2|0:2,0:0:0:0:
376,230,138862,2,0,B|312:224|287:263|287:263|261:300|193:290,1,200,4|8,0:2|0:2,0:0:0:0:
97,274,139890,2,0,L|89:207,1,50,2|2,0:2|0:2,0:0:0:0:
81,173,140233,6,0,P|98:79|186:40,1,200,4|8,0:2|0:2,0:0:0:0:
276,84,141262,2,0,L|337:81,1,50,2|2,0:2|0:2,0:0:0:0:
422,54,141776,1,8,0:2:0:0:
478,138,142119,1,8,0:2:0:0:
415,217,142462,1,8,0:2:0:0:
471,301,142805,1,8,0:2:0:0:
408,380,143148,5,4,0:3:0:0:
313,344,143490,1,4,0:3:0:0:
317,242,143833,1,4,0:3:0:0:
222,206,144176,1,4,0:3:0:0:
222,206,144348,2,0,P|166:208|121:242,1,100,4|0,0:2|0:0,0:0:0:0:
130,231,155319,6,0,L|67:257,2,50,4|4|8,0:3|0:3|0:2,0:0:0:0:
175,210,155833,1,4,0:3:0:0:
221,192,156005,2,0,P|271:185|319:198,1,100,8|8,0:2|0:3,0:0:0:0:
396,259,156690,6,0,L|388:317,2,50,4|0|8,0:2|0:0|0:2,0:0:0:0:
406,209,157205,1,0,0:0:0:0:
411,159,157376,2,0,P|409:107|371:62,1,100,4|8,0:3|0:2,0:0:0:0:
338,43,157890,1,4,0:3:0:0:
289,32,158062,2,0,L|170:31,1,100,4|8,0:3|0:2,0:0:0:0:
93,60,158748,2,0,L|84:-5,2,50,4|0|8,0:3|0:0|0:2,0:0:0:0:
111,106,159262,1,0,0:0:0:0:
145,142,159433,6,0,P|185:161|254:152,1,100,4|8,0:3|0:2,0:0:0:0:
336,133,160119,2,0,P|385:129|430:149,1,100,4|8,0:3|0:2,0:0:0:0:
506,214,160805,1,4,0:3:0:0:
488,313,161148,1,8,0:2:0:0:
393,346,161490,1,8,0:2:0:0:
316,280,161833,1,8,0:3:0:0:
221,313,162176,6,0,L|161:312,1,50,4|0,0:2|0:0,0:0:0:0:
125,333,162519,2,0,L|65:332,1,50,8|0,0:2|0:0,0:0:0:0:
26,318,162862,2,0,P|9:271|11:221,1,100,4|8,0:3|0:2,0:0:0:0:
20,172,163376,1,4,0:3:0:0:
44,128,163548,1,4,0:3:0:0:
135,166,163890,1,8,0:2:0:0:
207,97,164233,2,0,L|266:95,1,50,4|0,0:3|0:0,0:0:0:0:
301,118,164576,2,0,L|360:116,1,50,8|0,0:2|0:0,0:0:0:0:
394,141,164919,6,0,P|413:192|398:244,1,100,4|8,0:3|0:2,0:0:0:0:
322,294,165605,2,0,P|303:243|318:191,1,100,4|8,0:3|0:2,0:0:0:0:
394,141,166290,1,4,0:3:0:0:
365,46,166633,1,8,0:2:0:0:
265,44,166976,1,8,0:2:0:0:
232,138,167319,1,8,0:3:0:0:
132,136,167662,6,0,L|113:78,2,50,4|2|2,0:2|0:2|0:2,0:0:0:0:
162,231,168348,2,0,P|157:289|33:346,1,200,2|10,0:2|0:2,0:0:0:0:
63,250,169376,1,8,0:3:0:0:
162,231,169719,2,0,L|220:231,1,50,4|4,0:3|0:3,0:0:0:0:
262,231,170062,1,4,0:3:0:0:
298,324,170405,6,0,B|373:288|378:222|355:182|328:159|328:159|286:127|274:72|299:8|368:-3,1,400,4|2,0:2|0:2,0:0:0:0:
452,12,172119,1,2,0:2:0:0:
384,86,172462,2,0,L|230:83,1,150,8|4,0:3|0:3,0:0:0:0:
183,80,173148,6,0,L|172:22,2,50,4|2|2,0:2|0:2|0:2,0:0:0:0:
153,175,173833,2,0,P|141:248|240:304,1,200,2|2,0:2|0:2,0:0:0:0:
336,283,174862,1,2,0:2:0:0:
422,332,175205,2,0,L|424:266,1,50,4|2,0:2|0:2,0:0:0:0:
427,232,175548,1,2,0:2:0:0:
471,142,175890,6,0,P|423:129|376:146,1,100,4|0,0:2|0:0,0:0:0:0:
287,192,176576,2,0,P|230:209|179:185,1,100,8|4,0:2|0:3,0:0:0:0:
132,117,177262,2,0,L|145:326,1,200,4|8,0:2|0:2,0:0:0:0:
225,374,178290,1,4,0:3:0:0:
317,335,178633,5,4,0:2:0:0:
322,285,178805,1,4,0:3:0:0:
327,235,178976,1,4,0:3:0:0:
270,152,179319,2,0,P|365:141|425:216,1,200,8|2,0:2|0:2,0:0:0:0:
486,136,180348,1,4,0:3:0:0:
441,46,180690,2,0,L|506:50,2,50,8|4|4,0:2|0:3|0:3,0:0:0:0:
343,24,181376,6,0,L|230:25,1,100,4|2,0:3|0:2,0:0:0:0:
161,83,182062,1,8,0:2:0:0:
66,50,182405,2,0,L|70:115,1,50,4|4,0:3|0:3,0:0:0:0:
83,147,182748,2,0,P|123:178|173:183,1,100,4|2,0:3|0:2,0:0:0:0:
268,163,183433,2,0,P|319:152|379:172,1,100,8|2,0:2|0:2,0:0:0:0:
453,209,184119,5,4,0:2:0:0:
447,258,184290,1,4,0:3:0:0:
440,307,184462,1,4,0:3:0:0:
362,369,184805,2,0,B|300:380|268:347|268:347|229:309|164:331,1,200,8|2,0:2|0:2,0:0:0:0:
80,358,185833,1,4,0:3:0:0:
9,286,186176,2,0,L|-3:216,2,50,8|4|4,0:2|0:3|0:3,0:0:0:0:
80,358,186862,6,0,P|145:347|180:311,1,100,4|0,0:2|0:0,0:0:0:0:
218,238,187548,2,0,L|217:122,1,100,8|4,0:2|0:3,0:0:0:0:
166,52,188233,2,0,P|220:37|274:53,1,100,4|0,0:2|0:0,0:0:0:0:
312,132,188919,2,0,P|258:147|204:131,1,100,8|4,0:2|0:3,0:0:0:0:
115,137,189605,6,0,B|68:190|68:190|82:337,1,200,4|8,0:2|0:2,0:0:0:0:
170,362,190633,2,0,L|241:359,1,50,2|2,0:2|0:2,0:0:0:0:
260,330,190976,2,0,L|462:323,1,200,4|8,0:2|0:2,0:0:0:0:
500,231,192005,1,2,0:2:0:0:
420,170,192348,6,0,B|363:149|326:184|326:184|291:216|231:198,1,200,4|8,0:2|0:2,0:0:0:0:
136,169,193376,2,0,L|67:169,1,50,2|2,0:2|0:2,0:0:0:0:
27,87,193890,1,4,0:3:0:0:
87,6,194233,1,4,0:3:0:0:
182,38,194576,1,4,0:3:0:0:
180,138,194919,1,4,0:3:0:0:
180,138,195090,6,0,P|236:127|281:-2,1,200,4|8,0:2|0:2,0:0:0:0:
374,49,196119,2,0,L|443:48,1,50,2|2,0:2|0:2,0:0:0:0:
470,28,196462,2,0,P|446:111|493:225,1,200,4|8,0:2|0:2,0:0:0:0:
426,296,197490,2,0,L|356:298,1,50,2|2,0:2|0:2,0:0:0:0:
330,319,197833,6,0,B|264:319|264:319|156:226,1,200,4|8,0:2|0:2,0:0:0:0:
71,188,198862,2,0,B|17:141,1,50,2|2,0:2|0:2,0:0:0:0:
75,64,199376,1,8,0:2:0:0:
171,37,199719,1,8,0:2:0:0:
226,119,200062,1,8,0:2:0:0:
165,196,200405,1,8,0:2:0:0:
220,278,200748,5,4,0:3:0:0:
315,252,201090,1,4,0:3:0:0:
319,153,201433,1,4,0:3:0:0:
414,127,201776,1,4,0:3:0:0:
414,127,201948,2,0,P|471:138|507:170,1,100,4|0,0:2|0:0,0:0:0:0:
