osu file format v14

[General]
AudioFilename: audio.mp3
AudioLeadIn: 0
PreviewTime: 109976
Countdown: 0
SampleSet: Drum
StackLeniency: 0.4
Mode: 0
LetterboxInBreaks: 0
WidescreenStoryboard: 0

[Editor]
DistanceSpacing: 0.9
BeatDivisor: 4
GridSize: 4
TimelineZoom: 3.878078

[Metadata]
Title:Troll of the Forsaken Cave
TitleUnicode:Troll of the Forsaken Cave
Artist:Loki
ArtistUnicode:Loki
Creator:Cris-
Version:Mythical
Source:osu!
Tags:TheShadowOfDark walaowey [_L_u_k_a_s_] Lukas Seolv Minorsonek M2Usonek Loki's "Tales of the Mountains" Beatmap Pack FA Featured Artist Symphonic Metal Instrumental Rock Thaehan Gremio Mappers' Guild MG
BeatmapID:2198578
BeatmapSetID:1052028

[Difficulty]
HPDrainRate:5
CircleSize:4.5
OverallDifficulty:9
ApproachRate:9.5
SliderMultiplier:2.4
SliderTickRate:1

[Events]
//Background and Video events
0,0,"BG.jpg",0,0
//Break Periods
2,121233,131480
//Storyboard Layer 0 (Background)
//Storyboard Layer 1 (Fail)
//Storyboard Layer 2 (Pass)
//Storyboard Layer 3 (Foreground)
//Storyboard Layer 4 (Overlay)
//Storyboard Sound Samples

[TimingPoints]
368,342.857142857143,4,3,1,30,1,0
368,-200,4,3,1,30,0,0
11339,-83.3333333333334,4,3,1,40,0,0
11596,-83.3333333333334,4,3,1,5,0,0
11682,-142.857142857143,4,3,1,40,0,0
12625,-142.857142857143,4,3,1,5,0,0
12710,-83.3333333333333,4,3,1,40,0,0
12968,-83.3333333333333,4,3,1,5,0,0
13053,-83.3333333333333,4,3,1,40,0,0
13310,-83.3333333333333,4,3,1,5,0,0
13396,-142.857142857143,4,3,1,40,0,0
13996,-142.857142857143,4,3,1,5,0,0
14082,-200,4,3,1,40,0,0
14339,-200,4,3,1,5,0,0
14425,-166.666666666667,4,3,1,40,0,0
14682,-166.666666666667,4,3,1,5,0,0
14768,-142.857142857143,4,3,1,40,0,0
15025,-142.857142857143,4,3,1,5,0,0
15110,-125,4,3,1,40,0,0
15368,-125,4,3,1,5,0,0
15453,-111.111111111111,4,3,1,40,0,0
15710,-111.111111111111,4,3,1,5,0,0
15796,-100,4,3,1,40,0,0
16825,-100,4,3,1,40,0,0
17082,-100,4,3,1,5,0,0
17168,-100,4,3,1,40,0,0
17425,-83.3333333333333,4,3,1,5,0,0
17510,-142.857142857143,4,3,1,40,0,0
18110,-142.857142857143,4,3,1,5,0,0
18196,-100,4,3,1,40,0,0
18453,-100,4,3,1,5,0,0
18539,-100,4,3,1,40,0,0
18796,-83.3333333333333,4,3,1,5,0,0
18882,-142.857142857143,4,3,1,40,0,0
19482,-142.857142857143,4,3,1,5,0,0
19568,-142.857142857143,4,3,1,40,0,0
20168,-142.857142857143,4,3,1,5,0,0
20253,-111.111111111111,4,3,1,40,0,0
20510,-111.111111111111,4,3,1,5,0,0
20596,-90.909090909091,4,3,1,40,0,0
20853,-90.909090909091,4,3,1,5,0,0
20939,-100,4,3,1,40,0,0
22310,-83.3333333333333,4,3,1,45,0,0
22568,-83.3333333333333,4,3,1,5,0,0
22653,-125,4,3,1,45,0,0
23596,-125,4,3,1,5,0,0
23682,-83.3333333333333,4,3,1,45,0,0
23939,-83.3333333333333,4,3,1,5,0,0
24025,-83.3333333333333,4,3,1,45,0,0
24282,-83.3333333333333,4,3,1,5,0,0
24368,-125,4,3,1,45,0,0
24968,-125,4,3,1,5,0,0
25053,-200,4,3,1,45,0,0
25310,-200,4,3,1,5,0,0
25396,-166.666666666667,4,3,1,45,0,0
25653,-166.666666666667,4,3,1,5,0,0
25739,-142.857142857143,4,3,1,45,0,0
25996,-142.857142857143,4,3,1,5,0,0
26082,-125,4,3,1,45,0,0
26339,-125,4,3,1,5,0,0
26425,-111.111111111111,4,3,1,45,0,0
26682,-111.111111111111,4,3,1,5,0,0
26768,-100,4,3,1,45,0,0
27796,-100,4,3,1,45,0,0
28053,-100,4,3,1,5,0,0
28139,-83.3333333333333,4,3,1,45,0,0
28396,-83.3333333333333,4,3,1,5,0,0
28482,-125,4,3,1,45,0,0
29081,-125,4,3,1,5,0,0
29168,-100,4,3,1,45,0,0
29425,-100,4,3,1,5,0,0
29510,-100,4,3,1,45,0,0
29768,-100,4,3,1,5,0,0
29853,-100,4,3,1,45,0,0
30453,-100,4,3,1,5,0,0
30539,-125,4,3,1,45,0,0
30882,-125,4,3,1,45,0,0
31139,-100,4,3,1,5,0,0
31225,-83.3333333333333,4,3,1,45,0,0
31482,-83.3333333333333,4,3,1,5,0,0
31568,-71.4285714285714,4,3,1,45,0,0
31825,-71.4285714285714,4,3,1,5,0,0
31910,-100,4,3,1,45,0,0
32939,-166.666666666667,4,3,1,45,0,0
33196,-166.666666666667,4,3,1,5,0,0
33282,-111.111111111111,4,3,1,50,0,0
33453,-111.111111111111,4,3,1,5,0,0
33625,-111.111111111111,4,3,1,50,0,0
33796,-111.111111111111,4,3,1,5,0,0
33968,-111.111111111111,4,3,1,50,0,0
34139,-111.111111111111,4,3,1,5,0,0
34310,-111.111111111111,4,3,1,50,0,0
34482,-111.111111111111,4,3,1,5,0,0
34653,-111.111111111111,4,3,1,50,0,0
34825,-111.111111111111,4,3,1,5,0,0
34996,-111.111111111111,4,3,1,50,0,0
35168,-111.111111111111,4,3,1,5,0,0
35339,-111.111111111111,4,3,1,50,0,0
35510,-111.111111111111,4,3,1,5,0,0
35682,-111.111111111111,4,3,1,50,0,0
35853,-111.111111111111,4,3,1,5,0,0
36025,-111.111111111111,4,3,1,50,0,0
36196,-111.111111111111,4,3,1,5,0,0
36368,-111.111111111111,4,3,1,50,0,0
36539,-111.111111111111,4,3,1,5,0,0
36710,-111.111111111111,4,3,1,50,0,0
36882,-111.111111111111,4,3,1,5,0,0
37053,-111.111111111111,4,3,1,50,0,0
37225,-111.111111111111,4,3,1,5,0,0
37396,-111.111111111111,4,3,1,50,0,0
37568,-111.111111111111,4,3,1,5,0,0
37739,-111.111111111111,4,3,1,50,0,0
37910,-111.111111111111,4,3,1,5,0,0
38082,-111.111111111111,4,3,1,50,0,0
38253,-111.111111111111,4,3,1,5,0,0
38425,-111.111111111111,4,3,1,50,0,0
38596,-111.111111111111,4,3,1,5,0,0
38748,342.857142857143,4,3,1,60,1,0
38748,-100,4,3,1,60,0,0
39005,-100,4,3,1,5,0,0
39090,-100,4,3,1,60,0,0
39776,-133.333333333333,4,3,1,60,0,0
40119,-100,4,3,1,60,0,0
40376,-100,4,3,1,5,0,0
40462,-100,4,3,1,60,0,0
41148,-133.333333333333,4,3,1,60,0,0
41490,-100,4,3,1,60,0,0
41748,-100,4,3,1,5,0,0
41833,-100,4,3,1,60,0,0
42433,-100,4,3,1,5,0,0
42519,-133.333333333333,4,3,1,60,0,0
42862,-100,4,3,1,60,0,0
43119,-100,4,3,1,5,0,0
43205,-100,4,3,1,60,0,0
44233,-100,4,3,1,60,0,0
44490,-100,4,3,1,5,0,0
44576,-100,4,3,1,60,0,0
45262,-133.333333333333,4,3,1,60,0,0
45605,-100,4,3,1,60,0,0
45862,-100,4,3,1,5,0,0
45948,-100,4,3,1,60,0,0
46548,-100,4,3,1,5,0,0
46633,-100,4,3,1,60,0,0
46890,-100,4,3,1,5,0,0
46976,-111.111111111111,4,3,1,60,0,0
47919,-111.111111111111,4,3,1,5,0,0
48005,-133.333333333333,4,3,1,60,0,0
48348,-90.9090909090909,4,3,1,60,0,0
49719,-100,4,3,1,60,0,0
49976,-100,4,3,1,5,0,0
50062,-100,4,3,1,60,0,0
50662,-100,4,3,1,5,0,0
50748,-133.333333333333,4,3,1,60,0,0
51090,-100,4,3,1,60,0,0
51348,-100,4,3,1,5,0,0
51433,-100,4,3,1,60,0,0
52033,-100,4,3,1,5,0,0
52119,-133.333333333333,4,3,1,60,0,0
52462,-100,4,3,1,60,0,0
52719,-100,4,3,1,5,0,0
52805,-100,4,3,1,60,0,0
53405,-100,4,3,1,5,0,0
53490,-133.333333333333,4,3,1,60,0,0
53833,-100,4,3,1,60,0,0
54090,-100,4,3,1,5,0,0
54176,-100,4,3,1,60,0,0
54776,-100,4,3,1,5,0,0
54862,-100,4,3,1,60,0,0
55462,-100,4,3,1,5,0,0
55548,-100,4,3,1,60,0,0
56148,-100,4,3,1,5,0,0
56233,-133.333333333333,4,3,1,60,0,0
56576,-100,4,3,1,60,0,0
56833,-100,4,3,1,5,0,0
56919,-100,4,3,1,60,0,0
57519,-100,4,3,1,5,0,0
57605,-133.333333333333,4,3,1,60,0,0
57948,-100,4,3,1,60,0,0
59233,-100,4,3,1,5,0,0
59319,-100,4,3,1,60,0,0
60605,-100,4,3,1,5,0,0
60690,-125,4,3,1,65,0,0
61976,-125,4,3,1,5,0,0
62062,-125,4,3,1,65,0,0
62748,-100,4,3,1,65,0,0
63433,-125,4,3,1,65,0,0
65490,-100,4,3,1,65,0,0
66176,-125,4,3,1,65,0,0
66862,-116.279069767442,4,3,1,65,0,0
67805,-116.279069767442,4,3,1,5,0,0
67890,-125,4,3,1,65,0,0
68148,-125,4,3,1,5,0,0
68233,-100,4,3,1,65,0,0
68919,-125,4,3,1,65,0,0
69605,-100,4,3,1,65,0,0
70290,-83.3333333333333,4,3,1,65,0,0
70976,-100,4,3,1,65,0,0
71233,-100,4,3,1,5,0,0
71319,-100,4,3,1,65,0,0
71662,-83.3333333333333,4,3,1,70,0,0
72005,-125,4,3,1,70,0,0
72262,-125,4,3,1,5,0,0
72348,-83.3333333333333,4,3,1,70,0,0
73290,-83.3333333333333,4,3,1,5,0,0
73376,-133.333333333333,4,3,1,70,0,0
73633,-133.333333333333,4,3,1,5,0,0
73719,-133.333333333333,4,3,1,70,0,0
74319,-133.333333333333,4,3,1,5,0,0
74405,-83.3333333333333,4,3,1,70,0,0
75005,-83.3333333333333,4,3,1,5,0,0
75090,-83.3333333333333,4,3,1,70,0,0
75348,-83.3333333333333,4,3,1,5,0,0
75433,-83.3333333333333,4,3,1,70,0,0
76033,-83.3333333333333,4,3,1,5,0,0
76119,-100,4,3,1,70,0,0
77062,-100,4,3,1,5,0,0
77148,-100,4,3,1,70,0,0
77490,-125,4,3,1,70,0,0
77748,-125,4,3,1,5,0,0
77833,-83.3333333333333,4,3,1,70,0,0
78776,-83.3333333333333,4,3,1,5,0,0
78862,-133.333333333333,4,3,1,70,0,0
79119,-133.333333333333,4,3,1,5,0,0
79205,-133.333333333333,4,3,1,70,0,0
79805,-133.333333333333,4,3,1,5,0,0
79890,-83.3333333333333,4,3,1,70,0,0
80576,-100,4,3,1,70,0,0
81262,-83.3333333333333,4,3,1,70,0,0
81948,-66.6666666666667,4,3,1,70,0,0
82205,-66.6666666666667,4,3,1,5,0,0
82290,-66.6666666666667,4,3,1,70,0,0
82633,-66.6666666666667,4,3,1,50,0,0
86233,-100,4,3,1,55,0,0
86748,-66.6666666666667,4,3,1,65,0,0
87090,-200,4,3,1,50,0,0
87262,-66.6666666666667,4,3,1,65,0,0
87605,-200,4,3,1,50,0,0
87776,-83.3333333333333,4,3,1,65,0,0
88119,-66.6666666666667,4,3,1,80,0,1
99090,-100,4,3,1,70,0,0
99176,-100,4,3,1,5,0,0
99262,-100,4,3,1,70,0,0
99519,-100,4,3,1,5,0,0
99605,-100,4,3,1,70,0,0
99862,-100,4,3,1,5,0,0
99948,-100,4,3,1,70,0,0
100205,-100,4,3,1,5,0,0
100290,-100,4,3,1,70,0,0
101919,-100,4,3,1,5,0,0
102005,-100,4,3,1,70,0,0
102262,-100,4,3,1,5,0,0
102348,-100,4,3,1,70,0,0
102605,-100,4,3,1,5,0,0
102690,-100,4,3,1,70,0,0
102948,-100,4,3,1,5,0,0
103033,-100,4,3,1,70,0,0
104662,-100,4,3,1,5,0,0
104748,-100,4,3,1,70,0,0
105005,-100,4,3,1,5,0,0
105090,-100,4,3,1,70,0,0
105348,-100,4,3,1,5,0,0
105433,-100,4,3,1,70,0,0
105690,-100,4,3,1,5,0,0
105776,-100,4,3,1,70,0,0
109548,-100,4,3,1,5,0,0
109890,-100,4,3,1,70,0,0
110062,-66.6666666666667,4,3,1,80,0,1
121033,-100,4,3,1,70,0,0
132005,-100,4,3,1,60,0,0
141776,-100,4,3,1,70,0,0
145719,-100,4,3,1,50,0,0
151205,-100,4,3,1,60,0,0
156690,-76.9230769230769,4,3,1,70,0,1
167662,-125,4,3,1,65,0,0
168948,-125,4,3,1,5,0,0
169033,-125,4,3,1,65,0,0
173833,-116.279069767442,4,3,1,65,0,0
174776,-116.279069767442,4,3,1,5,0,0
174862,-125,4,3,1,65,0,0
175119,-125,4,3,1,5,0,0
175205,-125,4,3,1,65,0,0
176576,-100,4,3,1,65,0,0
177262,-83.3333333333333,4,3,1,65,0,0
177948,-100,4,3,1,65,0,0
178205,-100,4,3,1,5,0,0
178290,-100,4,3,1,65,0,0
178633,-100,4,3,1,70,0,0
178976,-125,4,3,1,70,0,0
179233,-125,4,3,1,5,0,0
179319,-83.3333333333333,4,3,1,70,0,0
180262,-83.3333333333333,4,3,1,5,0,0
180348,-133.333333333333,4,3,1,70,0,0
180605,-133.333333333333,4,3,1,5,0,0
180690,-133.333333333333,4,3,1,70,0,0
181290,-133.333333333333,4,3,1,5,0,0
181376,-83.3333333333333,4,3,1,70,0,0
181976,-83.3333333333333,4,3,1,5,0,0
182062,-83.3333333333333,4,3,1,70,0,0
182319,-83.3333333333333,4,3,1,5,0,0
182405,-83.3333333333333,4,3,1,70,0,0
183005,-83.3333333333333,4,3,1,5,0,0
183090,-100,4,3,1,70,0,0
184033,-100,4,3,1,5,0,0
184119,-100,4,3,1,70,0,0
184462,-125,4,3,1,70,0,0
184719,-125,4,3,1,5,0,0
184805,-83.3333333333333,4,3,1,70,0,0
185748,-83.3333333333333,4,3,1,5,0,0
185833,-133.333333333333,4,3,1,70,0,0
186090,-133.333333333333,4,3,1,5,0,0
186176,-133.333333333333,4,3,1,70,0,0
186776,-133.333333333333,4,3,1,5,0,0
186862,-83.3333333333333,4,3,1,70,0,0
187548,-100,4,3,1,70,0,0
188233,-83.3333333333333,4,3,1,70,0,0
188919,-66.6666666666667,4,3,1,70,0,0
189176,-66.6666666666667,4,3,1,5,0,0
189262,-66.6666666666667,4,3,1,70,0,0
189605,-100,4,3,1,60,0,0
199376,-100,4,3,1,70,0,0

[Colours]
Combo1 : 211,162,107
Combo2 : 109,167,3
Combo3 : 204,186,55
Combo4 : 217,140,70

[HitObjects]
256,304,368,5,0,0:0:0:0:
304,153,710,1,2,0:2:0:0:
207,153,1739,5,0,0:0:0:0:
256,304,2082,1,2,0:2:0:0:
256,304,3110,5,0,0:0:0:0:
207,153,3453,1,2,0:2:0:0:
335,247,3796,1,2,0:2:0:0:
176,247,4139,1,2,0:2:0:0:
304,153,4482,1,2,0:2:0:0:
256,304,4825,5,2,0:2:0:0:
176,247,4996,1,2,0:2:0:0:
335,247,5168,1,2,0:2:0:0:
335,247,5853,5,2,0:2:0:0:
207,153,6196,1,0,0:0:0:0:
176,246,7225,5,2,0:2:0:0:
304,153,7568,1,0,0:0:0:0:
304,153,8596,5,2,0:2:0:0:
207,153,8768,1,2,0:2:0:0:
176,246,8939,1,0,0:0:0:0:
335,247,9282,1,0,0:0:0:0:
207,153,9625,1,0,0:0:0:0:
256,304,9968,5,2,0:2:0:0:
335,247,10139,1,2,0:2:0:0:
304,153,10310,1,2,0:2:0:0:
207,153,10482,1,2,0:2:0:0:
176,246,10653,1,2,0:2:0:0:
335,247,10996,1,2,0:2:0:0:
207,153,11339,6,0,B|103:97|103:209|4:153,1,215.999993408203,2|0,0:2|0:0,0:0:0:0:
56,92,11682,6,0,B|252:-36|252:204|383:127|384:24|340:0|268:0|236:60,1,461.999985900879,2|0,0:2|0:0,0:0:0:0:
207,153,12710,6,0,B|108:97|108:209|4:153,1,215.999993408203,2|0,0:2|0:0,0:0:0:0:
156,216,13053,6,0,B|260:272|260:160|359:216,1,215.999993408203,2|0,0:2|0:0,0:0:0:0:
441,307,13396,6,0,B|472:280|512:280|512:280|407:224|407:336|309:281,1,293.999991027832,0|0,0:0|0:0,0:0:0:0:
244,238,14082,6,0,P|232:282|244:323,1,90,2|0,0:2|0:0,0:0:0:0:
295,176,14425,6,0,P|247:160|193:176,1,107.999996704102,2|0,0:2|0:0,0:0:0:0:
348,232,14768,6,0,P|372:180|348:120,1,125.999996154785,2|0,0:2|0:0,0:0:0:0:
288,280,15110,6,0,P|348:312|410:280,1,144,2|0,0:2|0:0,0:0:0:0:
246,211,15453,6,0,P|210:279|246:349,1,161.999995056153,2|0,0:2|0:0,0:0:0:0:
288,280,15796,5,2,0:2:0:0:
193,119,15968,1,2,0:2:0:0:
102,280,16139,1,2,0:2:0:0:
102,280,16825,6,0,B|-30:268|-30:268|10:244,1,180,2|0,0:2|0:0,0:0:0:0:
102,280,17168,6,0,B|234:292|234:292|194:316,1,180,0|0,0:0|0:0,0:0:0:0:
102,280,17510,6,0,B|122:66|122:66|142:142,1,293.999991027832,2|0,0:2|0:0,0:0:0:0:
44,132,18196,6,0,B|32:264|32:264|8:224,1,180,2|0,0:2|0:0,0:0:0:0:
44,132,18539,6,0,B|56:0|56:0|80:40,1,180,0|0,0:0|0:0,0:0:0:0:
44,132,18882,6,0,B|144:180|144:84|244:132|244:132|192:132|168:160,1,293.999991027832,2|0,0:2|0:0,0:0:0:0:
128,228,19568,6,0,P|169:240|207:228,1,83.9999974365235,2|2,0:2|0:2,0:0:0:0:
412,228,19910,6,0,P|352:240|290:228,1,125.999996154785,0|0,0:0|0:0,0:0:0:0:
276,144,20253,6,0,P|348:172|424:144,1,161.999995056153,2|0,0:2|0:0,0:0:0:0:
402,36,20596,6,0,P|350:104|298:36,1,198.000006042481,2|0,0:2|0:0,0:0:0:0:
298,35,20939,5,2,0:2:0:0:
402,36,21110,1,2,0:2:0:0:
276,144,21282,1,2,0:2:0:0:
425,144,21453,1,2,0:2:0:0:
254,253,21625,1,2,0:2:0:0:
446,250,21968,1,2,0:2:0:0:
446,250,22310,6,0,P|411:328|378:249,1,215.999993408203,2|0,0:2|0:0,0:0:0:0:
412,180,22653,6,0,B|356:144|299:180|299:180|287:108|215:68|131:88|83:164|111:236|155:272|188:264|232:240|216:192,1,528,2|0,0:2|0:0,0:0:0:0:
92,88,23682,6,0,P|52:180|92:283,1,215.999993408203,2|0,0:2|0:0,0:0:0:0:
0,292,24025,6,0,P|-28:196|0:87,1,215.999993408203,2|0,0:2|0:0,0:0:0:0:
92,88,24368,6,0,B|39:139|39:231|92:283|92:283|148:232|128:177,1,336,2|0,0:2|0:0,0:0:0:0:
92,88,25053,6,0,L|3:96,1,90,2|0,0:2|0:0,0:0:0:0:
200,79,25396,6,0,L|93:88,1,107.999996704102,2|0,0:2|0:0,0:0:0:0:
326,69,25739,6,0,L|201:79,1,125.999996154785,2|0,0:2|0:0,0:0:0:0:
470,58,26082,6,0,L|327:69,1,144,2|0,0:2|0:0,0:0:0:0:
470,196,26425,6,0,P|506:128|470:58,1,161.999995056153,2|0,0:2|0:0,0:0:0:0:
428,127,26768,5,2,0:2:0:0:
512,265,26939,1,2,0:2:0:0:
428,127,27110,1,2,0:2:0:0:
428,127,27796,6,0,B|296:139|296:139|336:163,1,180,2|0,0:2|0:0,0:0:0:0:
420,52,28139,6,0,B|253:68|253:68|288:36,1,215.999993408203,0|0,0:0|0:0,0:0:0:0:
428,127,28482,6,0,B|143:152|143:152|186:177,1,336,2|0,0:2|0:0,0:0:0:0:
108,79,29168,6,0,P|64:151|108:225,1,180,2|0,0:2|0:0,0:0:0:0:
180,42,29510,6,0,P|108:-2|34:42,1,180,0|0,0:0|0:0,0:0:0:0:
244,90,29853,6,0,B|276:42|244:-6|244:-6|308:82|356:110|400:82|420:42|400:2|356:-18|300:26,1,420,2|0,0:2|0:0,0:0:0:0:
306,140,30539,6,0,P|351:151|398:140,1,96,2|2,0:2|0:2,0:0:0:0:
180,42,30882,6,0,B|115:10|115:74|43:42,1,144,2|0,0:2|0:0,0:0:0:0:
43,128,31225,6,0,B|112:96|112:160|180:128|180:128|160:164|180:197,1,215.999993408203,2|0,0:2|0:0,0:0:0:0:
248,164,31568,6,0,B|268:124|248:88|248:88|300:100|336:48|308:0|272:-8|247:4,1,251.999992309571,2|0,0:2|0:0,0:0:0:0:
180,128,31910,5,2,0:2:0:0:
384,68,32082,1,2,0:2:0:0:
180,4,32253,1,2,0:2:0:0:
384,68,32425,1,2,0:2:0:0:
180,128,32596,1,2,0:2:0:0:
180,128,32939,2,0,P|142:117|180:111,1,107.999996704102,2|0,0:2|0:0,0:0:0:0:
212,196,33282,6,0,P|160:212|111:196,1,107.999996704102,2|0,0:2|0:0,0:0:0:0:
276,144,33625,2,0,P|292:196|276:245,1,107.999996704102,0|0,0:0|0:0,0:0:0:0:
224,80,33968,2,0,P|276:64|325:80,1,107.999996704102,2|0,0:2|0:0,0:0:0:0:
160,132,34310,2,0,P|144:80|160:31,1,107.999996704102,0|0,0:0|0:0,0:0:0:0:
212,196,34653,6,0,B|160:216|160:216|112:196,1,107.999996704102,2|0,0:2|0:0,0:0:0:0:
212,272,34996,2,0,B|160:292|160:292|112:272,1,107.999996704102,0|0,0:0|0:0,0:0:0:0:
288,272,35339,2,0,B|340:252|340:252|388:272,1,107.999996704102,2|0,0:2|0:0,0:0:0:0:
288,196,35682,2,0,B|340:176|340:176|388:196,1,107.999996704102,0|0,0:0|0:0,0:0:0:0:
212,272,36025,6,0,L|204:164,1,107.999996704102,2|0,0:2|0:0,0:0:0:0:
380,88,36368,2,0,L|388:196,1,107.999996704102,0|0,0:0|0:0,0:0:0:0:
196,276,36710,2,0,L|188:168,1,107.999996704102,2|0,0:2|0:0,0:0:0:0:
396,84,37053,2,0,L|404:192,1,107.999996704102,0|0,0:0|0:0,0:0:0:0:
180,96,37396,6,0,B|92:104|92:104|110:111,1,107.999996704102,2|0,0:2|0:0,0:0:0:0:
396,84,37739,2,0,B|484:76|484:76|466:69,1,107.999996704102,0|0,0:0|0:0,0:0:0:0:
182,112,38082,2,0,B|94:120|94:120|112:127,1,107.999996704102,2|0,0:2|0:0,0:0:0:0:
394,68,38425,2,0,B|482:60|482:60|464:53,1,107.999996704102,0|0,0:0|0:0,0:0:0:0:
319,274,38748,6,0,L|288:97,1,180,4|0,0:2|0:0,0:0:0:0:
272,20,39090,1,2,0:2:0:0:
182,112,39262,1,2,0:2:0:0:
394,68,39433,1,8,0:2:0:0:
394,68,39776,2,0,P|424:68|396:92,1,90.0000034332277,2|0,0:2|0:0,0:0:0:0:
480,0,40119,6,0,P|520:76|480:156,1,180,6|0,0:0|0:0,0:0:0:0:
482,155,40462,1,2,0:2:0:0:
313,76,40633,1,2,0:2:0:0:
480,0,40805,1,8,0:2:0:0:
480,0,41148,2,0,B|496:42|496:42|480:84,1,90.0000034332277,2|0,0:2|0:0,0:0:0:0:
313,0,41490,6,0,B|257:16|257:16|201:-16|201:-16|147:0,1,180,6|0,0:0|0:0,0:0:0:0:
74,24,41833,1,2,0:2:0:0:
130,74,42005,1,2,0:2:0:0:
313,0,42176,2,0,B|367:-16|367:-16|423:16|423:16|479:0,1,180,8|0,0:2|0:0,0:0:0:0:
480,0,42519,2,0,P|494:41|480:83,1,90.0000034332277,2|0,0:2|0:0,0:0:0:0:
312,248,42862,6,0,B|228:288|228:208|140:248,1,180,6|0,0:0|0:0,0:0:0:0:
140,248,43205,1,2,0:2:0:0:
184,316,43376,1,2,0:2:0:0:
269,152,43548,1,8,0:2:0:0:
269,152,43890,1,4,0:0:0:0:
269,248,44062,1,4,0:0:0:0:
192,96,44233,6,0,P|268:56|345:96,1,180,6|0,0:0|0:0,0:0:0:0:
269,152,44576,1,2,0:2:0:0:
192,96,44748,1,2,0:2:0:0:
345,96,44919,1,8,0:2:0:0:
345,96,45262,2,0,L|433:80,1,90.0000034332277,2|0,0:2|0:0,0:0:0:0:
456,248,45605,6,0,L|279:279,1,180,6|0,0:0|0:0,0:0:0:0:
202,295,45948,1,2,0:2:0:0:
300,385,46119,1,2,0:2:0:0:
256,173,46290,2,0,L|79:204,1,180,8|0,0:2|0:0,0:0:0:0:
67,128,46633,2,0,L|244:97,1,180,2|0,0:2|0:0,0:0:0:0:
321,86,46976,5,6,0:0:0:0:
256,173,47148,1,2,0:2:0:0:
244,97,47319,1,2,0:2:0:0:
332,162,47490,1,2,0:2:0:0:
321,86,47662,2,0,B|305:-20|305:-20|277:26,1,161.999995056153,8|0,0:2|0:0,0:0:0:0:
244,97,48005,2,0,L|156:113,1,90.0000034332277,0|0,0:0|0:0,0:0:0:0:
343,238,48348,5,6,0:0:0:0:
321,86,48519,1,4,0:0:0:0:
267,249,48690,1,4,0:0:0:0:
244,97,48862,1,4,0:0:0:0:
191,260,49033,2,0,L|210:390,1,132.00000402832,8|0,0:2|0:0,0:0:0:0:
169,108,49376,2,0,L|150:-22,1,132.00000402832,4|0,0:3|0:0,0:0:0:0:
343,238,49719,6,0,B|397:222|397:222|453:254|453:254|509:238,1,180,4|0,0:2|0:0,0:0:0:0:
510,238,50062,1,2,0:2:0:0:
463,168,50233,1,2,0:2:0:0:
387,308,50405,2,0,B|333:324|333:324|277:292|277:292|221:308,1,180,8|0,0:2|0:0,0:0:0:0:
220,308,50748,2,0,P|206:267|220:225,1,90.0000034332277,2|0,0:2|0:0,0:0:0:0:
387,96,51090,6,0,B|333:80|333:80|277:112|277:112|221:96,1,180,6|0,0:0|0:0,0:0:0:0:
220,96,51433,1,2,0:2:0:0:
267,26,51605,1,2,0:2:0:0:
343,166,51776,2,0,B|397:182|397:182|453:150|453:150|509:166,1,180,8|0,0:2|0:0,0:0:0:0:
510,166,52119,2,0,L|526:78,1,90.0000034332277,2|0,0:2|0:0,0:0:0:0:
343,166,52462,6,0,L|312:343,1,180,6|0,0:0|0:0,0:0:0:0:
312,343,52805,1,2,0:2:0:0:
229,239,52976,1,2,0:2:0:0:
435,186,53148,2,0,L|404:363,1,180,8|0,0:2|0:0,0:0:0:0:
404,363,53490,2,0,L|316:347,1,90.0000034332277,2|0,0:2|0:0,0:0:0:0:
52,208,53833,6,0,L|229:239,1,180,6|0,0:0|0:0,0:0:0:0:
229,239,54176,1,2,0:2:0:0:
126,307,54348,1,2,0:2:0:0:
65,119,54519,2,0,L|242:150,1,180,8|0,0:2|0:0,0:0:0:0:
242,150,54862,1,4,0:0:0:0:
52,208,55033,1,4,0:0:0:0:
245,154,55205,6,0,P|285:78|245:1,1,180,6|0,0:0|0:0,0:0:0:0:
189,77,55548,1,2,0:2:0:0:
245,1,55719,1,2,0:2:0:0:
133,153,55890,2,0,P|92:76|132:-1,1,180,8|0,0:2|0:0,0:0:0:0:
189,77,56233,2,0,L|276:53,1,90.0000034332277,2|0,0:2|0:0,0:0:0:0:
385,187,56576,6,0,B|331:203|331:203|275:171|275:171|219:187,1,180,6|0,0:0|0:0,0:0:0:0:
218,187,56919,1,2,0:2:0:0:
265,255,57090,1,2,0:2:0:0:
341,117,57262,2,0,B|395:101|395:101|451:133|451:133|507:117,1,180,8|0,0:2|0:0,0:0:0:0:
508,117,57605,2,0,P|522:76|508:34,1,90.0000034332277,2|0,0:2|0:0,0:0:0:0:
341,117,57948,5,6,0:0:0:0:
508,117,58119,1,2,0:2:0:0:
341,33,58290,1,2,0:2:0:0:
508,33,58462,1,2,0:2:0:0:
424,200,58633,2,0,B|380:284|468:284|424:380|424:380|324:296|214:380,1,420,8|0,0:2|0:0,0:0:0:0:
213,380,59319,5,6,0:0:0:0:
216,200,59490,1,4,0:0:0:0:
424,380,59662,1,4,0:0:0:0:
424,200,59833,1,4,0:0:0:0:
216,383,60005,2,0,L|98:367,1,120,8|0,0:2|0:0,0:0:0:0:
320,200,60348,2,0,B|304:254|304:254|336:310|336:310|320:366,1,180,4|0,0:0|0:0,0:0:0:0:
319,366,60690,5,4,0:2:0:0:
252,324,60862,1,2,0:2:0:0:
388,244,61033,1,2,0:2:0:0:
388,244,61376,2,0,B|472:296|544:244|560:176|552:120|492:104|448:124|444:169,1,336,2|0,0:2|0:0,0:0:0:0:
443,169,62062,5,10,0:2:0:0:
400,332,62233,1,8,0:3:0:0:
400,332,62319,1,8,0:3:0:0:
400,332,62405,2,0,P|447:342|493:332,1,96,8|4,0:3|0:3,0:0:0:0:
446,172,62748,1,4,0:3:0:0:
400,332,62919,1,4,0:3:0:0:
446,172,63090,1,4,0:3:0:0:
446,155,63176,1,4,0:3:0:0:
446,139,63262,1,4,0:3:0:0:
400,332,63433,6,0,B|352:400|224:400|176:332|176:332|232:372|298:353,2,384,4|2|2,0:2|0:2|0:2,0:0:0:0:
400,332,65148,2,0,L|392:285,2,48,2|2|2,0:2|0:2|0:2,0:0:0:0:
376,200,65490,5,8,0:3:0:0:
360,204,65576,1,8,0:3:0:0:
344,208,65662,1,8,0:3:0:0:
328,212,65748,1,8,0:3:0:0:
276,260,65833,5,4,0:3:0:0:
260,264,65919,1,4,0:3:0:0:
244,268,66005,1,4,0:3:0:0:
228,272,66090,1,4,0:3:0:0:
176,320,66176,5,4,0:2:0:0:
161,247,66348,1,2,0:2:0:0:
228,272,66519,1,2,0:2:0:0:
228,272,66862,6,0,B|319:215|408:272|408:272|460:284|460:368|408:392|356:368|356:284|408:272|408:272|464:208|408:145,1,567.600008660889,2|0,0:2|0:0,0:0:0:0:
408,145,67890,2,0,P|380:85|408:17,1,144,2|0,0:2|0:0,0:0:0:0:
408,16,68233,1,4,0:2:0:0:
511,197,68405,1,2,0:2:0:0:
312,197,68576,1,2,0:2:0:0:
312,197,68919,6,0,B|224:136|120:197|120:197|160:181|201:197,1,288,4|4,0:2|0:3,0:0:0:0:
201,197,69519,1,4,0:3:0:0:
201,197,69605,2,0,B|261:281|201:361|201:361|213:333|201:301,1,240,8|4,0:2|0:3,0:0:0:0:
60,120,70290,6,0,B|160:40|256:116|256:116|360:40|453:120,1,431.999986816407,4|4,0:2|0:3,0:0:0:0:
453,120,70890,1,4,0:3:0:0:
453,120,70976,2,0,P|482:205|453:286,1,180,8|0,0:2|0:0,0:0:0:0:
408,340,71319,5,4,0:3:0:0:
392,336,71405,1,4,0:3:0:0:
376,332,71490,1,4,0:3:0:0:
360,328,71576,1,4,0:3:0:0:
293,311,71662,5,4,0:2:0:0:
475,357,71833,1,4,0:3:0:0:
293,311,72005,2,0,B|249:299|249:299|201:323|201:323|158:311,1,144,4|0,0:3|0:0,0:0:0:0:
104,378,72348,6,0,B|24:282|104:178|104:178|152:78|288:114|288:242|152:278|104:178|104:178|24:74|104:-18,1,791.999975830079,8|0,0:2|0:0,0:0:0:0:
4,12,73376,2,0,P|-9:72|4:143,1,135.000005149841,4|0,0:3|0:0,0:0:0:0:
4,143,73719,1,8,0:2:0:0:
256,76,73890,1,4,0:3:0:0:
4,12,74062,2,0,P|-9:72|4:143,1,135.000005149841,4|0,0:3|0:0,0:0:0:0:
4,143,74405,6,0,B|63:134|63:134|135:193|135:193|194:184|194:184|207:150|207:150|186:117|186:117|126:125|126:125|72:200|72:200|9:210,1,503.999984619141,4|0,0:3|0:0,0:0:0:0:
10,210,75090,2,0,B|-34:282|10:354|10:354|-2:322|10:293,1,215.999993408203,8|0,0:2|0:0,0:0:0:0:
10,292,75433,1,4,0:3:0:0:
228,210,75605,1,4,0:3:0:0:
228,210,75776,6,0,B|272:282|228:354|228:354|240:322|228:293,1,215.999993408203,4|0,0:3|0:0,0:0:0:0:
120,210,76119,2,0,L|120:151,1,60,2|2,0:2|0:2,0:0:0:0:
120,293,76290,1,4,0:3:0:0:
48,80,76462,2,0,B|188:0|188:160|328:80|328:80|260:92|220:42,1,420,8|0,0:2|0:0,0:0:0:0:
219,41,77148,5,4,0:2:0:0:
48,80,77319,1,4,0:3:0:0:
219,41,77490,2,0,B|262:29|262:29|310:53|310:53|354:41,1,144,4|0,0:3|0:0,0:0:0:0:
437,2,77833,6,0,B|464:41|436:89|436:89|520:161|492:289|460:337|368:361|272:360|236:321|216:193|248:173|284:145|332:109|388:125|412:149|412:197|396:225|355:231,1,791.999975830079,8|0,0:2|0:0,0:0:0:0:
211,295,78862,2,0,P|198:235|211:164,1,135.000005149841,4|0,0:3|0:0,0:0:0:0:
212,164,79205,1,8,0:2:0:0:
356,231,79376,1,4,0:3:0:0:
211,295,79548,2,0,P|198:235|211:164,1,135.000005149841,4|0,0:3|0:0,0:0:0:0:
248,64,79890,6,0,B|272:8|340:8|384:32|384:116|296:148|248:116|248:-8|77:64,1,431.999986816407,4|4,0:2|0:3,0:0:0:0:
77,64,80490,1,4,0:3:0:0:
77,64,80576,2,0,B|17:148|77:228|77:228|65:200|77:168,1,240,8|4,0:2|0:3,0:0:0:0:
387,80,81262,6,0,B|431:44|487:56|487:56|391:24|391:24|287:88|287:88|191:56,1,431.999986816407,4|4,0:2|0:3,0:0:0:0:
190,55,81862,1,4,0:3:0:0:
190,55,81948,2,0,B|146:79|102:55|102:55|126:95|102:139|102:139|62:115|17:139,1,270.000010299683,8|0,0:2|0:0,0:0:0:0:
13,156,82290,5,4,0:3:0:0:
9,172,82376,1,4,0:3:0:0:
9,188,82462,1,4,0:3:0:0:
13,208,82548,1,4,0:3:0:0:
20,224,82633,5,4,0:2:0:0:
20,224,82805,1,2,0:2:0:0:
172,224,82976,1,4,0:3:0:0:
172,224,83148,1,2,0:2:0:0:
20,302,83319,5,4,0:3:0:0:
176,300,83490,1,2,0:2:0:0:
20,376,83662,5,4,0:3:0:0:
176,376,83833,1,0,0:0:0:0:
20,224,84005,5,4,0:3:0:0:
20,224,84176,1,2,0:2:0:0:
20,376,84348,1,4,0:3:0:0:
20,376,84519,1,2,0:2:0:0:
96,224,84690,5,4,0:3:0:0:
96,376,84862,1,2,0:2:0:0:
172,224,85033,5,4,0:3:0:0:
176,376,85205,1,0,0:0:0:0:
20,224,85376,5,4,0:3:0:0:
20,224,85548,1,2,0:2:0:0:
172,224,85719,1,4,0:3:0:0:
172,224,85890,1,2,0:2:0:0:
20,302,86062,5,4,0:3:0:0:
176,300,86233,1,8,0:2:0:0:
196,300,86319,1,8,0:2:0:0:
216,300,86405,1,8,0:2:0:0:
240,300,86490,1,8,0:2:0:0:
272,300,86576,1,8,0:2:0:0:
308,300,86662,1,8,0:2:0:0:
356,300,86748,6,0,B|424:220|356:124|356:124|372:160|356:199,1,270.000010299683,4|0,0:2|0:0,0:0:0:0:
286,160,87090,6,0,L|257:164,1,30,8|0,0:2|0:0,0:0:0:0:
427,337,87262,6,0,P|472:213|427:89,1,270.000010299683,4|0,0:3|0:0,0:0:0:0:
286,160,87605,6,0,L|257:164,1,30,4|4,0:3|0:3,0:0:0:0:
188,250,87776,5,8,0:2:0:0:
156,214,87862,1,8,0:2:0:0:
144,166,87948,1,8,0:2:0:0:
156,118,88033,1,8,0:2:0:0:
188,78,88119,6,0,L|277:66,1,90.0000034332277,4|0,0:3|1:0,0:0:0:0:
375,148,88290,2,0,L|286:160,1,90.0000034332277,8|0,0:2|1:0,0:0:0:0:
367,58,88462,2,0,L|456:46,1,90.0000034332277,4|0,0:3|1:0,0:0:0:0:
384,224,88633,2,0,L|295:236,1,90.0000034332277,8|0,0:2|1:0,0:0:0:0:
444,176,88805,5,4,0:3:0:0:
454,254,88890,1,0,1:0:0:0:
384,224,88976,1,8,0:2:0:0:
375,148,89062,1,0,1:0:0:0:
437,103,89148,1,4,0:3:0:0:
506,134,89233,1,0,1:0:0:0:
512,209,89319,1,8,0:2:0:0:
454,254,89405,1,0,1:0:0:0:
384,224,89490,6,0,L|295:236,1,90.0000034332277,4|0,0:3|1:0,0:0:0:0:
286,160,89662,2,0,L|375:148,1,90.0000034332277,8|0,0:2|1:0,0:0:0:0:
393,300,89833,2,0,L|304:312,1,90.0000034332277,4|0,0:3|1:0,0:0:0:0:
278,85,90005,2,0,L|367:73,1,90.0000034332277,8|0,0:2|1:0,0:0:0:0:
216,127,90176,5,4,0:3:0:0:
209,54,90262,1,0,1:0:0:0:
278,85,90348,1,8,0:2:0:0:
286,160,90433,1,0,1:0:0:0:
226,205,90519,1,4,0:3:0:0:
156,175,90605,1,0,1:0:0:0:
147,99,90690,1,8,0:2:0:0:
209,54,90776,1,0,1:0:0:0:
278,85,90862,6,0,L|367:73,1,90.0000034332277,4|0,0:3|1:0,0:0:0:0:
147,99,91033,2,0,L|58:111,1,90.0000034332277,8|0,0:2|1:0,0:0:0:0:
286,160,91205,2,0,L|375:148,1,90.0000034332277,4|0,0:3|1:0,0:0:0:0:
156,175,91376,2,0,L|67:187,1,90.0000034332277,8|0,0:2|1:0,0:0:0:0:
165,251,91548,5,4,0:3:0:0:
165,251,91633,1,0,1:0:0:0:
165,251,91719,2,0,L|76:263,1,90.0000034332277,8|0,0:2|1:0,0:0:0:0:
294,235,91890,1,4,0:3:0:0:
294,235,91976,1,0,1:0:0:0:
294,235,92062,2,0,L|383:223,1,90.0000034332277,8|0,0:2|1:0,0:0:0:0:
177,340,92233,6,0,L|165:251,1,90.0000034332277,4|0,0:3|1:0,0:0:0:0:
294,235,92405,2,0,L|306:324,1,90.0000034332277,8|0,0:2|1:0,0:0:0:0:
165,251,92576,2,0,L|153:162,1,90.0000034332277,4|0,0:3|1:0,0:0:0:0:
282,146,92748,2,0,L|294:235,1,90.0000034332277,8|0,0:2|1:0,0:0:0:0:
153,162,92919,2,0,L|141:73,1,90.0000034332277,4|0,0:3|1:0,0:0:0:0:
270,57,93090,2,0,L|282:146,1,90.0000034332277,8|0,0:2|1:0,0:0:0:0:
294,235,93262,5,8,0:2:0:0:
236,296,93348,1,8,0:2:0:0:
165,251,93433,1,8,0:2:0:0:
107,312,93519,1,8,0:2:0:0:
36,267,93605,6,0,P|24:224|36:182,1,90.0000034332277,4|0,0:3|1:0,0:0:0:0:
236,296,93776,2,0,P|248:339|236:381,1,90.0000034332277,8|0,0:2|1:0,0:0:0:0:
24,264,93948,2,0,P|12:221|24:179,1,90.0000034332277,4|0,0:3|1:0,0:0:0:0:
248,299,94119,2,0,P|260:342|248:384,1,90.0000034332277,8|0,0:2|1:0,0:0:0:0:
165,251,94290,5,4,0:3:0:0:
165,251,94376,1,0,1:0:0:0:
165,251,94462,1,8,0:2:0:0:
212,196,94548,1,0,1:0:0:0:
284,196,94633,1,4,0:3:0:0:
332,252,94719,1,0,1:0:0:0:
379,307,94805,1,8,0:2:0:0:
451,307,94890,1,0,1:0:0:0:
499,251,94976,6,0,P|511:208|499:166,1,90.0000034332277,4|0,0:3|1:0,0:0:0:0:
260,296,95148,2,0,P|248:339|260:381,1,90.0000034332277,8|0,0:2|1:0,0:0:0:0:
511,248,95319,2,0,P|523:205|511:163,1,90.0000034332277,4|0,0:3|1:0,0:0:0:0:
248,299,95490,2,0,P|236:342|248:384,1,90.0000034332277,8|0,0:2|1:0,0:0:0:0:
339,259,95662,5,4,0:3:0:0:
339,259,95748,1,0,1:0:0:0:
339,259,95833,1,8,0:2:0:0:
285,196,95919,1,0,1:0:0:0:
213,196,96005,1,4,0:3:0:0:
165,252,96090,1,0,1:0:0:0:
118,307,96176,1,8,0:2:0:0:
46,307,96262,1,0,1:0:0:0:
0,252,96348,6,0,P|-12:209|0:167,1,90.0000034332277,4|0,0:3|1:0,0:0:0:0:
165,166,96519,2,0,P|177:209|165:251,1,90.0000034332277,8|0,0:2|1:0,0:0:0:0:
0,166,96690,2,0,P|-12:123|0:81,1,90.0000034332277,4|0,0:3|1:0,0:0:0:0:
163,81,96862,2,0,P|177:124|165:166,1,90.0000034332277,8|0,0:2|1:0,0:0:0:0:
0,80,97033,5,4,0:3:0:0:
0,80,97119,1,0,1:0:0:0:
0,80,97205,2,0,L|89:68,1,90.0000034332277,8|0,0:2|1:0,0:0:0:0:
254,154,97376,1,4,0:3:0:0:
254,154,97462,1,0,1:0:0:0:
254,154,97548,2,0,L|165:166,1,90.0000034332277,8|0,0:2|1:0,0:0:0:0:
336,112,97719,6,0,P|348:155|336:197,1,90.0000034332277,4|0,0:3|1:0,0:0:0:0:
163,81,97890,2,0,P|151:38|163:-4,1,90.0000034332277,8|0,0:2|1:0,0:0:0:0:
348,115,98062,2,0,P|360:158|348:200,1,90.0000034332277,4|0,0:3|1:0,0:0:0:0:
151,78,98233,2,0,P|139:35|151:-7,1,90.0000034332277,8|0,0:2|1:0,0:0:0:0:
360,118,98405,2,0,P|372:161|360:203,1,90.0000034332277,4|0,0:3|1:0,0:0:0:0:
139,75,98576,2,0,P|127:32|139:-10,1,90.0000034332277,8|0,0:2|1:0,0:0:0:0:
372,121,98748,5,8,0:2:0:0:
434,166,98833,1,8,0:2:0:0:
494,121,98919,1,8,0:2:0:0:
471,49,99005,1,8,0:2:0:0:
396,50,99090,6,0,P|366:44|338:50,1,60,4|0,0:3|0:0,0:0:0:0:
228,192,99262,1,8,0:2:0:0:
228,192,99433,6,0,P|258:198|286:192,1,60,4|0,0:3|0:0,0:0:0:0:
176,49,99605,1,8,0:2:0:0:
176,49,99776,6,0,P|147:42|118:49,1,60,4|0,0:3|0:0,0:0:0:0:
224,188,99948,1,8,0:2:0:0:
228,193,100119,6,0,P|257:199|286:192,1,60,4|0,0:3|0:0,0:0:0:0:
396,50,100290,1,8,0:2:0:0:
396,50,100462,5,4,0:3:0:0:
172,120,100633,1,8,0:2:0:0:
342,120,100805,1,4,0:3:0:0:
118,49,100976,1,8,0:2:0:0:
256,288,101148,6,0,B|278:230|234:230|256:172,1,120,4|8,0:3|0:2,0:0:0:0:
199,347,101490,2,0,P|254:368|309:348,1,120,4|8,0:3|0:2,0:0:0:0:
256,36,101833,6,0,L|256:96,1,60,4|0,0:3|0:0,0:0:0:0:
256,288,102005,1,8,0:2:0:0:
256,288,102176,6,0,L|256:228,1,60,4|0,0:3|0:0,0:0:0:0:
0,36,102348,1,8,0:2:0:0:
0,36,102519,6,0,L|0:96,1,60,4|0,0:3|0:0,0:0:0:0:
0,288,102690,1,8,0:2:0:0:
0,288,102862,6,0,L|0:228,1,60,4|0,0:3|0:0,0:0:0:0:
256,36,103033,1,8,0:2:0:0:
256,36,103205,5,4,0:3:0:0:
128,253,103376,1,8,0:2:0:0:
0,36,103548,1,4,0:3:0:0:
192,144,103719,1,8,0:2:0:0:
64,144,103890,1,4,0:3:0:0:
256,36,104062,1,8,0:2:0:0:
128,253,104233,5,8,0:2:0:0:
128,217,104319,1,8,0:2:0:0:
128,181,104405,1,8,0:2:0:0:
128,144,104490,1,8,0:2:0:0:
128,108,104576,6,0,L|128:49,1,60,4|0,0:3|0:0,0:0:0:0:
384,108,104748,1,8,0:2:0:0:
384,108,104919,6,0,L|384:167,1,60,4|0,0:3|0:0,0:0:0:0:
204,108,105090,1,8,0:2:0:0:
204,108,105262,6,0,L|204:49,1,60,4|0,0:3|0:0,0:0:0:0:
460,108,105433,1,8,0:2:0:0:
460,108,105605,6,0,L|460:167,1,60,4|0,0:3|0:0,0:0:0:0:
280,108,105776,1,8,0:2:0:0:
280,108,105948,5,4,0:3:0:0:
512,282,106119,1,8,0:2:0:0:
222,282,106290,1,4,0:3:0:0:
460,108,106462,1,8,0:2:0:0:
372,391,106633,6,0,B|394:333|350:333|372:275,1,120,4|8,0:3|0:2,0:0:0:0:
372,0,106976,2,0,B|394:50|350:50|372:108,1,120,4|8,0:3|0:2,0:0:0:0:
240,324,107319,5,4,0:3:0:0:
240,60,107490,1,8,0:2:0:0:
371,192,107662,1,4,0:3:0:0:
108,192,107833,1,8,0:2:0:0:
371,192,108005,2,0,L|490:192,1,120,4|8,0:3|0:2,0:0:0:0:
108,192,108348,1,8,0:2:0:0:
84,192,108433,1,8,0:2:0:0:
60,192,108519,1,8,0:3:0:0:
36,192,108605,1,4,0:3:0:0:
12,192,108690,5,4,0:2:0:0:
240,60,108862,1,8,0:2:0:0:
240,36,108948,1,8,0:2:0:0:
240,12,109033,1,8,0:2:0:0:
240,324,109205,1,4,0:3:0:0:
371,192,109376,2,0,L|491:192,1,120,4|0,0:2|0:0,0:0:0:0:
240,60,109890,1,8,0:2:0:0:
240,60,110062,6,0,P|228:103|240:145,1,90.0000034332277,4|0,0:3|1:0,0:0:0:0:
388,0,110233,2,0,P|345:-12|303:0,1,90.0000034332277,8|0,0:2|1:0,0:0:0:0:
451,145,110405,2,0,P|463:102|451:60,1,90.0000034332277,4|0,0:3|1:0,0:0:0:0:
303,208,110576,2,0,P|346:220|388:208,1,90.0000034332277,8|0,0:2|1:0,0:0:0:0:
240,60,110748,5,4,0:3:0:0:
165,15,110833,1,0,1:0:0:0:
91,60,110919,1,8,0:2:0:0:
91,144,111005,1,0,1:0:0:0:
166,188,111090,1,4,0:3:0:0:
240,145,111176,1,0,1:0:0:0:
240,60,111262,1,8,0:2:0:0:
165,15,111348,1,0,1:0:0:0:
91,60,111433,6,0,P|48:72|6:60,1,90.0000034332277,4|0,0:3|1:0,0:0:0:0:
240,60,111605,2,0,P|283:72|325:60,1,90.0000034332277,8|0,0:2|1:0,0:0:0:0:
91,144,111776,2,0,P|48:157|5:144,1,90.0000034332277,4|0,0:3|1:0,0:0:0:0:
240,145,111948,2,0,P|283:158|326:145,1,90.0000034332277,8|0,0:2|1:0,0:0:0:0:
92,233,112119,5,4,0:3:0:0:
92,318,112205,1,0,1:0:0:0:
167,361,112290,1,8,0:2:0:0:
241,318,112376,1,0,1:0:0:0:
241,233,112462,1,4,0:3:0:0:
166,188,112548,1,0,1:0:0:0:
92,233,112633,1,8,0:2:0:0:
167,274,112719,1,0,1:0:0:0:
241,233,112805,6,0,B|285:219|285:219|326:233,1,90.0000034332277,4|0,0:3|1:0,0:0:0:0:
92,318,112976,2,0,B|48:332|48:332|7:318,1,90.0000034332277,8|0,0:2|1:0,0:0:0:0:
241,318,113148,2,0,B|285:332|285:332|326:318,1,90.0000034332277,4|0,0:3|1:0,0:0:0:0:
92,233,113319,2,0,B|48:219|48:219|7:233,1,90.0000034332277,8|0,0:2|1:0,0:0:0:0:
241,318,113490,5,4,0:3:0:0:
241,318,113576,1,0,1:0:0:0:
241,318,113662,2,0,B|255:274|255:274|241:233,1,90.0000034332277,8|0,0:2|1:0,0:0:0:0:
92,233,113833,1,4,0:3:0:0:
92,233,113919,1,0,1:0:0:0:
92,233,114005,2,0,B|78:277|78:277|92:318,1,90.0000034332277,8|0,0:2|1:0,0:0:0:0:
240,145,114176,6,0,L|252:56,1,90.0000034332277,4|0,0:3|1:0,0:0:0:0:
79,55,114348,2,0,L|91:144,1,90.0000034332277,8|0,0:2|1:0,0:0:0:0:
254,145,114519,2,0,L|266:56,1,90.0000034332277,4|0,0:3|1:0,0:0:0:0:
65,55,114690,2,0,L|77:144,1,90.0000034332277,8|0,0:2|1:0,0:0:0:0:
268,145,114862,2,0,L|280:56,1,90.0000034332277,4|0,0:3|1:0,0:0:0:0:
51,55,115033,2,0,L|63:144,1,90.0000034332277,8|0,0:2|1:0,0:0:0:0:
282,145,115205,5,8,0:2:0:0:
370,145,115290,1,8,0:2:0:0:
399,231,115376,1,8,0:2:0:0:
324,284,115462,1,8,0:2:0:0:
248,231,115548,6,0,P|205:219|163:231,1,90.0000034332277,4|0,0:3|1:0,0:0:0:0:
4,332,115719,2,0,P|47:344|89:332,1,90.0000034332277,8|0,0:2|1:0,0:0:0:0:
248,220,115890,2,0,P|205:208|163:220,1,90.0000034332277,4|0,0:3|1:0,0:0:0:0:
4,343,116062,2,0,P|47:355|89:343,1,90.0000034332277,8|0,0:2|1:0,0:0:0:0:
248,209,116233,5,4,0:3:0:0:
282,126,116319,1,0,1:0:0:0:
366,91,116405,1,8,0:2:0:0:
449,126,116490,1,0,1:0:0:0:
483,209,116576,1,4,0:3:0:0:
449,292,116662,1,0,1:0:0:0:
366,327,116748,1,8,0:2:0:0:
282,292,116833,1,0,1:0:0:0:
248,209,116919,6,0,B|204:195|204:195|163:209,1,90.0000034332277,4|0,0:3|1:0,0:0:0:0:
4,354,117090,2,0,B|48:368|48:368|89:354,1,90.0000034332277,8|0,0:2|1:0,0:0:0:0:
248,198,117262,2,0,B|204:184|204:184|163:198,1,90.0000034332277,4|0,0:3|1:0,0:0:0:0:
4,365,117433,2,0,B|48:379|48:379|89:365,1,90.0000034332277,8|0,0:2|1:0,0:0:0:0:
248,187,117605,5,4,0:3:0:0:
282,103,117690,1,0,1:0:0:0:
367,67,117776,1,8,0:2:0:0:
451,103,117862,1,0,1:0:0:0:
485,187,117948,1,4,0:3:0:0:
451,270,118033,1,0,1:0:0:0:
367,306,118119,1,8,0:2:0:0:
282,270,118205,1,0,1:0:0:0:
248,187,118290,6,0,L|159:175,1,90.0000034332277,4|0,0:3|1:0,0:0:0:0:
136,328,118462,2,0,L|225:340,1,90.0000034332277,8|0,0:2|1:0,0:0:0:0:
260,110,118633,2,0,L|171:98,1,90.0000034332277,4|0,0:3|1:0,0:0:0:0:
148,251,118805,2,0,L|237:263,1,90.0000034332277,8|0,0:2|1:0,0:0:0:0:
272,33,118976,5,4,0:3:0:0:
272,33,119062,1,0,1:0:0:0:
272,33,119148,2,0,L|183:21,1,90.0000034332277,8|0,0:2|1:0,0:0:0:0:
160,174,119319,1,4,0:3:0:0:
160,174,119405,1,0,1:0:0:0:
160,174,119490,2,0,L|249:186,1,90.0000034332277,8|0,0:2|1:0,0:0:0:0:
419,228,119662,6,0,P|431:185|419:143,1,90.0000034332277,4|0,0:3|1:0,0:0:0:0:
376,312,119833,2,0,P|419:324|461:312,1,90.0000034332277,8|0,0:2|1:0,0:0:0:0:
293,268,120005,2,0,P|281:311|293:353,1,90.0000034332277,4|0,0:3|1:0,0:0:0:0:
335,186,120176,2,0,P|292:174|250:186,1,90.0000034332277,8|0,0:2|1:0,0:0:0:0:
419,228,120348,2,0,P|431:185|419:143,1,90.0000034332277,4|0,0:3|1:0,0:0:0:0:
376,312,120519,2,0,P|418:324|461:312,1,90.0000034332277,8|0,0:2|1:0,0:0:0:0:
293,268,120690,5,8,0:2:0:0:
293,268,120776,1,8,0:2:0:0:
293,268,120862,1,8,0:2:0:0:
212,312,120948,1,8,0:2:0:0:
132,268,121033,5,4,0:2:0:0:
218,100,132005,6,0,P|230:180|294:100,1,240,4|2,0:2|0:2,0:0:0:0:
144,78,132519,1,2,0:2:0:0:
144,78,132690,2,0,P|128:138|143:192,1,120,8|0,0:2|0:2,0:0:0:0:
368,192,133033,2,0,P|384:135|368:78,1,120,2|2,0:2|0:2,0:0:0:0:
143,192,133376,6,0,B|255:256|255:128|368:192,1,240,4|2,0:2|0:2,0:0:0:0:
144,306,133890,1,2,0:2:0:0:
144,306,134062,2,0,P|128:246|143:192,1,120,8|0,0:2|0:0,0:0:0:0:
368,192,134405,2,0,P|384:252|369:306,1,120,2|2,0:2|0:2,0:0:0:0:
218,170,134748,6,0,P|230:90|294:170,1,240,4|2,0:2|0:2,0:0:0:0:
144,192,135262,1,2,0:2:0:0:
144,192,135433,2,0,P|128:132|143:78,1,120,8|0,0:2|0:2,0:0:0:0:
368,78,135776,2,0,P|384:135|368:192,1,120,2|2,0:2|0:2,0:0:0:0:
368,192,136290,6,0,P|352:249|368:306,1,120,4|8,0:3|0:2,0:0:0:0:
500,306,136548,1,8,0:2:0:0:
500,306,136633,2,0,P|516:249|500:192,1,120,4|8,0:3|0:2,0:0:0:0:
236,306,136976,2,0,P|220:249|236:192,1,120,4|4,0:3|0:3,0:0:0:0:
500,306,137319,1,4,0:3:0:0:
500,306,137405,1,4,0:3:0:0:
500,306,137490,6,0,B|564:194|436:194|500:81,1,240,4|2,0:2|0:2,0:0:0:0:
305,260,138005,1,2,0:2:0:0:
305,260,138176,2,0,L|424:248,1,120,8|0,0:2|0:0,0:0:0:0:
288,92,138519,2,0,L|407:80,1,120,2|2,0:2|0:2,0:0:0:0:
255,186,138862,6,0,P|190:93|254:0,1,240,4|2,0:2|0:2,0:0:0:0:
408,80,139376,1,2,0:2:0:0:
408,80,139548,2,0,L|289:92,1,120,8|0,0:2|0:0,0:0:0:0:
136,198,139890,2,0,L|255:186,1,120,2|2,0:2|0:2,0:0:0:0:
420,256,140233,6,0,B|240:274|240:274|296:296,1,240,4|2,0:2|0:2,0:0:0:0:
412,172,140748,1,2,0:2:0:0:
412,172,140919,2,0,L|293:184,1,120,8|0,0:2|0:0,0:0:0:0:
404,88,141262,2,0,L|285:100,1,120,2|2,0:2|0:2,0:0:0:0:
285,100,141776,6,0,L|404:88,1,120,8|4,0:2|0:3,0:0:0:0:
226,156,142033,1,4,0:3:0:0:
226,156,142119,2,0,P|206:100|226:46,1,120,8|4,0:2|0:3,0:0:0:0:
420,256,142462,2,0,L|301:268,1,120,8|4,0:2|0:3,0:0:0:0:
488,216,142805,1,8,0:2:0:0:
500,256,142890,1,8,0:2:0:0:
488,296,142976,5,4,0:3:0:0:
285,100,143148,2,0,L|404:88,1,120,4|8,0:3|0:2,0:0:0:0:
226,156,143405,1,8,0:2:0:0:
226,156,143491,2,0,P|206:100|226:46,1,120,4|8,0:3|0:2,0:0:0:0:
420,256,143833,2,0,L|301:268,1,120,4|4,0:3|0:3,0:0:0:0:
488,216,144176,1,4,0:3:0:0:
500,256,144261,1,4,0:3:0:0:
488,296,144347,5,4,0:2:0:0:
488,296,145719,5,0,0:0:0:0:
428,355,145890,1,2,0:2:0:0:
369,296,146062,1,0,0:0:0:0:
429,237,146233,1,2,0:2:0:0:
370,178,146405,5,2,0:2:0:0:
310,237,146576,1,0,0:0:0:0:
251,178,146748,1,0,0:0:0:0:
310,118,146919,1,2,0:2:0:0:
370,178,147090,5,2,0:2:0:0:
430,118,147262,1,0,0:0:0:0:
489,178,147433,1,2,0:2:0:0:
429,237,147605,1,0,0:0:0:0:
370,178,147776,5,2,0:2:0:0:
310,237,147948,1,0,0:0:0:0:
251,178,148119,1,2,0:2:0:0:
310,118,148290,1,0,0:0:0:0:
370,178,148462,5,2,0:2:0:0:
430,118,148633,1,2,0:2:0:0:
448,119,148719,1,2,0:2:0:0:
468,119,148805,1,2,0:2:0:0:
370,59,148976,1,2,0:2:0:0:
370,178,149148,5,2,0:2:0:0:
310,118,149319,1,2,0:2:0:0:
292,119,149405,1,2,0:2:0:0:
272,119,149491,1,2,0:2:0:0:
370,59,149662,1,2,0:2:0:0:
370,178,149833,5,2,0:2:0:0:
370,208,149919,1,2,0:2:0:0:
370,240,150005,1,2,0:2:0:0:
370,268,150090,1,2,0:2:0:0:
370,312,150176,5,2,0:2:0:0:
326,312,150262,1,2,0:2:0:0:
282,312,150348,1,2,0:2:0:0:
242,312,150433,1,2,0:2:0:0:
186,312,150519,5,2,0:2:0:0:
186,256,150605,1,2,0:2:0:0:
186,204,150690,1,2,0:2:0:0:
186,148,150776,1,2,0:2:0:0:
186,76,150862,5,2,0:2:0:0:
258,76,150948,1,2,0:2:0:0:
331,76,151033,1,2,0:2:0:0:
404,76,151119,1,2,0:2:0:0:
477,76,151205,5,0,0:0:0:0:
477,149,151376,1,2,0:2:0:0:
404,149,151548,1,0,0:0:0:0:
404,76,151719,1,2,0:2:0:0:
331,76,151890,5,2,0:2:0:0:
331,149,152061,1,0,0:0:0:0:
258,149,152233,1,0,0:0:0:0:
258,76,152404,1,2,0:2:0:0:
185,149,152576,5,2,0:2:0:0:
185,76,152747,1,0,0:0:0:0:
112,149,152919,1,2,0:2:0:0:
112,76,153090,1,0,0:0:0:0:
185,149,153262,5,2,0:2:0:0:
185,76,153433,1,0,0:0:0:0:
258,149,153605,1,2,0:2:0:0:
258,76,153776,1,0,0:0:0:0:
185,149,153948,5,2,0:2:0:0:
112,76,154119,1,2,0:2:0:0:
113,58,154205,1,2,0:2:0:0:
113,38,154291,1,2,0:2:0:0:
185,76,154462,1,2,0:2:0:0:
112,149,154634,5,2,0:2:0:0:
39,76,154805,1,2,0:2:0:0:
40,58,154891,1,2,0:2:0:0:
40,38,154977,1,2,0:2:0:0:
112,76,155148,1,2,0:2:0:0:
39,149,155319,5,4,0:3:0:0:
39,179,155405,1,4,0:3:0:0:
39,211,155491,1,4,0:3:0:0:
39,239,155576,1,4,0:3:0:0:
39,283,155662,5,8,0:2:0:0:
83,283,155748,1,8,0:2:0:0:
127,283,155834,1,4,0:3:0:0:
167,283,155919,1,4,0:3:0:0:
223,283,156005,5,8,0:2:0:0:
223,227,156091,1,8,0:2:0:0:
223,175,156176,1,8,0:3:0:0:
224,120,156262,1,8,0:3:0:0:
223,46,156348,5,8,0:3:0:0:
295,46,156434,1,4,0:3:0:0:
368,46,156519,1,4,0:3:0:0:
441,46,156605,1,4,0:3:0:0:
512,48,156690,5,4,0:2:0:0:
440,200,156862,1,0,0:0:0:0:
368,46,157033,1,8,0:2:0:0:
508,264,157205,1,0,0:0:0:0:
508,264,157290,1,4,0:3:0:0:
508,264,157376,2,0,P|440:296|372:264,1,155.999992858887,4|0,0:3|0:0,0:0:0:0:
440,200,157633,1,4,0:3:0:0:
440,200,157719,1,8,0:2:0:0:
372,352,157891,1,4,0:3:0:0:
304,200,158062,5,4,0:3:0:0:
236,352,158233,1,0,0:0:0:0:
168,200,158405,1,8,0:2:0:0:
100,352,158576,1,0,0:0:0:0:
32,200,158748,1,4,0:3:0:0:
236,352,158919,1,0,0:0:0:0:
236,352,159004,1,4,0:3:0:0:
236,352,159090,2,0,P|304:384|372:352,1,155.999992858887,8|0,0:2|0:0,0:0:0:0:
304,288,159347,1,8,0:2:0:0:
304,288,159433,5,4,0:3:0:0:
100,352,159605,1,0,0:0:0:0:
100,312,159690,1,0,0:0:0:0:
100,272,159776,1,8,0:2:0:0:
304,210,159948,2,0,L|304:287,1,77.9999964294435,4|4,0:3|0:3,0:0:0:0:
304,384,160119,1,4,0:3:0:0:
236,148,160290,1,0,0:0:0:0:
236,148,160375,1,4,0:3:0:0:
236,148,160461,2,0,P|304:116|372:148,1,155.999992858887,8|4,0:2|0:3,0:0:0:0:
224,288,160805,5,4,0:3:0:0:
189,307,160891,1,4,0:3:0:0:
149,315,160977,1,4,0:3:0:0:
113,307,161062,1,4,0:3:0:0:
68,288,161148,5,8,0:2:0:0:
40,248,161234,1,8,0:2:0:0:
28,204,161320,1,4,0:3:0:0:
40,160,161405,1,4,0:3:0:0:
68,112,161491,5,8,0:2:0:0:
116,88,161577,1,8,0:2:0:0:
168,88,161662,1,8,0:3:0:0:
216,112,161748,1,8,0:3:0:0:
256,168,161834,5,8,0:3:0:0:
252,240,161920,1,4,0:3:0:0:
212,296,162005,1,4,0:3:0:0:
144,314,162091,1,4,0:3:0:0:
76,296,162176,5,4,0:2:0:0:
144,156,162348,1,0,0:0:0:0:
212,296,162519,1,8,0:2:0:0:
280,156,162691,1,0,0:0:0:0:
280,156,162776,1,4,0:3:0:0:
280,156,162862,2,0,P|348:124|416:156,1,155.999992858887,4|0,0:3|0:0,0:0:0:0:
348,220,163119,1,4,0:3:0:0:
348,220,163205,1,8,0:2:0:0:
280,68,163376,1,4,0:3:0:0:
212,220,163548,5,4,0:3:0:0:
144,68,163719,1,0,0:0:0:0:
76,220,163890,1,8,0:2:0:0:
8,68,164062,1,0,0:0:0:0:
144,168,164233,1,4,0:3:0:0:
280,68,164405,1,0,0:0:0:0:
280,68,164490,1,4,0:3:0:0:
280,68,164576,2,0,P|348:36|416:68,1,155.999992858887,8|0,0:2|0:0,0:0:0:0:
348,132,164833,1,8,0:2:0:0:
348,132,164919,5,4,0:3:0:0:
144,68,165091,1,8,0:2:0:0:
144,108,165176,1,8,0:2:0:0:
144,148,165262,1,8,0:2:0:0:
348,210,165433,1,4,0:3:0:0:
348,210,165605,1,4,0:3:0:0:
280,68,165776,1,4,0:3:0:0:
280,68,165861,1,4,0:3:0:0:
280,68,165947,2,0,P|348:36|416:68,1,155.999992858887,8|12,0:2|0:3,0:0:0:0:
280,210,166290,5,4,0:3:0:0:
245,229,166376,1,4,0:3:0:0:
205,237,166462,1,4,0:3:0:0:
169,229,166547,1,4,0:3:0:0:
124,210,166633,5,8,0:2:0:0:
96,170,166719,1,8,0:2:0:0:
84,126,166805,1,4,0:3:0:0:
96,82,166890,1,4,0:3:0:0:
124,34,166976,5,8,0:2:0:0:
172,10,167062,1,8,0:2:0:0:
224,10,167147,1,8,0:3:0:0:
272,34,167233,1,8,0:3:0:0:
312,90,167319,5,8,0:3:0:0:
308,162,167405,1,4,0:3:0:0:
268,218,167490,1,4,0:3:0:0:
200,236,167576,1,4,0:3:0:0:
132,218,167661,5,4,0:2:0:0:
224,10,167834,1,2,0:2:0:0:
132,218,168005,1,2,0:2:0:0:
132,218,168348,2,0,B|48:270|-24:218|-40:150|-32:94|28:78|72:98|76:143,1,336,2|0,0:2|0:0,0:0:0:0:
77,143,169034,5,10,0:2:0:0:
120,306,169205,1,8,0:3:0:0:
120,306,169291,1,8,0:3:0:0:
120,306,169377,2,0,P|73:316|27:306,1,96,8|4,0:3|0:3,0:0:0:0:
80,146,169720,1,4,0:3:0:0:
120,306,169891,1,4,0:3:0:0:
80,146,170062,1,4,0:3:0:0:
80,129,170148,1,4,0:3:0:0:
80,113,170234,1,4,0:3:0:0:
120,306,170405,6,0,B|168:374|296:374|344:306|344:306|288:346|222:327,2,384,4|2|2,0:2|0:2|0:2,0:0:0:0:
120,306,172120,2,0,L|128:259,2,48,2|0|0,0:2|0:0|0:0,0:0:0:0:
144,183,172462,5,8,0:3:0:0:
160,187,172548,1,8,0:3:0:0:
176,191,172634,1,8,0:3:0:0:
192,195,172720,1,8,0:3:0:0:
244,243,172805,5,4,0:3:0:0:
260,247,172891,1,4,0:3:0:0:
276,251,172977,1,4,0:3:0:0:
292,255,173062,1,4,0:3:0:0:
344,303,173148,5,4,0:2:0:0:
359,230,173320,1,2,0:2:0:0:
292,255,173491,1,2,0:2:0:0:
292,255,173834,6,0,B|201:198|112:255|112:255|60:267|60:351|112:375|164:351|164:267|112:255|112:255|56:191|112:128,1,567.600008660889,2|0,0:2|0:0,0:0:0:0:
112,128,174862,2,0,P|140:68|112:0,1,144,2|0,0:2|0:0,0:0:0:0:
111,0,175205,1,4,0:2:0:0:
9,180,175377,1,2,0:2:0:0:
208,180,175548,1,2,0:2:0:0:
208,180,175891,6,0,B|296:119|400:180|400:180|360:164|319:180,1,288,4|4,0:2|0:3,0:0:0:0:
319,180,176491,1,4,0:3:0:0:
319,180,176577,2,0,B|259:264|319:344|319:344|307:316|319:284,1,240,8|4,0:2|0:3,0:0:0:0:
452,120,177262,6,0,B|352:40|256:116|256:116|152:40|59:120,1,431.999986816407,4|4,0:2|0:3,0:0:0:0:
59,120,177862,1,4,0:3:0:0:
59,120,177948,2,0,P|30:205|59:286,1,180,8|0,0:2|0:0,0:0:0:0:
104,340,178291,5,4,0:3:0:0:
120,336,178377,1,4,0:3:0:0:
136,332,178462,1,4,0:3:0:0:
152,328,178548,1,4,0:3:0:0:
219,311,178634,5,4,0:2:0:0:
37,357,178805,1,4,0:3:0:0:
219,311,178977,2,0,B|263:299|263:299|311:323|311:323|354:311,1,144,4|0,0:3|0:0,0:0:0:0:
408,378,179320,6,0,B|488:282|408:178|408:178|360:78|224:114|224:242|360:278|408:178|408:178|488:74|408:-18,1,791.999975830079,8|0,0:2|0:0,0:0:0:0:
508,12,180348,2,0,P|521:72|508:143,1,135.000005149841,4|0,0:3|0:0,0:0:0:0:
508,143,180691,1,8,0:2:0:0:
256,76,180862,1,4,0:3:0:0:
508,12,181034,2,0,P|521:72|508:143,1,135.000005149841,4|0,0:3|0:0,0:0:0:0:
508,143,181377,6,0,B|449:134|449:134|377:193|377:193|318:184|318:184|305:150|305:150|326:117|326:117|386:125|386:125|440:200|440:200|503:210,1,503.999984619141,4|0,0:3|0:0,0:0:0:0:
502,210,182062,2,0,B|546:282|502:354|502:354|514:322|502:293,1,215.999993408203,8|0,0:2|0:0,0:0:0:0:
502,292,182405,1,4,0:3:0:0:
284,210,182577,1,4,0:3:0:0:
284,210,182748,6,0,B|240:282|284:354|284:354|272:322|284:293,1,215.999993408203,4|0,0:3|0:0,0:0:0:0:
392,210,183091,2,0,L|392:151,1,60,2|2,0:2|0:2,0:0:0:0:
392,293,183262,1,4,0:3:0:0:
464,80,183434,2,0,B|324:0|324:160|184:80|184:80|252:92|292:42,1,420,8|0,0:2|0:0,0:0:0:0:
293,41,184120,5,4,0:2:0:0:
464,80,184290,1,4,0:3:0:0:
293,41,184462,2,0,B|250:29|250:29|202:53|202:53|158:41,1,144,4|0,0:3|0:0,0:0:0:0:
75,2,184805,6,0,B|48:41|76:89|76:89|-8:161|20:289|52:337|144:361|240:360|276:321|296:193|264:173|228:145|180:109|124:125|100:149|100:197|116:225|157:231,1,791.999975830079,8|0,0:2|0:0,0:0:0:0:
301,295,185834,2,0,P|314:235|301:164,1,135.000005149841,4|0,0:3|0:0,0:0:0:0:
300,164,186177,1,8,0:2:0:0:
156,231,186348,1,4,0:3:0:0:
301,295,186520,2,0,P|314:235|301:164,1,135.000005149841,4|0,0:3|0:0,0:0:0:0:
264,64,186862,6,0,B|240:8|172:8|128:32|128:116|216:148|264:116|264:-8|435:64,1,431.999986816407,4|4,0:2|0:3,0:0:0:0:
435,64,187462,1,4,0:3:0:0:
435,64,187548,2,0,B|495:148|435:228|435:228|447:200|435:168,1,240,8|4,0:2|0:3,0:0:0:0:
219,184,188233,6,0,B|235:244|183:268|183:268|131:280|131:364|183:380|235:364|235:280|183:268|183:268|131:244|147:184,1,431.999986816407,4|4,0:2|0:3,0:0:0:0:
102,116,188834,1,4,0:3:0:0:
102,116,188919,2,0,B|146:92|190:116|190:116|166:76|190:32|190:32|230:56|275:32,1,270.000010299683,8|0,0:2|0:0,0:0:0:0:
276,32,189262,5,4,0:3:0:0:
272,48,189348,1,4,0:3:0:0:
272,64,189434,1,4,0:3:0:0:
276,84,189520,1,4,0:3:0:0:
283,100,189605,6,0,P|271:180|207:100,1,240,4|2,0:2|0:2,0:0:0:0:
357,78,190119,1,2,0:2:0:0:
357,78,190290,2,0,P|373:138|358:192,1,120,8|0,0:2|0:2,0:0:0:0:
133,192,190633,2,0,P|117:135|133:78,1,120,2|2,0:2|0:2,0:0:0:0:
358,192,190976,6,0,B|246:256|246:128|133:192,1,240,4|2,0:2|0:2,0:0:0:0:
357,306,191490,1,2,0:2:0:0:
357,306,191662,2,0,P|373:246|358:192,1,120,8|0,0:2|0:2,0:0:0:0:
133,192,192005,2,0,P|117:252|132:306,1,120,2|2,0:2|0:2,0:0:0:0:
283,170,192348,6,0,P|271:90|207:170,1,240,4|2,0:2|0:2,0:0:0:0:
357,192,192862,1,2,0:2:0:0:
357,192,193033,2,0,P|373:132|358:78,1,120,8|0,0:2|0:2,0:0:0:0:
133,78,193376,2,0,P|117:135|133:192,1,120,2|2,0:2|0:2,0:0:0:0:
133,192,193890,6,0,P|149:249|133:306,1,120,4|8,0:3|0:2,0:0:0:0:
1,306,194148,1,8,0:2:0:0:
1,306,194233,2,0,P|-15:249|1:192,1,120,4|8,0:3|0:2,0:0:0:0:
265,306,194576,2,0,P|281:249|265:192,1,120,4|4,0:3|0:3,0:0:0:0:
1,306,194919,1,4,0:3:0:0:
1,306,195005,1,4,0:3:0:0:
1,306,195090,6,0,B|-63:194|65:194|1:81,1,240,4|2,0:2|0:2,0:0:0:0:
196,260,195605,1,2,0:2:0:0:
196,260,195776,2,0,L|77:248,1,120,8|0,0:2|0:2,0:0:0:0:
213,92,196119,2,0,L|94:80,1,120,2|2,0:2|0:2,0:0:0:0:
246,186,196462,6,0,P|311:93|247:0,1,240,4|2,0:2|0:2,0:0:0:0:
93,80,196976,1,2,0:2:0:0:
93,80,197148,2,0,L|212:92,1,120,8|0,0:2|0:2,0:0:0:0:
365,198,197490,2,0,L|246:186,1,120,2|2,0:2|0:2,0:0:0:0:
81,256,197833,6,0,B|261:274|261:274|205:296,1,240,4|2,0:2|0:2,0:0:0:0:
89,172,198348,1,2,0:2:0:0:
89,172,198519,2,0,L|208:184,1,120,8|0,0:2|0:2,0:0:0:0:
97,88,198862,2,0,L|216:100,1,120,2|2,0:2|0:2,0:0:0:0:
216,100,199376,6,0,L|97:88,1,120,8|4,0:2|0:3,0:0:0:0:
275,156,199633,1,4,0:3:0:0:
275,156,199719,2,0,P|295:100|275:46,1,120,8|4,0:2|0:3,0:0:0:0:
81,256,200062,2,0,L|200:268,1,120,8|4,0:2|0:3,0:0:0:0:
13,216,200405,1,8,0:2:0:0:
1,256,200490,1,8,0:2:0:0:
13,296,200576,5,4,0:3:0:0:
216,100,200748,2,0,L|97:88,1,120,4|8,0:3|0:2,0:0:0:0:
275,156,201005,1,8,0:2:0:0:
275,156,201091,2,0,P|295:100|275:46,1,120,4|8,0:3|0:2,0:0:0:0:
81,256,201433,2,0,L|200:268,1,120,4|4,0:3|0:3,0:0:0:0:
13,216,201776,1,4,0:3:0:0:
1,256,201861,1,4,0:3:0:0:
13,296,201947,5,4,0:2:0:0:
