osu file format v14

[General]
AudioFilename: audio.mp3
AudioLeadIn: 0
PreviewTime: 32742
Countdown: 0
SampleSet: Drum
StackLeniency: 0.4
Mode: 0
LetterboxInBreaks: 0
WidescreenStoryboard: 1

[Editor]
Bookmarks: 8405,11148,33091,44062,55034,76977,96177,107148,112634,134577,145548,156519,167491,171605
DistanceSpacing: 1
BeatDivisor: 2
GridSize: 32
TimelineZoom: 2.299999

[Metadata]
Title:The Victory is Ours
TitleUnicode:The Victory is Ours
Artist:Loki
ArtistUnicode:Loki
Creator:Crissa
Version:TheShadow's Normal
Source:osu!
Tags:theshadowofdark gremio fa featured artists minorsonek seolv [_L_u_k_a_s_] thaehan rock instrumental metal walaowey mappers guild ma m2usonek lukas symphonic [-crissaegrim-]
BeatmapID:2280199
BeatmapSetID:1066365

[Difficulty]
HPDrainRate:4
CircleSize:3
OverallDifficulty:4
ApproachRate:5
SliderMultiplier:1.1
SliderTickRate:1

[Events]
//Background and Video events
0,0,"bg6614.jpg",0,0
//Break Periods
//Storyboard Layer 0 (Background)
//Storyboard Layer 1 (Fail)
//Storyboard Layer 2 (Pass)
//Storyboard Layer 3 (Foreground)
//Storyboard Layer 4 (Overlay)
//Storyboard Sound Samples

[TimingPoints]
171,342.857142857143,4,3,69,75,1,0
171,-100,4,3,69,75,0,0
1542,-100,4,3,69,65,0,0
2570,-100,4,3,69,65,0,0
2913,-100,4,3,69,75,0,0
4285,-100,4,3,69,65,0,0
5656,-100,4,3,69,75,0,0
7028,-100,4,3,69,65,0,0
8055,-100,4,3,69,65,0,0
8399,-100,4,3,69,60,0,0
8741,-100,4,3,69,60,0,0
9085,-100,4,3,69,60,0,0
9427,-100,4,3,69,60,0,0
9771,-100,4,3,69,80,0,0
11142,-100,4,3,69,70,0,0
11484,-100,4,3,69,70,0,0
11828,-100,4,3,69,70,0,0
12684,-100,4,3,69,70,0,0
13199,-100,4,3,69,70,0,0
13370,-100,4,3,69,70,0,0
13542,-100,4,3,69,70,0,0
14227,-100,4,3,69,70,0,0
14571,-100,4,3,69,70,0,0
15427,-100,4,3,69,70,0,0
15599,-100,4,3,69,70,0,0
15941,-100,4,3,69,70,0,0
16285,-100,4,3,69,70,0,0
16970,-100,4,3,69,70,0,0
17313,-100,4,3,69,70,0,0
18170,-100,4,3,69,70,0,0
18685,-100,4,3,69,70,0,0
20742,-100,4,3,69,80,0,0
22113,-100,4,3,69,70,0,0
22455,-100,4,3,69,70,0,0
22799,-100,4,3,69,70,0,0
23827,-100,4,3,69,70,0,0
24171,-100,4,3,69,70,0,0
25198,-100,4,3,69,70,0,0
25542,-100,4,3,69,70,0,0
26913,-100,4,3,69,70,0,0
27256,-100,4,3,69,70,0,0
27941,-100,4,3,69,70,0,0
28285,-100,4,3,69,70,0,0
29827,-100,4,3,69,70,0,0
30342,-100,4,3,69,70,0,0
30684,-100,4,3,69,70,0,0
31028,-100,4,3,69,70,0,0
31713,-100,4,3,69,80,0,0
31970,-100,4,3,69,80,0,0
32399,-100,4,3,69,80,0,0
33085,-100,4,3,69,65,0,0
33770,-100,4,3,69,65,0,0
34113,-100,4,3,69,65,0,0
34970,-100,4,3,69,65,0,0
35142,-100,4,3,69,65,0,0
41827,-100,4,3,69,65,0,0
42171,-100,4,3,69,65,0,0
42685,-100,4,3,69,80,0,0
44228,-100,4,3,69,75,0,0
49542,-100,4,3,69,55,0,0
50227,-100,4,3,69,55,0,0
50571,-100,4,3,69,55,0,0
51598,-100,4,3,69,55,0,0
52628,-100,4,3,69,55,0,0
53656,-100,4,3,69,60,0,0
53827,-100,4,3,69,60,0,0
53999,-100,4,3,69,60,0,0
54170,-100,4,3,69,60,0,0
54342,-100,4,3,69,60,0,0
55028,-100,4,3,69,70,0,0
55370,-100,4,3,69,70,0,0
55713,-100,4,3,69,70,0,0
56741,-100,4,3,69,70,0,0
57085,-100,4,3,69,70,0,0
57427,-100,4,3,69,70,0,0
57771,-100,4,3,69,70,0,0
58798,-100,4,3,69,70,0,0
59142,-100,4,3,69,70,0,0
59484,-100,4,3,69,70,0,0
59828,-100,4,3,69,70,0,0
60170,-100,4,3,69,70,0,0
60342,-100,4,3,69,70,0,0
60855,-100,4,3,69,70,0,0
61199,-100,4,3,69,70,0,0
62227,-100,4,3,69,70,0,0
62571,-100,4,3,69,70,0,0
63598,-100,4,3,69,70,0,0
63942,-100,4,3,69,70,0,0
64284,-100,4,3,69,70,0,0
64628,-100,4,3,69,70,0,0
64970,-100,4,3,69,70,0,0
65142,-100,4,3,69,70,0,0
65484,-100,4,3,69,70,0,0
65656,-100,4,3,69,70,0,0
66341,-100,4,3,69,70,0,0
66685,-100,4,3,69,70,0,0
68398,-100,4,3,69,70,0,0
68742,-100,4,3,69,70,0,0
69084,-100,4,3,69,70,0,0
69428,-100,4,3,69,70,0,0
69770,-100,4,3,69,70,0,0
70113,-100,4,3,69,70,0,0
70455,-100,4,3,69,70,0,0
70799,-100,4,3,69,70,0,0
70970,-100,4,3,69,70,0,0
71142,-100,4,3,69,70,0,0
71827,-100,4,3,69,70,0,0
72171,-100,4,3,69,70,0,0
73198,-100,4,3,69,70,0,0
73542,-100,4,3,69,70,0,0
73884,-100,4,3,69,70,0,0
74228,-100,4,3,69,70,0,0
74570,-100,4,3,69,70,0,0
74913,-100,4,3,69,70,0,0
75255,-100,4,3,69,70,0,0
75599,-100,4,3,69,70,0,0
75770,-100,4,3,69,70,0,0
76113,-100,4,3,69,70,0,0
76627,-100,4,3,69,70,0,0
76971,-100,4,3,69,80,0,0
77313,-100,4,3,69,70,0,0
78171,-100,4,3,69,80,0,0
78684,-100,4,3,69,70,0,0
78856,-100,4,3,69,70,0,0
79198,-100,4,3,69,70,0,0
79371,-100,4,3,69,70,0,0
79713,-100,4,3,69,80,0,0
80055,-100,4,3,69,70,0,0
80228,-100,4,3,69,70,0,0
80571,-100,4,3,69,80,0,0
81427,-100,4,3,69,70,0,0
81599,-100,4,3,69,70,0,0
82456,-100,4,3,69,80,0,0
82798,-100,4,3,69,70,0,0
82971,-100,4,3,69,70,0,0
83656,-100,4,3,69,80,0,0
84170,-100,4,3,69,70,0,0
84342,-100,4,3,69,70,0,0
85027,-100,4,3,69,70,0,0
85199,-100,4,3,69,80,0,0
86227,-100,4,3,69,80,0,0
86571,-100,4,3,69,80,0,0
87598,-100,4,3,69,80,0,0
87942,-100,4,3,69,80,0,0
88284,-100,4,3,69,70,0,0
88456,-100,4,3,69,70,0,0
89142,-100,4,3,69,80,0,0
89655,-100,4,3,69,70,0,0
89828,-100,4,3,69,70,0,0
90170,-100,4,3,69,70,0,0
90342,-100,4,3,69,70,0,0
90685,-100,4,3,69,80,0,0
91027,-100,4,3,69,70,0,0
91199,-100,4,3,69,70,0,0
91542,-100,4,3,69,80,0,0
91884,-100,4,3,69,80,0,0
92056,-100,4,3,69,80,0,0
92398,-100,4,3,69,70,0,0
92571,-100,4,3,69,70,0,0
93428,-100,4,3,69,80,0,0
93770,-100,4,3,69,70,0,0
93942,-100,4,3,69,70,0,0
94628,-100,4,3,69,80,0,0
95141,-100,4,3,69,80,0,0
95313,-100,4,3,69,80,0,0
97884,-100,4,3,69,80,0,0
98571,-100,4,3,69,80,0,0
100627,-100,4,3,69,80,0,0
101313,-100,4,3,69,80,0,0
101484,-100,4,3,69,80,0,0
101656,-100,4,3,69,85,0,0
103370,-100,4,3,69,85,0,0
103713,-100,4,3,69,85,0,0
104399,-100,4,3,69,80,0,0
104741,-100,4,3,69,80,0,0
105085,-100,4,3,69,75,0,0
105771,-100,4,3,69,70,0,0
107142,-133.333333333333,4,3,69,70,0,0
109542,-133.333333333333,4,3,69,40,0,0
109885,-100,4,3,69,70,0,0
110227,-100,4,3,69,70,0,0
110571,-100,4,3,69,70,0,0
111427,-100,4,3,69,70,0,0
111599,-100,4,3,69,70,0,0
111770,-100,4,3,69,70,0,0
111942,-100,4,3,69,70,0,0
112970,-100,4,3,69,70,0,0
113313,-100,4,3,69,70,0,0
114341,-100,4,3,69,70,0,0
114685,-100,4,3,69,70,0,0
115027,-100,4,3,69,70,0,0
115371,-100,4,3,69,70,0,0
116570,-100,4,3,69,70,0,0
116742,-100,4,3,69,70,0,0
117084,-100,4,3,69,70,0,0
117428,-100,4,3,69,70,0,0
117770,-100,4,3,69,70,0,0
118113,-100,4,3,69,70,0,0
118455,-100,4,3,69,70,0,0
118799,-100,4,3,69,70,0,0
119827,-100,4,3,69,70,0,0
120171,-100,4,3,69,70,0,0
121198,-100,4,3,69,70,0,0
121542,-100,4,3,69,70,0,0
122570,-100,4,3,69,70,0,0
122913,-100,4,3,69,70,0,0
123255,-100,4,3,69,70,0,0
123428,-100,4,3,69,70,0,0
123941,-100,4,3,69,70,0,0
124285,-100,4,3,69,70,0,0
125998,-100,4,3,69,70,0,0
126342,-100,4,3,69,70,0,0
126684,-100,4,3,69,70,0,0
127028,-100,4,3,69,70,0,0
127370,-100,4,3,69,70,0,0
127542,-100,4,3,69,70,0,0
128055,-100,4,3,69,70,0,0
128399,-100,4,3,69,70,0,0
128741,-100,4,3,69,70,0,0
129085,-100,4,3,69,70,0,0
130798,-100,4,3,69,70,0,0
131142,-100,4,3,69,70,0,0
131484,-100,4,3,69,70,0,0
131828,-100,4,3,69,70,0,0
132170,-100,4,3,69,70,0,0
132513,-100,4,3,69,70,0,0
133541,-100,4,3,69,70,0,0
133885,-100,4,3,69,70,0,0
134227,-100,4,3,69,70,0,0
134399,-100,4,3,69,70,0,0
136284,-100,4,3,69,70,0,0
136628,-100,4,3,69,70,0,0
137655,-100,4,3,69,70,0,0
137999,-100,4,3,69,70,0,0
139027,-100,4,3,69,70,0,0
139371,-100,4,3,69,70,0,0
139713,-100,4,3,69,80,0,0
140398,-100,4,3,69,70,0,0
140742,-100,4,3,69,70,0,0
141770,-100,4,3,69,70,0,0
142113,-100,4,3,69,70,0,0
142455,-100,4,3,69,70,0,0
142799,-100,4,3,69,70,0,0
143827,-100,4,3,69,70,0,0
143999,-100,4,3,69,70,0,0
144171,-100,4,3,69,80,0,0
145027,-100,4,3,69,80,0,0
145199,-100,4,3,69,80,0,0
145370,-100,4,3,69,80,0,0
145542,-100,4,3,69,70,0,0
146570,-100,4,3,69,70,0,0
147085,-100,4,3,69,70,0,0
147427,-100,4,3,69,70,0,0
147599,-100,4,3,69,70,0,0
147941,-100,4,3,69,70,0,0
148113,-100,4,3,69,70,0,0
150170,-100,4,3,69,70,0,0
150342,-100,4,3,69,70,0,0
152055,-100,4,3,69,70,0,0
152399,-100,4,3,69,70,0,0
152570,-100,4,3,69,70,0,0
152742,-100,4,3,69,70,0,0
153427,-100,4,3,69,70,0,0
153771,-100,4,3,69,70,0,0
154284,-100,4,3,69,70,0,0
154456,-100,4,3,69,70,0,0
154970,-100,4,3,69,70,0,0
155142,-100,4,3,69,70,0,0
155484,-100,4,3,69,70,0,0
155828,-100,4,3,69,65,0,0
156170,-100,4,3,69,65,0,0
156513,-100,4,3,69,80,0,1
167485,-100,4,3,69,90,0,0
172113,-100,4,2,69,5,0,0

[Colours]
Combo1 : 255,207,128
Combo2 : 255,106,106
Combo3 : 238,213,187
Combo4 : 113,201,249

[HitObjects]
464,2,171,5,4,0:2:0:0:
464,2,856,2,0,P|404:-1|360:22,1,110,4|4,0:2|0:2,0:0:0:0:
278,94,1542,1,10,0:2:0:0:
323,195,1885,1,10,0:2:0:0:
240,268,2228,2,0,P|173:271|124:241,1,110,10|8,0:2|0:0,0:0:0:0:
51,181,2913,5,4,0:2:0:0:
51,181,3599,2,0,L|55:56,1,110,4|4,0:2|0:2,0:0:0:0:
145,7,4285,1,10,0:2:0:0:
238,65,4628,1,10,0:2:0:0:
333,11,4971,2,0,P|346:69|332:118,1,110,10|10,0:2|0:2,0:0:0:0:
275,212,5656,5,4,0:2:0:0:
275,212,6342,2,0,L|384:211,1,110,4|4,0:2|0:2,0:0:0:0:
476,273,7028,1,10,0:2:0:0:
445,379,7371,1,10,0:2:0:0:
334,382,7713,2,0,P|272:370|232:321,1,110,10|8,0:2|0:0,0:0:0:0:
190,239,8399,6,0,L|194:129,1,110,4|4,0:0|0:0,0:0:0:0:
296,88,9085,2,0,L|300:198,1,110,4|4,0:0|0:0,0:0:0:0:
405,229,9771,2,0,L|408:140,2,82.5,4|4|4,0:2|0:2|0:2,0:0:0:0:
403,283,10456,1,10,0:2:0:0:
197,360,11142,6,0,P|143:369|92:351,1,110,14|10,0:2|0:2,0:0:0:0:
154,259,11828,1,10,0:2:0:0:
94,166,12171,1,10,0:2:0:0:
148,70,12513,2,0,L|80:63,2,55,10|2|10,0:2|0:2|0:2,0:0:0:0:
257,80,13199,2,0,L|325:73,1,55,10|2,0:2|0:2,0:0:0:0:
366,66,13542,1,10,0:2:0:0:
456,3,13885,6,0,P|476:62|465:115,1,110,10|10,0:2|0:2,0:0:0:0:
397,192,14571,1,10,0:2:0:0:
293,156,14913,1,10,0:2:0:0:
229,246,15256,2,0,L|170:242,1,55,10|2,0:2|0:2,0:0:0:0:
121,258,15599,2,0,L|5:250,1,110,10|10,0:2|0:2,0:0:0:0:
44,355,16285,1,10,0:2:0:0:
153,352,16628,6,0,L|266:349,1,110,14|10,0:2|0:2,0:0:0:0:
371,369,17313,1,10,0:2:0:0:
334,265,17656,1,10,0:2:0:0:
421,197,17999,2,0,L|493:200,2,55,10|2|10,0:2|0:2|0:2,0:0:0:0:
384,93,18685,2,0,L|329:90,1,55,10|2,0:2|0:2,0:0:0:0:
274,87,19028,1,10,0:2:0:0:
175,35,19371,6,0,P|161:87|177:140,1,110,4|2,0:2|0:2,0:0:0:0:
234,234,20056,1,2,0:2:0:0:
163,318,20399,1,2,0:2:0:0:
60,276,20742,2,0,P|54:321|63:362,2,82.5,4|4|4,0:2|0:2|0:2,0:0:0:0:
76,222,21428,1,8,0:2:0:0:
244,363,22113,6,0,L|376:358,1,110,12|10,0:2|0:2,0:0:0:0:
403,260,22799,1,10,0:2:0:0:
330,177,23142,1,10,0:2:0:0:
380,79,23485,2,0,L|447:80,2,55,10|2|10,0:2|0:2|0:2,0:0:0:0:
280,30,24171,1,10,0:2:0:0:
225,37,24342,1,2,0:2:0:0:
170,44,24513,1,10,0:2:0:0:
113,138,24856,6,0,P|166:155|231:136,1,110,10|10,0:2|0:2,0:0:0:0:
313,88,25542,1,10,0:2:0:0:
395,163,25885,1,10,0:2:0:0:
349,264,26228,2,0,L|283:266,1,55,10|2,0:2|0:2,0:0:0:0:
250,299,26571,2,0,L|129:295,1,110,10|10,0:2|0:2,0:0:0:0:
47,354,27256,1,10,0:2:0:0:
1,253,27599,6,0,L|7:126,1,110,14|10,0:2|0:2,0:0:0:0:
11,33,28285,1,10,0:2:0:0:
104,93,28628,1,10,0:2:0:0:
190,23,28971,2,0,L|252:21,1,55,10|0,0:2|0:0,0:0:0:0:
298,19,29313,1,10,0:2:0:0:
385,87,29656,2,0,L|444:90,2,55,10|2|10,0:2|0:2|0:2,0:0:0:0:
301,158,30342,6,0,P|287:211|298:265,1,110,4|2,0:2|0:2,0:0:0:0:
354,360,31028,1,2,0:2:0:0:
244,361,31371,1,2,0:2:0:0:
188,266,31713,2,0,L|96:273,2,82.5,4|4|4,0:2|0:2|0:2,0:0:0:0:
242,261,32399,1,10,0:2:0:0:
299,48,33085,6,0,B|202:45|202:45|184:61|184:61|79:57,1,220,4|2,0:2|0:2,0:0:0:0:
0,125,34113,1,2,0:2:0:0:
59,216,34456,2,0,L|243:201,1,165,2|10,0:2|0:2,0:0:0:0:
278,197,35142,1,2,0:2:0:0:
358,121,35485,1,2,0:2:0:0:
458,169,35828,6,0,P|454:63|363:10,1,220,2|2,0:2|0:2,0:0:0:0:
266,62,36856,1,2,0:2:0:0:
167,13,37199,2,0,B|133:57|133:57|150:180,1,165,2|10,0:2|0:2,0:0:0:0:
154,219,37885,1,2,0:2:0:0:
100,315,38228,2,0,B|107:369,1,55,10|8,0:2|0:2,0:0:0:0:
216,380,38742,6,0,B|264:379|288:347|288:347|311:317|361:317,1,165,12|2,0:2|0:2,0:0:0:0:
472,324,39599,1,2,0:2:0:0:
423,225,39942,2,0,L|254:221,1,165,2|10,0:2|0:2,0:0:0:0:
203,219,40628,1,2,0:2:0:0:
147,124,40971,1,2,0:2:0:0:
220,41,41313,6,0,P|300:38|377:106,1,165,2|10,0:2|0:2,0:0:0:0:
420,188,42171,1,10,0:2:0:0:
420,188,42342,2,0,L|416:266,1,55,2|10,0:2|0:2,0:0:0:0:
414,296,42685,2,0,L|513:289,2,82.5,4|4|4,0:2|0:2|0:2,0:0:0:0:
374,334,43371,2,0,L|260:325,1,110,12|8,0:2|0:2,0:0:0:0:
178,257,44056,5,12,0:2:0:0:
256,192,44228,12,0,48856,0:0:0:0:
55,249,49542,6,0,L|274:244,1,220,4|4,0:0|0:0,0:0:0:0:
380,276,50571,1,2,0:2:0:0:
477,226,50913,2,0,P|490:296|386:385,2,220,4|4|4,0:3|0:0|0:0,0:0:0:0:
371,192,52628,5,4,0:0:0:0:
274,244,52971,2,0,L|152:246,1,110,4|4,0:0|0:0,0:0:0:0:
55,249,53656,2,0,L|56:194,1,55,10|10,0:2|0:2,0:0:0:0:
34,144,53999,2,0,L|35:89,1,55,10|10,0:2|0:2,0:0:0:0:
13,40,54342,1,8,0:2:0:0:
224,99,55028,6,0,L|333:93,1,110,4|0,0:2|0:0,0:0:0:0:
427,35,55713,1,2,0:2:0:0:
512,107,56056,1,2,0:2:0:0:
469,209,56399,2,0,L|359:203,1,110,2|0,0:2|0:0,0:0:0:0:
258,248,57085,2,0,L|148:242,1,110,2|0,0:2|0:0,0:0:0:0:
57,179,57771,6,0,P|34:228|41:281,1,110,2|0,0:2|0:0,0:0:0:0:
148,242,58456,2,0,P|170:192|163:139,1,110,2|0,0:2|0:0,0:0:0:0:
90,56,59142,2,0,L|216:50,1,110,2|0,0:2|0:0,0:0:0:0:
282,123,59828,2,0,L|408:117,1,110,2|8,0:2|0:2,0:0:0:0:
446,125,60342,1,8,0:2:0:0:
492,152,60513,6,0,P|512:204|505:258,1,110,4|0,0:2|0:0,0:0:0:0:
447,351,61199,1,2,0:2:0:0:
341,325,61542,1,2,0:2:0:0:
246,381,61885,2,0,L|136:379,1,110,2|0,0:2|0:0,0:0:0:0:
137,268,62571,2,0,L|246:266,1,110,2|0,0:2|0:0,0:0:0:0:
341,325,63256,6,0,P|356:261|335:208,1,110,2|0,0:2|0:0,0:0:0:0:
250,160,63942,2,0,L|141:158,1,110,2|0,0:2|0:0,0:0:0:0:
34,188,64628,2,0,P|32:133|59:86,1,110,10|8,0:2|0:0,0:0:0:0:
105,56,65142,1,10,0:2:0:0:
159,56,65313,2,0,L|268:54,1,110,8|4,0:0|0:0,0:0:0:0:
371,13,65999,6,0,P|381:64|346:133,1,110,4|0,0:2|0:0,0:0:0:0:
280,192,66685,1,2,0:2:0:0:
327,293,67028,1,2,0:2:0:0:
435,278,67371,2,0,P|480:249|498:198,1,110,2|0,0:2|0:0,0:0:0:0:
453,97,68056,2,0,P|407:126|389:177,1,110,2|0,0:2|0:0,0:0:0:0:
280,192,68742,6,0,L|170:189,1,110,2|0,0:2|0:0,0:0:0:0:
73,134,69428,2,0,P|53:185|62:238,1,110,2|0,0:2|0:0,0:0:0:0:
128,327,70113,2,0,L|237:324,1,110,2|0,0:2|0:0,0:0:0:0:
343,357,70799,2,0,L|347:283,1,55,2|10,0:2|0:2,0:0:0:0:
376,255,71142,2,0,L|380:181,1,55,10|10,0:2|0:2,0:0:0:0:
409,152,71485,6,0,P|355:162|303:146,1,110,4|0,0:2|0:0,0:0:0:0:
217,77,72171,1,2,0:2:0:0:
118,124,72513,1,2,0:2:0:0:
21,71,72856,2,0,P|8:129|30:190,1,110,2|0,0:2|0:0,0:0:0:0:
111,239,73542,2,0,L|222:234,1,110,2|0,0:2|0:0,0:0:0:0:
247,341,74228,6,0,L|136:336,1,110,2|0,0:2|0:0,0:0:0:0:
40,282,74913,2,0,P|27:229|50:180,1,110,2|0,0:2|0:0,0:0:0:0:
110,87,75599,2,0,L|44:81,2,55,2|10|2,0:2|0:2|0:2,0:0:0:0:
158,113,76113,1,10,0:2:0:0:
205,140,76285,2,0,L|314:149,1,110,10|4,0:2|0:0,0:0:0:0:
403,82,76971,6,0,P|424:132|417:186,1,110,12|8,0:2|0:2,0:0:0:0:
387,232,77485,1,0,0:0:0:0:
449,322,77828,1,0,0:0:0:0:
354,378,78171,1,2,0:2:0:0:
354,378,78342,2,0,L|231:368,1,110,4|8,0:2|0:2,0:0:0:0:
202,333,78856,2,0,L|79:323,1,110
50,288,79371,1,8,0:2:0:0:
1,189,79713,6,0,P|-4:135|21:87,1,110,4|8,0:2|0:2,0:0:0:0:
68,58,80228,1,0,0:0:0:0:
178,60,80571,2,0,L|181:-19,2,55,2|10|2,0:2|0:2|0:2,0:0:0:0:
206,106,81085,2,0,L|201:223,1,110,4|8,0:2|0:2,0:0:0:0:
198,269,81599,1,0,0:0:0:0:
292,335,81942,1,0,0:0:0:0:
292,335,82113,1,8,0:2:0:0:
394,375,82456,6,0,P|403:318|370:255,1,110,4|8,0:2|0:2,0:0:0:0:
352,225,82971,1,0,0:0:0:0:
413,134,83313,1,0,0:0:0:0:
353,49,83656,1,2,0:2:0:0:
353,49,83828,2,0,L|236:44,1,110,4|8,0:2|0:2,0:0:0:0:
188,41,84342,1,0,0:0:0:0:
97,100,84685,1,0,0:0:0:0:
97,100,84856,2,0,L|101:169,1,55,8|8,0:2|0:2,0:0:0:0:
103,208,85199,5,4,0:2:0:0:
28,288,85542,1,6,0:0:0:0:
80,384,85885,2,0,L|190:365,1,110,12|6,0:2|0:0,0:0:0:0:
201,256,86571,1,6,0:0:0:0:
276,176,86913,1,6,0:0:0:0:
374,222,87256,2,0,P|382:168|364:116,1,110,12|8,0:2|0:0,0:0:0:0:
274,52,87942,6,0,L|164:48,1,110,4|8,0:2|0:2,0:0:0:0:
108,47,88456,1,0,0:0:0:0:
19,113,88799,1,0,0:0:0:0:
54,218,89142,1,2,0:2:0:0:
54,218,89313,2,0,P|71:277|60:341,1,110,4|8,0:2|0:2,0:0:0:0:
40,374,89828,2,0,L|172:365,1,110
203,362,90342,1,8,0:2:0:0:
294,301,90685,6,0,P|317:251|313:196,1,110,4|8,0:2|0:2,0:0:0:0:
294,145,91199,1,0,0:0:0:0:
214,69,91542,2,0,L|142:74,2,55,2|10|2,0:2|0:2|0:2,0:0:0:0:
254,31,92056,2,0,L|366:38,1,110,4|8,0:2|0:2,0:0:0:0:
418,45,92571,1,0,0:0:0:0:
501,115,92913,1,0,0:0:0:0:
501,115,93085,1,10,0:2:0:0:
427,196,93428,6,0,P|417:250|431:303,1,110,4|8,0:2|0:2,0:0:0:0:
459,350,93942,1,0,0:0:0:0:
353,381,94285,1,0,0:0:0:0:
290,289,94628,1,2,0:2:0:0:
290,289,94799,2,0,P|231:280|161:316,1,110,4|8,0:2|0:2,0:0:0:0:
138,325,95313,1,0,0:0:0:0:
47,272,95656,1,0,0:0:0:0:
47,272,95828,2,0,L|52:192,1,55,8|0,0:2|0:0,0:0:0:0:
53,162,96171,5,4,0:2:0:0:
139,93,96513,1,4,0:0:0:0:
241,133,96856,1,8,0:2:0:0:
325,64,97199,1,4,0:0:0:0:
428,104,97542,2,0,P|432:39|411:-3,2,110,4|4|8,0:0|0:0|0:2,0:0:0:0:
446,211,98571,1,4,0:0:0:0:
362,280,98913,5,4,0:2:0:0:
260,241,99256,1,4,0:0:0:0:
241,133,99599,1,8,0:2:0:0:
139,93,99942,1,4,0:0:0:0:
53,162,100285,2,0,P|38:221|63:293,2,110,4|4|12,0:0|0:0|0:2,0:0:0:0:
139,93,101313,2,0,L|207:85,1,55,8|8,0:2|0:2,0:0:0:0:
248,78,101656,5,4,0:2:0:0:
337,142,101999,1,4,0:0:0:0:
265,225,102342,1,8,0:2:0:0:
351,293,102685,1,4,0:0:0:0:
279,376,103028,2,0,L|159:376,2,110,4|4|8,0:0|0:0|0:2,0:0:0:0:
351,293,104056,1,4,0:0:0:0:
452,336,104399,6,0,P|461:264|433:216,1,110,6|6,0:0|0:0,0:0:0:0:
348,180,105085,2,0,L|212:177,1,110,6|6,0:0|0:0,0:0:0:0:
128,174,105771,1,6,0:0:0:0:
33,372,106456,1,4,0:2:0:0:
252,356,107142,6,0,B|215:266|291:201|291:201|267:206|267:206|364:126|333:15|192:-33|137:55|132:111,1,577.500022029878,4|2,0:2|2:0,0:0:0:0:
58,188,109885,6,0,L|67:322,1,110,8|8,0:2|0:0,0:0:0:0:
146,372,110571,2,0,P|201:375|252:356,1,110,4|4,0:0|0:0,0:0:0:0:
337,287,111256,2,0,L|332:218,1,55,8|8,0:2|0:2,0:0:0:0:
289,198,111599,2,0,L|284:129,1,55,8|8,0:0|0:0,0:0:0:0:
241,109,111942,2,0,L|236:40,1,55,4|4,0:0|0:0,0:0:0:0:
193,20,112285,1,8,0:2:0:0:
106,87,112628,6,0,P|105:154|132:202,1,110,4|2,0:2|0:2,0:0:0:0:
204,265,113313,1,2,0:2:0:0:
289,198,113656,1,2,0:2:0:0:
367,274,113999,2,0,L|485:268,1,110,2|0,0:2|0:0,0:0:0:0:
502,161,114685,2,0,L|384:155,1,110,2|0,0:2|0:0,0:0:0:0:
289,198,115371,6,0,P|307:146|290:95,1,110,2|0,0:2|0:0,0:0:0:0:
220,9,116056,1,2,0:2:0:0:
122,59,116399,2,0,L|128:125,1,55,2|10,0:2|0:2,0:0:0:0:
95,159,116742,2,0,L|104:268,1,110,2|0,0:2|0:0,0:0:0:0:
49,363,117428,2,0,P|102:378|156:367,1,110,2|0,0:2|0:0,0:0:0:0:
257,325,118113,6,0,P|318:312|373:331,1,110,2|2,0:2|0:2,0:0:0:0:
456,382,118799,1,2,0:2:0:0:
459,271,119142,1,2,0:2:0:0:
462,160,119485,2,0,L|463:43,1,110,2|0,0:2|0:0,0:0:0:0:
354,29,120171,2,0,L|353:138,1,110,2|0,0:2|0:0,0:0:0:0:
352,247,120856,6,0,P|301:226|242:233,1,110,2|0,0:2|0:0,0:0:0:0:
141,262,121542,1,2,0:2:0:0:
61,185,121885,1,2,0:2:0:0:
87,77,122228,2,0,L|207:62,1,110,2|0,0:2|0:0,0:0:0:0:
305,48,122913,2,0,P|359:50|407:77,1,110,2|8,0:2|0:2,0:0:0:0:
447,115,123428,1,8,0:2:0:0:
472,163,123599,6,0,L|479:272,1,110,4|2,0:2|0:2,0:0:0:0:
399,348,124285,1,2,0:2:0:0:
297,304,124628,1,2,0:2:0:0:
217,380,124971,2,0,P|191:333|193:273,1,110,2|0,0:2|0:0,0:0:0:0:
230,175,125656,2,0,P|236:120|216:70,1,110,2|0,0:2|0:0,0:0:0:0:
112,31,126342,6,0,L|-9:27,1,110,2|0,0:2|0:0,0:0:0:0:
10,137,127028,2,0,L|131:133,1,110,2|2,0:2|0:2,0:0:0:0:
170,155,127542,1,10,0:2:0:0:
224,183,127713,2,0,L|345:179,1,110,2|0,0:2|0:0,0:0:0:0:
426,120,128399,2,0,P|446:171|436:224,1,110,2|0,0:2|0:0,0:0:0:0:
359,304,129085,5,2,0:2:0:0:
251,277,129428,1,2,0:2:0:0:
173,357,129771,2,0,P|107:356|62:323,1,110,2|2,0:2|0:2,0:0:0:0:
18,236,130456,2,0,L|27:110,1,110,2|0,0:2|0:0,0:0:0:0:
114,60,131142,2,0,L|121:169,1,110,2|0,0:2|0:0,0:0:0:0:
195,252,131828,6,0,P|271:264|326:238,1,110,2|0,0:2|0:0,0:0:0:0:
399,204,132513,1,2,0:2:0:0:
478,283,132856,1,2,0:2:0:0:
427,382,133199,2,0,L|308:376,1,110,2|0,0:2|0:0,0:0:0:0:
230,308,133885,2,0,L|111:302,1,110,2|8,0:2|0:2,0:0:0:0:
66,290,134399,1,8,0:2:0:0:
34,244,134571,6,0,P|21:190|34:137,1,110,4|0,0:2|0:0,0:0:0:0:
97,47,135256,1,2,0:2:0:0:
192,101,135599,1,2,0:2:0:0:
285,42,135942,2,0,L|411:43,1,110,2|0,0:2|0:0,0:0:0:0:
439,144,136628,2,0,L|353:144,1,55,2|10,0:2|0:2,0:0:0:0:
336,172,136971,2,0,L|250:172,1,55,2|10,0:2|0:2,0:0:0:0:
232,200,137313,6,0,P|209:248|214:303,1,110,2|0,0:2|0:0,0:0:0:0:
294,378,137999,1,2,0:2:0:0:
394,332,138342,1,2,0:2:0:0:
495,373,138685,2,0,P|502:319|482:268,1,110,2|0,0:2|0:0,0:0:0:0:
382,223,139371,2,0,L|262:218,1,110,0|8,0:0|0:2,0:0:0:0:
218,203,139885,1,8,0:2:0:0:
176,166,140056,6,0,P|156:107|171:52,1,110,4|0,0:2|0:0,0:0:0:0:
261,6,140742,1,2,0:2:0:0:
356,61,141085,1,2,0:2:0:0:
451,6,141428,2,0,P|466:72|443:127,1,110,2|0,0:2|0:0,0:0:0:0:
393,203,142113,2,0,P|369:257|385:325,1,110,2|0,0:2|0:0,0:0:0:0:
293,380,142799,5,4,0:0:0:0:
192,336,143142,2,0,L|123:333,1,55,4|8,0:0|0:2,0:0:0:0:
91,364,143485,2,0,P|91:284|59:229,1,110,4|4,0:0|0:0,0:0:0:0:
48,212,143999,1,8,0:2:0:0:
15,167,144171,2,0,P|0:114|11:61,1,110,4|4,0:2|0:0,0:0:0:0:
110,13,144856,2,0,L|170:14,1,55,8|4,0:2|0:0,0:0:0:0:
214,38,145199,2,0,L|274:39,1,55,4|4,0:0|0:0,0:0:0:0:
318,63,145542,5,4,0:2:0:0:
423,32,145885,2,0,L|420:104,1,55,4|4,0:0|0:0,0:0:0:0:
444,136,146228,2,0,L|437:284,1,110,10|4,0:2|0:0,0:0:0:0:
308,347,147085,2,0,L|232:362,2,55,4|4|4,0:0|0:0|0:0,0:0:0:0:
331,297,147599,2,0,P|317:232|266:193,1,110,8|4,0:2|0:0,0:0:0:0:
240,173,148113,1,2,0:2:0:0:
185,168,148285,5,6,0:3:0:0:
221,64,148628,2,0,L|303:61,1,55,4|4,0:0|0:0,0:0:0:0:
325,85,148971,2,0,L|446:80,1,110,8|4,0:2|0:0,0:0:0:0:
455,244,149828,2,0,L|509:246,2,55,4|4|4,0:0|0:0|0:0,0:0:0:0:
406,270,150342,1,8,0:2:0:0:
314,208,150685,2,0,L|259:205,1,55,8|4,0:2|0:0,0:0:0:0:
204,202,151028,5,6,0:0:0:0:
107,256,151371,2,0,L|115:335,1,55,4|4,0:0|0:0,0:0:0:0:
117,364,151713,2,0,L|238:359,1,110,8|4,0:2|0:0,0:0:0:0:
337,357,152399,2,0,L|342:302,1,55,4|4,0:0|0:0,0:0:0:0:
325,249,152742,2,0,L|330:194,1,55,4|4,0:0|0:0,0:0:0:0:
312,140,153085,2,0,P|363:161|418:159,1,110,8|4,0:2|0:0,0:0:0:0:
497,82,153771,5,4,0:0:0:0:
404,22,154113,2,0,L|340:19,1,55,4|4,0:0|0:0,0:0:0:0:
294,16,154456,1,8,0:2:0:0:
206,83,154799,2,0,L|145:85,1,55,4|4,0:0|0:0,0:0:0:0:
96,89,155142,2,0,P|76:146|89:211,1,110,8|8,0:0|0:0,0:0:0:0:
36,294,155828,2,0,P|96:305|145:285,1,110,8|8,0:0|0:2,0:0:0:0:
238,234,156513,5,4,0:2:0:0:
238,234,156685,2,0,P|294:217|352:232,1,110,10|10,0:2|0:2,0:0:0:0:
393,249,157199,2,0,L|386:129,1,110,2|0,0:2|0:0,0:0:0:0:
486,92,157885,2,0,L|481:168,1,55,2|10,0:2|0:2,0:0:0:0:
499,199,158228,2,0,L|494:275,1,55,2|10,0:2|0:2,0:0:0:0:
512,306,158571,2,0,P|470:353|418:362,1,110,2|0,0:2|0:0,0:0:0:0:
333,302,159256,6,0,L|273:300,1,55,2|10,0:2|0:2,0:0:0:0:
224,312,159599,2,0,L|164:310,1,55,2|10,0:2|0:2,0:0:0:0:
84,248,160113,1,8,0:2:0:0:
84,248,160285,2,0,P|78:221|80:193,1,55,2|10,0:2|0:2,0:0:0:0:
55,144,160628,2,0,L|-1:149,2,55,2|10|2,0:2|0:2|0:2,0:0:0:0:
105,120,161142,1,10,0:2:0:0:
154,94,161313,2,0,L|263:84,1,110,2|8,0:2|0:2,0:0:0:0:
355,23,161999,5,6,0:2:0:0:
453,76,162342,1,2,0:2:0:0:
456,187,162685,1,2,0:2:0:0:
361,245,163028,1,2,0:2:0:0:
263,191,163371,1,2,0:2:0:0:
168,249,163713,1,2,0:2:0:0:
171,360,164056,2,0,P|233:379|300:359,1,110,2|0,0:2|0:0,0:0:0:0:
373,318,164742,6,0,L|382:387,2,55,2|10|2,0:2|0:2|0:2,0:0:0:0:
376,262,165256,2,0,L|359:134,1,110,10|10,0:2|0:2,0:0:0:0:
371,98,165771,1,2,0:2:0:0:
288,35,166113,1,2,0:2:0:0:
288,35,166285,2,0,L|204:33,1,55,10|2,0:2|0:2,0:0:0:0:
178,40,166628,2,0,P|131:68|107:119,1,110,10|10,0:2|0:2,0:0:0:0:
100,171,167142,2,0,L|108:241,1,55,8|10,0:2|0:2,0:0:0:0:
113,280,167485,5,12,0:2:0:0:
256,192,167656,12,2,172113,2:0:0:0:
