osu file format v14

[General]
AudioFilename: audio.mp3
AudioLeadIn: 0
PreviewTime: 32742
Countdown: 0
SampleSet: Drum
StackLeniency: 0.2
Mode: 0
LetterboxInBreaks: 0
WidescreenStoryboard: 1

[Editor]
Bookmarks: 8405,11148,33091,44062,55034,76977,96177,107148,112634,134577,145548,156519,167491,172285
DistanceSpacing: 1
BeatDivisor: 4
GridSize: 4
TimelineZoom: 3.499999

[Metadata]
Title:The Victory is Ours
TitleUnicode:The Victory is Ours
Artist:Loki
ArtistUnicode:Loki
Creator:Crissa
Version:Seolv's Insane
Source:osu!
Tags:theshadowofdark gremio fa featured artists minorsonek seolv [_L_u_k_a_s_] thaehan rock instrumental metal walaowey mappers guild ma m2usonek lukas symphonic [-crissaegrim-]
BeatmapID:2284729
BeatmapSetID:1066365

[Difficulty]
HPDrainRate:5.5
CircleSize:4
OverallDifficulty:8
ApproachRate:9
SliderMultiplier:1.4
SliderTickRate:1

[Events]
//Background and Video events
0,0,"bg6614.jpg",0,0
//Break Periods
2,44255,54428
2,107342,112028
//Storyboard Layer 0 (Background)
//Storyboard Layer 1 (Fail)
//Storyboard Layer 2 (Pass)
//Storyboard Layer 3 (Foreground)
//Storyboard Layer 4 (Overlay)
//Storyboard Sound Samples

[TimingPoints]
171,342.857142857143,4,3,69,75,1,0
1542,-100,4,3,69,65,0,0
2913,-100,4,3,69,75,0,0
4285,-100,4,3,69,65,0,0
5656,-100,4,3,69,75,0,0
7028,-100,4,3,69,65,0,0
8399,-100,4,3,69,60,0,0
9771,-100,4,3,69,80,0,0
11142,-100,4,3,69,70,0,0
12256,-100,4,3,69,75,0,0
12342,-100,4,3,69,70,0,0
14999,-100,4,3,69,75,0,0
15085,-100,4,3,69,70,0,0
20742,-100,4,3,69,80,0,0
21771,-100,4,3,69,65,0,0
22113,-100,4,3,69,70,0,0
31714,-100,4,3,69,80,0,0
32057,-100,4,3,69,75,0,0
32228,-100,4,3,69,80,0,0
32742,-100,4,3,69,70,0,0
33085,-83.3333333333333,4,3,69,65,0,0
41142,-83.3333333333333,4,3,69,75,0,0
41313,-83.3333333333333,4,3,69,65,0,0
42685,-83.3333333333333,4,3,69,80,0,0
55028,-100,4,3,69,70,0,0
76971,-100,4,3,69,80,0,0
77313,-100,4,3,69,70,0,0
78171,-100,4,3,69,80,0,0
78685,-100,4,3,69,70,0,0
79713,-100,4,3,69,80,0,0
80056,-100,4,3,69,70,0,0
80571,-100,4,3,69,80,0,0
81428,-100,4,3,69,70,0,0
82456,-100,4,3,69,80,0,0
82798,-100,4,3,69,70,0,0
83656,-100,4,3,69,80,0,0
84170,-100,4,3,69,70,0,0
85198,-100,4,3,69,80,0,0
88284,-100,4,3,69,70,0,0
89142,-100,4,3,69,80,0,0
89656,-100,4,3,69,70,0,0
90684,-100,4,3,69,80,0,0
91027,-100,4,3,69,70,0,0
91542,-100,4,3,69,80,0,0
92399,-100,4,3,69,70,0,0
93427,-100,4,3,69,80,0,0
93769,-100,4,3,69,70,0,0
94627,-100,4,3,69,80,0,0
101655,-100,4,3,69,85,0,0
104399,-100,4,3,69,80,0,0
105085,-100,4,3,69,75,0,0
105771,-100,4,3,69,70,0,0
106113,-100,4,3,69,75,0,0
106285,-100,4,3,69,70,0,0
106798,-100,4,3,69,75,0,0
106971,-100,4,3,69,70,0,0
107056,-100,4,3,69,75,0,0
107142,-100,4,3,69,70,0,0
139542,-100,4,3,69,80,0,0
140227,-100,4,3,69,70,0,0
144170,-100,4,3,69,80,0,0
145542,-100,4,3,69,70,0,0
155828,-100,4,3,69,65,0,0
156513,-83.3333333333333,4,3,69,80,0,0
156598,-83.3333333333333,4,3,69,75,0,0
156685,-83.3333333333333,4,3,69,80,0,0
156856,-83.3333333333333,4,3,69,75,0,0
156942,-83.3333333333333,4,3,69,80,0,0
157542,-83.3333333333333,4,3,69,75,0,0
157628,-83.3333333333333,4,3,69,80,0,0
158742,-83.3333333333333,4,3,69,75,0,0
158913,-83.3333333333333,4,3,69,80,0,0
162171,-83.3333333333333,4,3,69,75,0,0
162342,-83.3333333333333,4,3,69,80,0,0
162428,-83.3333333333333,4,3,69,75,0,0
162685,-83.3333333333333,4,3,69,80,0,0
162856,-83.3333333333333,4,3,69,75,0,0
163028,-83.3333333333333,4,3,69,80,0,0
163113,-83.3333333333333,4,3,69,75,0,0
163199,-83.3333333333333,4,3,69,80,0,0
163799,-83.3333333333333,4,3,69,75,0,0
163885,-83.3333333333333,4,3,69,80,0,0
167484,-83.3333333333333,4,3,69,90,0,0
172113,-83.3333333333333,4,2,69,5,0,0

[Colours]
Combo1 : 255,207,128
Combo2 : 255,106,106
Combo3 : 238,213,187
Combo4 : 113,201,249

[HitObjects]
42,350,171,5,4,0:2:0:0:
480,75,856,5,4,0:2:0:0:
233,167,1199,1,4,0:2:0:0:
441,335,1542,6,0,L|448:277,3,35,10|0|0|0,0:2|0:0|0:0|0:0,0:0:0:0:
389,248,1885,2,0,L|382:190,3,35,10|0|0|0,0:2|0:0|0:0|0:0,0:0:0:0:
447,173,2228,2,0,L|454:115,3,35,10|0|2|0,0:2|0:0|0:2|0:0,0:0:0:0:
402,81,2571,2,0,L|367:85,1,35,8|8,0:0|0:0,0:0:0:0:
288,96,2742,2,0,L|253:100,1,35,8|8,0:0|0:0,0:0:0:0:
192,38,2913,5,4,0:2:0:0:
284,384,3599,5,4,0:2:0:0:
445,196,3942,1,4,0:2:0:0:
220,149,4285,6,0,L|119:138,1,70,10|0,0:2|0:0,0:0:0:0:
41,222,4628,2,0,L|142:211,1,70,10|0,0:2|0:0,0:0:0:0:
220,139,4971,2,0,L|119:128,1,70,10|0,0:2|0:0,0:0:0:0:
43,230,5313,2,0,L|144:219,1,70,10|0,0:2|0:0,0:0:0:0:
361,192,5656,5,4,0:2:0:0:
32,20,6342,5,4,0:2:0:0:
206,300,6685,1,4,0:2:0:0:
304,31,7028,6,0,L|359:42,3,35,10|0|0|0,0:2|0:0|0:0|0:0,0:0:0:0:
393,81,7371,2,0,L|410:134,3,35,10|0|0|0,0:2|0:0|0:0|0:0,0:0:0:0:
416,184,7713,2,0,L|378:226,2,35,10|0|2,0:2|0:0|0:2,0:0:0:0:
306,24,8056,2,0,L|361:35,1,35,8|8,0:0|0:0,0:0:0:0:
404,79,8228,2,0,L|421:132,1,35,8|8,0:0|0:0,0:0:0:0:
388,223,8399,5,4,0:0:0:0:
288,245,8571,1,4,0:0:0:0:
194,270,8742,1,4,0:0:0:0:
194,270,8913,1,4,0:0:0:0:
94,198,9085,5,4,0:0:0:0:
194,220,9256,1,4,0:0:0:0:
288,245,9428,1,4,0:0:0:0:
288,245,9599,1,4,0:0:0:0:
204,115,9771,5,4,0:2:0:0:
330,333,10028,5,4,0:2:0:0:
445,113,10285,5,4,0:2:0:0:
364,180,10456,1,10,0:2:0:0:
364,180,11142,6,0,L|368:94,1,70,14|0,0:2|0:0,0:0:0:0:
251,40,11485,2,0,L|254:109,1,70,10|0,0:2|0:0,0:0:0:0:
232,180,11742,1,0,0:0:0:0:
223,193,11828,2,0,L|174:185,3,35,10|0|0|0,0:2|0:0|0:0|0:0,0:0:0:0:
130,139,12171,2,0,L|95:144,3,35,10|0|0|0,0:2|0:0|0:0|0:0,0:0:0:0:
30,182,12513,5,10,0:2:0:0:
49,263,12685,1,2,0:2:0:0:
49,263,12771,1,0,0:0:0:0:
49,263,12856,1,10,0:2:0:0:
117,292,13028,2,0,L|154:281,1,35,2|2,0:2|0:2,0:0:0:0:
223,315,13199,1,10,0:2:0:0:
299,323,13371,1,2,0:2:0:0:
375,328,13542,1,10,0:2:0:0:
505,63,13885,6,0,L|509:149,1,70,10|2,0:2|0:2,0:0:0:0:
392,203,14228,2,0,L|395:133,1,70,10|0,0:2|0:0,0:0:0:0:
373,63,14485,1,0,0:0:0:0:
361,54,14571,2,0,L|312:62,3,35,10|0|0|0,0:2|0:0|0:0|0:0,0:0:0:0:
266,101,14913,2,0,L|231:95,3,35,10|0|0|0,0:2|0:0|0:0|0:0,0:0:0:0:
166,53,15256,5,10,0:2:0:0:
105,94,15428,1,2,0:2:0:0:
105,94,15513,1,0,0:0:0:0:
105,94,15599,1,10,0:2:0:0:
68,160,15771,2,0,L|74:212,1,35,2|0,0:2|0:0,0:0:0:0:
124,251,15942,1,10,0:2:0:0:
201,249,16113,1,0,0:0:0:0:
244,182,16285,1,10,0:2:0:0:
244,182,16371,1,8,0:0:0:0:
244,182,16456,2,0,L|290:171,1,35,8|8,0:0|0:0,0:0:0:0:
347,217,16628,6,0,L|343:286,1,70,14|2,0:2|0:2,0:0:0:0:
437,176,16971,2,0,L|440:245,1,70,10|2,0:2|0:2,0:0:0:0:
477,315,17228,1,0,0:0:0:0:
471,327,17313,2,0,L|422:319,1,35,10|0,0:2|0:0,0:0:0:0:
379,379,17485,5,2,0:2:0:0:
379,379,17571,1,0,0:0:0:0:
379,379,17656,1,10,0:2:0:0:
379,379,17742,1,0,0:0:0:0:
379,379,17828,1,2,0:2:0:0:
379,379,17913,1,0,0:0:0:0:
379,379,17999,1,10,0:2:0:0:
247,308,18171,5,2,0:2:0:0:
247,308,18256,1,0,0:0:0:0:
247,308,18342,1,10,0:2:0:0:
278,236,18513,2,0,L|315:225,1,35,2|0,0:2|0:0,0:0:0:0:
360,170,18685,1,10,0:2:0:0:
271,40,18856,1,2,0:2:0:0:
207,86,19028,2,0,L|172:79,3,35,10|8|8|8,0:2|0:2|0:2|0:2,0:0:0:0:
150,78,19371,6,0,P|164:118|160:165,1,70,4|10,0:2|0:2,0:0:0:0:
59,274,19713,2,0,P|73:234|69:187,1,70,2|10,0:2|0:2,0:0:0:0:
39,141,19971,1,0,0:0:0:0:
31,132,20056,2,0,L|80:124,3,35,2|0|10|0,0:2|0:0|0:2|0:0,0:0:0:0:
115,72,20399,2,0,L|149:77,3,35,2|0|10|0,0:2|0:0|0:2|0:0,0:0:0:0:
218,41,20742,5,4,0:2:0:0:
240,241,20999,5,4,0:2:0:0:
234,39,21256,5,4,0:2:0:0:
229,143,21428,1,8,0:2:0:0:
229,143,21771,6,0,L|276:135,1,35,8|8,0:2|0:0,0:0:0:0:
332,171,21942,2,0,L|379:163,1,35,8|8,0:0|0:0,0:0:0:0:
434,131,22113,6,0,L|436:44,1,70,12|0,0:2|0:0,0:0:0:0:
331,170,22456,2,0,L|333:240,1,70,10|0,0:2|0:0,0:0:0:0:
422,130,22799,2,0,L|424:43,1,70,10|0,0:2|0:0,0:0:0:0:
319,169,23142,2,0,L|320:238,1,70,10|2,0:2|0:2,0:0:0:0:
279,306,23399,5,2,0:2:0:0:
273,318,23485,2,0,P|232:301|194:308,1,70,10|2,0:2|0:2,0:0:0:0:
122,224,23828,2,0,P|156:224|187:209,1,70,10|2,0:2|0:2,0:0:0:0:
260,226,24085,1,2,0:2:0:0:
260,226,24171,1,10,0:2:0:0:
146,357,24342,1,2,0:2:0:0:
122,224,24513,2,0,P|153:208|187:209,1,70,10|0,0:2|0:0,0:0:0:0:
269,149,24856,5,10,0:2:0:0:
269,149,24942,1,0,0:0:0:0:
269,149,25028,1,2,0:2:0:0:
269,149,25113,1,2,0:2:0:0:
269,149,25199,2,0,L|274:68,1,70,10|0,0:2|0:0,0:0:0:0:
137,22,25542,2,0,L|142:68,3,35,10|0|2|0,0:2|0:0|0:2|0:0,0:0:0:0:
142,78,25885,2,0,L|72:73,1,70,10|2,0:2|0:2,0:0:0:0:
11,140,26228,5,10,0:2:0:0:
11,140,26399,1,2,0:2:0:0:
84,201,26571,1,10,0:2:0:0:
84,201,26742,1,2,0:2:0:0:
179,177,26913,1,10,0:2:0:0:
179,177,27085,1,2,0:2:0:0:
179,177,27256,2,0,L|185:221,1,35,10|8,0:2|0:0,0:0:0:0:
196,287,27428,2,0,L|202:331,1,35,8|8,0:0|0:0,0:0:0:0:
287,383,27599,6,0,L|289:296,1,70,14|2,0:2|0:2,0:0:0:0:
364,184,27942,2,0,L|365:253,1,70,10|2,0:2|0:2,0:0:0:0:
296,383,28285,2,0,L|298:296,1,70,10|2,0:2|0:2,0:0:0:0:
374,182,28628,2,0,L|375:251,1,70,10|2,0:2|0:2,0:0:0:0:
440,301,28885,5,0,0:0:0:0:
446,289,28971,2,0,P|487:306|525:299,1,70,10|0,0:2|0:0,0:0:0:0:
374,182,29313,2,0,P|339:181|308:196,1,70,10|2,0:2|0:2,0:0:0:0:
214,284,29656,1,10,0:2:0:0:
143,181,29828,1,2,0:2:0:0:
235,138,29999,2,0,L|225:200,1,35,10|8,0:2|0:2,0:0:0:0:
219,249,30171,2,0,L|209:311,1,35,8|8,0:2|0:2,0:0:0:0:
143,342,30342,6,0,L|73:337,2,70,4|10|2,0:2|0:2|0:2,0:0:0:0:
219,249,30856,1,10,0:2:0:0:
145,179,31028,2,0,L|150:225,3,35,2|0|10|0,0:2|0:0|0:2|0:0,0:0:0:0:
141,232,31371,2,0,L|71:227,1,70,2|10,0:2|0:2,0:0:0:0:
11,140,31713,5,4,0:2:0:0:
136,86,31971,5,4,0:2:0:0:
248,148,32228,5,4,0:2:0:0:
169,155,32399,1,10,0:2:0:0:
169,155,32742,6,0,L|175:199,1,35,8|8,0:2|0:2,0:0:0:0:
186,266,32913,2,0,L|192:310,1,35,8|8,0:2|0:2,0:0:0:0:
268,368,33085,5,4,0:2:0:0:
342,244,33256,2,0,L|352:344,1,83.9999974365235,8|0,0:2|0:0,0:0:0:0:
259,212,33599,1,8,0:2:0:0:
400,180,33771,5,2,0:2:0:0:
350,327,33942,1,10,0:2:0:0:
482,235,34113,1,2,0:2:0:0:
326,127,34285,1,10,0:2:0:0:
373,252,34456,5,2,0:2:0:0:
476,152,34628,2,0,P|495:104|483:55,1,83.9999974365235,8|0,0:2|0:0,0:0:0:0:
366,18,34971,1,10,0:2:0:0:
283,56,35142,2,0,L|185:43,1,83.9999974365235,2|8,0:2|0:2,0:0:0:0:
101,147,35485,2,0,L|199:134,1,83.9999974365235,2|8,0:2|0:2,0:0:0:0:
336,154,35828,5,2,0:2:0:0:
261,277,35999,2,0,P|253:232|258:178,1,83.9999974365235,8|0,0:2|0:0,0:0:0:0:
366,73,36342,1,8,0:2:0:0:
359,238,36513,5,2,0:2:0:0:
273,77,36685,1,10,0:2:0:0:
446,198,36856,1,2,0:2:0:0:
261,277,37028,1,10,0:2:0:0:
336,154,37199,5,2,0:2:0:0:
426,275,37371,2,0,L|419:378,1,83.9999974365235,8|2,0:2|0:2,0:0:0:0:
281,368,37713,1,10,0:2:0:0:
261,277,37885,2,0,L|359:290,1,83.9999974365235,2|8,0:2|0:2,0:0:0:0:
201,344,38228,1,8,0:2:0:0:
201,344,38313,1,8,0:2:0:0:
201,344,38399,1,8,0:2:0:0:
201,344,38485,1,8,0:2:0:0:
42,221,38742,6,0,L|152:201,1,83.9999974365235,12|0,0:2|0:0,0:0:0:0:
290,173,39085,1,8,0:2:0:0:
192,103,39256,5,2,0:2:0:0:
230,268,39428,1,10,0:2:0:0:
207,101,39599,1,2,0:2:0:0:
245,266,39771,1,10,0:2:0:0:
297,85,39942,6,0,L|491:95,1,167.999994873047,2|2,0:2|0:2,0:0:0:0:
508,235,40456,1,10,0:2:0:0:
443,296,40628,2,0,P|421:245|425:213,1,83.9999974365235,2|8,0:2|0:2,0:0:0:0:
322,172,40971,2,0,P|355:127|384:114,1,83.9999974365235,2|8,0:2|0:2,0:0:0:0:
483,71,41313,5,2,0:2:0:0:
359,8,41485,2,0,L|243:20,1,83.9999974365235,8|0,0:2|0:0,0:0:0:0:
218,86,41828,2,0,L|134:77,1,83.9999974365235,10|2,0:2|0:2,0:0:0:0:
17,69,42171,2,0,L|27:156,2,83.9999974365235,10|2|10,0:2|0:2|0:2,0:0:0:0:
125,0,42685,5,4,0:2:0:0:
143,160,42942,5,4,0:2:0:0:
162,312,43199,5,4,0:2:0:0:
240,265,43371,1,12,0:2:0:0:
59,170,43713,5,8,0:2:0:0:
101,165,43798,1,8,0:2:0:0:
143,160,43884,1,8,0:2:0:0:
184,154,43970,1,8,0:2:0:0:
226,149,44055,1,12,0:2:0:0:
114,326,55028,5,4,0:2:0:0:
181,218,55199,2,0,L|180:308,1,70,8|0,0:2|0:0,0:0:0:0:
192,297,55456,2,0,L|194:255,1,35,0|8,0:0|0:2,0:0:0:0:
200,137,55713,2,0,L|269:137,1,70,2|8,0:2|0:2,0:0:0:0:
343,226,56056,2,0,L|273:225,1,70,2|8,0:2|0:2,0:0:0:0:
419,132,56399,5,2,0:2:0:0:
419,152,56485,1,0,0:0:0:0:
419,170,56571,1,8,0:2:0:0:
414,300,56742,2,0,L|466:300,4,35,0|0|8|0|2,0:0|0:0|0:2|0:0|0:2,0:0:0:0:
330,373,57256,1,8,0:2:0:0:
259,301,57428,2,0,L|259:266,2,35,0|0|8,0:0|0:0|0:2,0:0:0:0:
116,369,57771,5,2,0:2:0:0:
56,302,57942,2,0,P|94:277|133:281,1,70,8|0,0:2|0:0,0:0:0:0:
139,286,58199,1,0,0:0:0:0:
140,286,58285,1,8,0:2:0:0:
194,209,58456,2,0,L|201:114,1,70,2|8,0:2|0:2,0:0:0:0:
119,94,58799,2,0,L|112:-1,1,70,0|8,0:0|0:2,0:0:0:0:
240,6,59142,5,2,0:2:0:0:
313,40,59313,1,8,0:2:0:0:
306,118,59485,1,0,0:0:0:0:
306,118,59656,1,8,0:2:0:0:
389,171,59828,6,0,L|469:162,1,70,2|8,0:2|0:2,0:0:0:0:
477,317,60171,2,0,L|429:320,1,35,8|8,0:2|0:2,0:0:0:0:
414,320,60342,2,0,L|366:323,1,35,8|8,0:2|0:2,0:0:0:0:
341,382,60513,5,4,0:2:0:0:
274,274,60685,2,0,L|275:364,1,70,8|0,0:2|0:0,0:0:0:0:
263,353,60942,2,0,L|261:311,1,35,0|8,0:0|0:2,0:0:0:0:
255,193,61199,2,0,L|185:193,1,70,2|8,0:2|0:2,0:0:0:0:
112,282,61542,2,0,L|181:281,1,70,2|8,0:2|0:2,0:0:0:0:
105,126,61885,5,2,0:2:0:0:
105,146,61971,1,0,0:0:0:0:
105,164,62056,1,8,0:2:0:0:
112,282,62228,2,0,L|60:282,4,35,0|0|8|0|2,0:0|0:0|0:2|0:0|0:2,0:0:0:0:
193,345,62742,1,8,0:2:0:0:
255,268,62913,2,0,L|255:233,2,35,0|0|8,0:0|0:0|0:2,0:0:0:0:
188,179,63256,5,2,0:2:0:0:
253,128,63428,2,0,P|287:132|314:153,1,70,8|0,0:2|0:0,0:0:0:0:
338,179,63685,1,0,0:0:0:0:
337,179,63771,1,8,0:2:0:0:
409,130,63942,2,0,L|402:35,1,70,2|8,0:2|0:2,0:0:0:0:
490,163,64285,2,0,L|484:232,1,70,0|8,0:0|0:2,0:0:0:0:
431,301,64628,5,10,0:2:0:0:
431,301,64799,1,8,0:0:0:0:
431,301,64971,1,8,0:0:0:0:
431,301,65142,1,10,0:2:0:0:
351,359,65313,6,0,L|271:350,1,70,8|8,0:0|0:2,0:0:0:0:
224,295,65656,2,0,L|154:287,1,70,4|8,0:0|0:2,0:0:0:0:
52,354,65999,5,4,0:2:0:0:
2,265,66171,2,0,L|2:195,1,70,8|0,0:2|0:0,0:0:0:0:
15,192,66428,2,0,L|14:227,1,35,0|8,0:0|0:2,0:0:0:0:
52,354,66685,2,0,L|143:341,1,70,2|8,0:2|0:2,0:0:0:0:
228,272,67028,2,0,L|137:259,1,70,2|8,0:2|0:2,0:0:0:0:
105,174,67371,5,2,0:2:0:0:
105,156,67456,1,0,0:0:0:0:
105,136,67542,1,8,0:2:0:0:
155,68,67713,2,0,L|207:68,4,35,0|0|8|0|2,0:0|0:0|0:2|0:0|0:2,0:0:0:0:
198,149,68228,1,8,0:2:0:0:
273,100,68399,2,0,L|273:65,2,35,0|0|8,0:0|0:0|0:2,0:0:0:0:
346,167,68742,5,2,0:2:0:0:
423,119,68913,2,0,P|418:84|397:57,1,70,8|0,0:2|0:0,0:0:0:0:
377,40,69171,1,0,0:0:0:0:
378,40,69256,1,8,0:2:0:0:
273,100,69428,2,0,L|203:94,1,70,2|8,0:2|0:2,0:0:0:0:
131,188,69771,2,0,L|226:181,1,70,0|8,0:0|0:2,0:0:0:0:
259,266,70113,5,2,0:2:0:0:
197,336,70285,1,8,0:2:0:0:
107,336,70456,1,0,0:0:0:0:
197,336,70628,1,8,0:2:0:0:
259,266,70799,6,0,L|325:259,3,35,2|0|10|0,0:2|0:0|0:2|0:0,0:0:0:0:
316,260,71142,2,0,L|382:253,3,35,10|8|10|8,0:2|0:2|0:2|0:2,0:0:0:0:
376,252,71485,5,4,0:2:0:0:
441,187,71656,2,0,L|440:117,1,70,8|0,0:2|0:0,0:0:0:0:
451,119,71913,2,0,L|452:153,1,35,0|8,0:0|0:2,0:0:0:0:
512,274,72171,2,0,P|476:279|439:303,1,70,2|8,0:2|0:2,0:0:0:0:
371,373,72513,2,0,P|335:368|298:344,1,70,2|8,0:2|0:2,0:0:0:0:
267,238,72856,5,2,0:2:0:0:
267,258,72942,1,0,0:0:0:0:
267,276,73028,1,8,0:2:0:0:
188,337,73199,2,0,L|136:337,3,35,0|0|8|0,0:0|0:0|0:2|0:0,0:0:0:0:
117,335,73542,1,2,0:2:0:0:
61,267,73713,2,0,L|61:232,4,35,8|0|0|0|8,0:2|0:0|0:0|0:0|0:2,0:0:0:0:
156,237,74228,5,2,0:2:0:0:
117,155,74399,2,0,P|89:133|55:129,1,70,8|0,0:2|0:0,0:0:0:0:
28,144,74656,1,0,0:0:0:0:
27,144,74742,1,8,0:2:0:0:
0,42,74913,2,0,L|95:35,1,70,2|8,0:2|0:2,0:0:0:0:
169,63,75256,2,0,L|264:56,1,70,0|8,0:0|0:2,0:0:0:0:
304,130,75599,5,2,0:2:0:0:
304,130,75771,1,10,0:2:0:0:
304,130,75942,1,2,0:2:0:0:
304,130,76113,1,10,0:2:0:0:
378,72,76285,5,10,0:2:0:0:
378,72,76799,2,0,L|386:135,1,35,8|8,0:2|0:2,0:0:0:0:
336,181,76971,5,12,0:2:0:0:
336,181,77313,1,8,0:2:0:0:
279,234,77485,2,0,L|229:230,2,35
272,310,77828,2,0,L|222:306,2,35,0|0|8,0:0|0:0|0:2,0:0:0:0:
384,316,78171,1,2,0:2:0:0:
485,319,78342,1,4,0:2:0:0:
199,375,78685,5,8,0:2:0:0:
145,320,78856,2,0,L|138:267,2,35
196,229,79199,2,0,L|203:176,2,35,0|0|8,0:0|0:0|0:2,0:0:0:0:
67,266,79542,1,0,0:0:0:0:
67,266,79628,1,0,0:0:0:0:
67,266,79713,1,4,0:2:0:0:
35,90,80056,5,8,0:2:0:0:
97,47,80228,2,0,L|91:2,2,35
162,91,80571,2,0,L|157:125,2,35,2|0|10,0:2|0:0|0:2,0:0:0:0:
219,44,80913,1,2,0:2:0:0:
287,81,81085,5,4,0:2:0:0:
309,265,81428,1,8,0:2:0:0:
355,200,81599,2,0,L|408:204,2,35
289,157,81942,1,0,0:0:0:0:
289,157,82028,1,0,0:0:0:0:
289,157,82113,2,0,L|236:161,2,35,8|8|8,0:2|0:2|0:2,0:0:0:0:
119,207,82456,5,4,0:2:0:0:
119,207,82799,1,8,0:2:0:0:
172,264,82971,2,0,L|168:314,2,35
248,271,83313,2,0,L|244:321,2,35,0|0|8,0:0|0:0|0:2,0:0:0:0:
254,159,83656,1,2,0:2:0:0:
257,58,83828,1,4,0:2:0:0:
39,237,84171,5,8,0:2:0:0:
78,162,84342,2,0,L|71:109,2,35
161,189,84685,2,0,L|156:223,1,35
125,299,84856,1,8,0:2:0:0:
125,299,84942,1,8,0:2:0:0:
125,299,85028,1,8,0:2:0:0:
125,299,85113,1,8,0:2:0:0:
125,299,85199,1,4,0:2:0:0:
430,350,85542,5,6,0:0:0:0:
73,88,85885,5,12,0:2:0:0:
446,32,86228,5,6,0:0:0:0:
185,208,86571,5,6,0:0:0:0:
485,279,86913,5,6,0:0:0:0:
33,365,87256,5,12,0:2:0:0:
33,365,87599,6,0,L|39:306,1,35,8|8,0:0|0:0,0:0:0:0:
47,254,87771,2,0,L|53:195,1,35,8|8,0:0|0:0,0:0:0:0:
69,133,87942,5,4,0:2:0:0:
69,133,88285,1,8,0:2:0:0:
126,186,88456,2,0,L|176:182,2,35
133,262,88799,2,0,L|183:258,2,35,0|0|8,0:0|0:0|0:2,0:0:0:0:
224,339,89142,1,2,0:2:0:0:
303,262,89313,1,4,0:2:0:0:
512,371,89656,5,8,0:2:0:0:
459,308,89828,2,0,L|466:255,2,35
395,230,90171,2,0,L|388:177,2,35,0|0|8,0:0|0:0|0:2,0:0:0:0:
460,153,90513,1,0,0:0:0:0:
460,153,90599,1,0,0:0:0:0:
460,153,90685,1,4,0:2:0:0:
186,31,91028,5,8,0:2:0:0:
254,80,91199,2,0,L|260:35,2,35,0|0|0,0:0|0:0|0:2,0:0:0:0:
201,138,91542,2,0,L|205:172,2,35,2|0|10,0:2|0:0|0:2,0:0:0:0:
186,31,91885,1,2,0:2:0:0:
104,77,92056,5,4,0:2:0:0:
148,299,92399,1,8,0:2:0:0:
76,253,92571,2,0,L|23:257,2,35
158,190,92913,1,0,0:0:0:0:
158,190,92999,1,0,0:0:0:0:
158,190,93085,2,0,L|211:194,3,35,8|8|8|8,0:2|0:0|0:0|0:0,0:0:0:0:
218,193,93428,5,4,0:2:0:0:
290,36,93771,1,8,0:2:0:0:
346,89,93942,2,0,L|350:139,2,35
447,85,94285,2,0,L|451:135,2,35,0|0|8,0:0|0:0|0:2,0:0:0:0:
411,193,94628,1,2,0:2:0:0:
478,282,94799,1,4,0:2:0:0:
227,327,95142,5,8,0:2:0:0:
289,276,95313,2,0,L|296:223,2,35
164,282,95656,2,0,L|159:247,1,35
224,186,95828,1,8,0:2:0:0:
224,186,95913,1,8,0:2:0:0:
224,186,95999,1,8,0:2:0:0:
224,186,96085,1,8,0:2:0:0:
224,186,96171,1,4,0:2:0:0:
27,373,96513,5,4,0:0:0:0:
288,52,96856,5,8,0:2:0:0:
451,384,97199,5,4,0:0:0:0:
99,162,97542,5,4,0:0:0:0:
455,201,97885,5,4,0:0:0:0:
256,383,98228,6,0,L|256:328,3,46.6666666666667,8|0|0|4,0:2|0:0|0:0|0:0,0:0:0:0:
40,67,98913,5,4,0:2:0:0:
446,129,99256,5,4,0:0:0:0:
34,193,99599,5,8,0:2:0:0:
440,255,99942,5,4,0:0:0:0:
24,302,100285,5,4,0:0:0:0:
430,364,100628,5,4,0:0:0:0:
289,27,100971,5,12,0:2:0:0:
289,27,101313,1,8,0:2:0:0:
254,23,101399,1,8,0:2:0:0:
220,32,101485,1,8,0:2:0:0:
193,54,101571,1,8,0:2:0:0:
176,84,101656,1,4,0:2:0:0:
473,236,101999,5,4,0:0:0:0:
54,352,102342,5,8,0:2:0:0:
395,74,102685,5,4,0:0:0:0:
369,384,103028,5,4,0:0:0:0:
85,75,103371,5,4,0:0:0:0:
423,203,103713,6,0,L|478:203,3,46.6666666666667,8|0|0|4,0:2|0:0|0:0|0:0,0:0:0:0:
166,329,104399,5,6,0:0:0:0:
256,28,104742,5,6,0:0:0:0:
346,329,105085,5,6,0:0:0:0:
256,28,105428,5,6,0:0:0:0:
68,243,105771,6,0,P|85:208|192:188,1,140,6|0,0:0|0:0,0:0:0:0:
277,279,106285,2,0,L|281:211,1,35,2|0,0:2|0:0,0:0:0:0:
258,146,106456,2,0,P|275:181|382:201,1,140,4|0,0:2|0:0,0:0:0:0:
466,116,106971,6,0,L|468:73,3,23.3333333333333,2|2|2|6,0:2|0:2|0:0|0:2,0:0:0:0:
497,373,112628,5,4,0:2:0:0:
360,352,112799,1,8,0:2:0:0:
497,373,112971,2,0,L|487:286,1,70,2|8,0:2|0:2,0:0:0:0:
419,189,113313,2,0,L|411:258,1,70,2|8,0:2|0:2,0:0:0:0:
485,374,113656,2,0,L|477:304,1,70,2|8,0:2|0:2,0:0:0:0:
458,98,113999,6,0,L|359:115,1,70,2|8,0:2|0:2,0:0:0:0:
245,144,114342,2,0,L|344:161,1,70,0|8,0:0|0:2,0:0:0:0:
456,7,114685,6,0,L|357:24,1,70,2|8,0:2|0:2,0:0:0:0:
243,53,115028,2,0,L|342:70,1,70,0|8,0:0|0:2,0:0:0:0:
431,240,115371,6,0,P|395:211|392:160,1,70,2|8,0:2|0:2,0:0:0:0:
464,127,115713,2,0,P|500:156|503:207,1,70,0|8,0:0|0:2,0:0:0:0:
419,244,116056,2,0,P|383:215|380:164,1,70,2|8,0:2|0:2,0:0:0:0:
245,144,116399,5,2,0:2:0:0:
177,220,116571,1,10,0:2:0:0:
223,305,116742,1,2,0:2:0:0:
78,355,116913,5,8,0:2:0:0:
78,355,117085,1,0,0:0:0:0:
77,339,117171,1,0,0:0:0:0:
76,322,117256,1,8,0:2:0:0:
7,188,117428,2,0,L|1:277,1,70,2|8,0:2|0:2,0:0:0:0:
98,164,117771,2,0,L|93:94,1,70,0|8,0:0|0:2,0:0:0:0:
15,11,118113,5,2,0:2:0:0:
152,32,118285,1,8,0:2:0:0:
15,11,118456,2,0,L|25:98,1,70,2|8,0:2|0:2,0:0:0:0:
93,195,118799,2,0,L|100:125,1,70,2|8,0:2|0:2,0:0:0:0:
27,10,119142,2,0,L|34:79,1,70,2|8,0:2|0:2,0:0:0:0:
54,286,119485,6,0,L|153:269,1,70,2|8,0:2|0:2,0:0:0:0:
267,240,119828,2,0,L|168:223,1,70,0|8,0:0|0:2,0:0:0:0:
56,377,120171,6,0,L|155:360,1,70,2|8,0:2|0:2,0:0:0:0:
269,331,120513,2,0,L|170:314,1,70,0|8,0:0|0:2,0:0:0:0:
81,144,120856,6,0,P|117:173|120:224,1,70,2|8,0:2|0:2,0:0:0:0:
48,257,121199,2,0,P|12:228|9:177,1,70,0|8,0:0|0:2,0:0:0:0:
93,140,121542,2,0,P|129:169|132:220,1,70,2|8,0:2|0:2,0:0:0:0:
113,351,121885,5,2,0:2:0:0:
181,275,122056,1,10,0:2:0:0:
135,190,122228,1,2,0:2:0:0:
280,140,122399,5,8,0:2:0:0:
280,140,122571,1,0,0:0:0:0:
281,156,122656,1,0,0:0:0:0:
282,173,122742,1,8,0:2:0:0:
351,307,122913,2,0,L|357:218,1,70,2|8,0:2|0:2,0:0:0:0:
260,331,123256,2,0,L|263:380,2,35,8|8|8,0:2|0:2|0:2,0:0:0:0:
355,237,123599,5,4,0:2:0:0:
218,216,123771,1,8,0:2:0:0:
355,237,123942,2,0,L|345:150,1,70,2|8,0:2|0:2,0:0:0:0:
266,46,124285,2,0,L|258:115,1,70,2|8,0:2|0:2,0:0:0:0:
391,69,124628,2,0,L|383:0,1,70,2|8,0:2|0:2,0:0:0:0:
258,115,124971,6,0,L|159:132,1,70,2|8,0:2|0:2,0:0:0:0:
125,37,125313,2,0,L|56:25,1,70,0|8,0:0|0:2,0:0:0:0:
40,179,125656,6,0,L|23:80,1,70,2|8,0:2|0:2,0:0:0:0:
132,232,125999,2,0,L|115:331,1,70,0|8,0:0|0:2,0:0:0:0:
267,370,126342,6,0,P|231:341|228:290,1,70,2|8,0:2|0:2,0:0:0:0:
310,258,126685,2,0,P|346:287|349:338,1,70,0|8,0:0|0:2,0:0:0:0:
256,378,127028,2,0,P|220:349|217:298,1,70,2|8,0:2|0:2,0:0:0:0:
245,147,127371,5,2,0:2:0:0:
146,135,127542,1,10,0:2:0:0:
180,229,127713,1,2,0:2:0:0:
206,69,127885,5,8,0:2:0:0:
96,221,128056,1,0,0:0:0:0:
97,238,128142,1,0,0:0:0:0:
98,254,128228,1,8,0:2:0:0:
261,302,128399,2,0,L|265:232,1,70,2|8,0:2|0:2,0:0:0:0:
206,69,128742,1,0,0:0:0:0:
208,103,128827,1,0,0:0:0:0:
210,138,128913,1,8,0:2:0:0:
358,178,129085,5,2,0:2:0:0:
341,33,129256,1,8,0:2:0:0:
358,178,129428,2,0,L|368:265,1,70,2|8,0:2|0:2,0:0:0:0:
452,343,129771,2,0,L|459:273,1,70,2|8,0:2|0:2,0:0:0:0:
347,179,130113,2,0,L|354:248,1,70,2|8,0:2|0:2,0:0:0:0:
268,361,130456,6,0,L|200:373,1,70,2|8,0:2|0:2,0:0:0:0:
112,260,130799,2,0,L|180:271,1,70,0|8,0:0|0:2,0:0:0:0:
268,361,131142,6,0,L|200:373,1,70,2|8,0:2|0:2,0:0:0:0:
110,246,131485,2,0,L|178:257,1,70,0|8,0:0|0:2,0:0:0:0:
315,235,131828,6,0,P|279:206|276:155,1,70,2|8,0:2|0:2,0:0:0:0:
189,134,132171,2,0,P|218:98|269:95,1,70,0|8,0:0|0:2,0:0:0:0:
306,8,132513,2,0,P|342:37|345:88,1,70,2|8,0:2|0:2,0:0:0:0:
421,116,132856,2,0,P|392:152|341:155,1,70,2|8,0:2|0:2,0:0:0:0:
239,91,133199,5,2,0:2:0:0:
140,42,133371,1,8,0:2:0:0:
75,113,133542,1,0,0:0:0:0:
76,129,133628,1,0,0:0:0:0:
77,146,133713,1,8,0:2:0:0:
158,214,133885,2,0,L|164:125,1,70,2|8,0:2|0:2,0:0:0:0:
65,253,134228,2,0,L|68:302,3,35,8|8|8|8,0:2|0:2|0:2|0:2,0:0:0:0:
77,331,134571,6,0,P|128:308|172:306,3,70,4|8|0|8,0:2|0:2|0:0|0:2,0:0:0:0:
190,222,135256,2,0,P|241:245|285:247,1,70,2|8,0:2|0:2,0:0:0:0:
323,308,135599,2,0,P|374:285|418:283,1,70,2|8,0:2|0:2,0:0:0:0:
496,376,135942,6,0,L|486:286,3,70,2|8|0|8,0:2|0:2|0:0|0:2,0:0:0:0:
470,171,136628,1,2,0:2:0:0:
470,171,136799,1,10,0:2:0:0:
470,171,136971,1,2,0:2:0:0:
470,171,137142,1,10,0:2:0:0:
349,95,137313,6,0,P|287:109|257:134,1,70,2|8,0:2|0:2,0:0:0:0:
212,183,137656,2,8,P|193:243|199:282,1,70,0|8,0:0|0:2,0:0:0:0:
290,274,137999,2,0,P|308:213|302:174,1,70,2|10,0:2|0:2,0:0:0:0:
282,111,138342,2,0,P|238:64|202:50,1,70,2|8,0:2|0:2,0:0:0:0:
110,150,138685,5,2,0:2:0:0:
212,183,138856,1,8,0:2:0:0:
179,290,139028,1,0,0:0:0:0:
77,257,139199,1,8,0:2:0:0:
110,150,139371,1,0,0:0:0:0:
212,183,139542,1,8,0:2:0:0:
179,290,139713,2,0,L|168:331,3,35,8|8|8|8,0:2|0:2|0:2|0:2,0:0:0:0:
165,359,140056,6,0,P|216:336|260:334,3,70,4|8|0|8,0:2|0:2|0:0|0:2,0:0:0:0:
284,234,140742,2,0,P|335:257|379:259,1,70,2|8,0:2|0:2,0:0:0:0:
447,326,141085,2,0,P|413:334|382:351,1,70,2|8,0:2|0:2,0:0:0:0:
284,234,141428,6,0,L|274:144,3,70,2|8|0|8,0:2|0:2|0:0|0:2,0:0:0:0:
363,83,142113,1,2,0:2:0:0:
363,83,142285,1,8,0:2:0:0:
363,83,142456,1,0,0:0:0:0:
363,83,142628,1,8,0:2:0:0:
239,19,142799,6,0,P|177:33|147:58,1,70,4|8,0:0|0:2,0:0:0:0:
143,211,143142,1,4,0:0:0:0:
143,211,143313,1,8,0:2:0:0:
143,211,143485,2,0,P|99:164|63:150,1,70,4|8,0:0|0:2,0:0:0:0:
28,220,143828,2,8,P|71:266|107:280,1,70,4|8,0:0|0:2,0:0:0:0:
247,348,144171,5,4,0:2:0:0:
211,193,144342,1,4,0:0:0:0:
251,363,144513,5,4,0:0:0:0:
212,183,144685,1,4,0:0:0:0:
326,266,144856,5,8,0:2:0:0:
118,289,145028,1,4,0:0:0:0:
200,86,145199,2,0,L|233:95,3,35,4|0|4|0,0:0|0:0|0:0|0:0,0:0:0:0:
261,101,145542,5,4,0:2:0:0:
261,101,145885,1,4,0:0:0:0:
141,133,146056,1,4,0:0:0:0:
23,171,146228,5,10,0:2:0:0:
249,229,146571,1,4,0:0:0:0:
475,287,146913,1,0,0:0:0:0:
384,178,147085,5,4,0:0:0:0:
384,178,147256,1,4,0:0:0:0:
384,178,147428,1,4,0:0:0:0:
331,108,147599,5,8,0:2:0:0:
224,87,147771,5,2,0:2:0:0:
111,132,147942,5,4,0:0:0:0:
67,255,148113,5,2,0:2:0:0:
134,308,148285,5,6,0:3:0:0:
134,308,148628,1,4,0:0:0:0:
321,356,148799,1,4,0:0:0:0:
269,174,148971,1,8,0:2:0:0:
269,174,149313,1,4,0:0:0:0:
470,364,149656,5,0,0:0:0:0:
470,364,149828,1,4,0:0:0:0:
470,364,149999,1,4,0:0:0:0:
470,364,150171,1,4,0:0:0:0:
392,214,150342,5,8,0:2:0:0:
334,348,150513,1,4,0:0:0:0:
392,214,150685,1,8,0:2:0:0:
334,348,150856,1,4,0:0:0:0:
248,263,151028,5,6,0:0:0:0:
248,263,151371,1,4,0:0:0:0:
368,231,151542,1,4,0:0:0:0:
486,193,151713,5,8,0:2:0:0:
260,135,152056,1,4,0:0:0:0:
34,77,152399,1,4,0:0:0:0:
125,186,152571,5,4,0:0:0:0:
125,186,152742,1,4,0:0:0:0:
125,186,152913,1,4,0:0:0:0:
178,256,153085,5,8,0:2:0:0:
225,24,153428,1,4,0:0:0:0:
432,179,153771,5,4,0:0:0:0:
432,179,154113,1,4,0:0:0:0:
294,154,154285,1,4,0:0:0:0:
160,129,154456,1,8,0:2:0:0:
294,154,154628,1,4,0:0:0:0:
432,179,154799,1,4,0:0:0:0:
294,154,154971,1,4,0:0:0:0:
184,274,155142,6,0,L|190:322,2,35,8|0|0,0:0|0:0|0:0,0:0:0:0:
266,336,155485,2,0,L|260:384,2,35,8|0|0,0:0|0:0|0:0,0:0:0:0:
173,277,155828,2,0,L|179:325,2,35,8|0|4,0:0|0:0|0:0,0:0:0:0:
261,236,156171,1,8,0:2:0:0:
261,236,156513,6,0,L|255:168,1,41.9999987182618,4|0,0:2|0:0,0:0:0:0:
163,73,156685,2,0,L|157:178,1,83.9999974365235,10|0,0:2|0:0,0:0:0:0:
158,182,156942,1,0,0:0:0:0:
157,203,157028,1,10,0:2:0:0:
250,99,157199,1,2,0:2:0:0:
339,195,157371,2,0,P|368:168|427:166,1,83.9999974365235,10|0,0:2|0:0,0:0:0:0:
434,168,157628,1,0,0:0:0:0:
460,182,157713,1,10,0:2:0:0:
503,294,157885,5,2,0:2:0:0:
380,322,158056,1,10,0:2:0:0:
255,351,158228,1,2,0:2:0:0:
258,329,158313,1,0,0:0:0:0:
260,308,158399,1,10,0:2:0:0:
128,218,158571,5,2,0:2:0:0:
145,330,158742,1,8,0:2:0:0:
128,218,158913,1,0,0:0:0:0:
145,330,159085,1,8,0:2:0:0:
215,193,159256,5,2,0:2:0:0:
117,127,159428,2,0,P|69:146|47:195,1,83.9999974365235,10|2,0:2|0:2,0:0:0:0:
44,192,159685,1,0,0:0:0:0:
40,208,159771,2,0,P|32:259|63:302,1,83.9999974365235,10|0,0:2|0:0,0:0:0:0:
140,368,160113,1,8,0:2:0:0:
239,300,160285,1,2,0:2:0:0:
239,300,160371,1,0,0:0:0:0:
239,300,160456,1,10,0:2:0:0:
315,377,160628,5,2,0:2:0:0:
304,206,160799,1,10,0:2:0:0:
315,377,160971,2,0,L|312:318,1,41.9999987182618,2|0,0:2|0:0,0:0:0:0:
304,206,161142,1,10,0:2:0:0:
397,333,161313,5,2,0:2:0:0:
397,333,161485,1,8,0:2:0:0:
397,333,161656,1,8,0:2:0:0:
398,291,161742,1,8,0:2:0:0:
400,249,161828,1,8,0:2:0:0:
402,207,161913,1,8,0:2:0:0:
403,165,161999,1,6,0:2:0:0:
271,77,162171,6,0,L|166:71,1,83.9999974365235,8|2,0:2|0:2,0:0:0:0:
161,71,162428,1,0,0:0:0:0:
139,66,162513,2,0,L|149:133,1,41.9999987182618,8|0,0:2|0:0,0:0:0:0:
204,171,162685,1,2,0:2:0:0:
204,171,162856,2,0,L|194:238,1,41.9999987182618,8|0,0:2|0:0,0:0:0:0:
132,277,163028,1,2,0:2:0:0:
132,277,163113,1,0,0:0:0:0:
132,277,163199,1,8,0:2:0:0:
239,334,163371,5,2,0:2:0:0:
362,306,163542,1,8,0:2:0:0:
487,277,163713,1,2,0:2:0:0:
484,299,163799,1,0,0:0:0:0:
482,320,163885,1,8,0:2:0:0:
411,214,164056,5,2,0:2:0:0:
394,102,164228,1,10,0:2:0:0:
411,214,164399,1,0,0:0:0:0:
394,102,164571,1,8,0:2:0:0:
295,184,164742,5,2,0:2:0:0:
214,112,164913,2,0,P|166:131|144:180,1,83.9999974365235,10|2,0:2|0:2,0:0:0:0:
135,183,165171,1,0,0:0:0:0:
135,183,165256,2,0,P|142:131|111:88,1,83.9999974365235,10|0,0:2|0:2,0:0:0:0:
107,82,165513,1,0,0:0:0:0:
107,82,165599,1,10,0:2:0:0:
239,2,165771,6,0,L|301:6,1,41.9999987182618,2|0,0:2|0:0,0:0:0:0:
340,51,165942,2,0,L|381:48,1,41.9999987182618,10|0,0:2|0:0,0:0:0:0:
437,0,166113,2,0,L|499:4,1,41.9999987182618,2|0,0:2|0:0,0:0:0:0:
512,119,166285,1,10,0:2:0:0:
425,202,166456,6,0,L|366:192,1,41.9999987182618,2|0,0:2|0:0,0:0:0:0:
372,275,166628,2,0,L|413:282,1,41.9999987182618,10|0,0:2|0:0,0:0:0:0:
428,191,166799,2,0,L|369:181,1,41.9999987182618
372,293,166971,2,0,L|413:300,1,41.9999987182618,10|0,0:2|0:0,0:0:0:0:
299,220,167142,5,8,0:2:0:0:
257,225,167228,1,8,0:2:0:0:
215,230,167313,1,10,0:2:0:0:
174,236,167399,1,8,0:2:0:0:
132,241,167485,1,12,0:2:0:0:
256,192,167571,12,2,172113,2:0:0:0:
