osu file format v14

[General]
AudioFilename: audio.mp3
AudioLeadIn: 0
PreviewTime: 50144
Countdown: 0
SampleSet: Soft
StackLeniency: 0.5
Mode: 0
LetterboxInBreaks: 0
WidescreenStoryboard: 1

[Editor]
Bookmarks: 4572,196430
DistanceSpacing: 0.8
BeatDivisor: 8
GridSize: 4
TimelineZoom: 1.6

[Metadata]
Title:Quiet Village
TitleUnicode:Quiet Village
Artist:Loki
ArtistUnicode:Loki
Creator:Gero
Version:The Legend of Loki: Circles of Time
Source:osu!
Tags:TheShadowOfDark Thaehan FA Featured Artist Mappers Mappers' Guild MPG MG Gremio Loki's "Tales of the Mountains" Green Trees on Fields Beatmap Pack Symphonic Symphony Orchestra Orchestral Metal Instrumental Rock Folk
BeatmapID:2272217
BeatmapSetID:1050693

[Difficulty]
HPDrainRate:5
CircleSize:4
OverallDifficulty:6
ApproachRate:8
SliderMultiplier:1.8
SliderTickRate:1

[Events]
//Background and Video events
0,0,"BG.jpg",0,0
//Break Periods
//Storyboard Layer 0 (Background)
//Storyboard Layer 1 (Fail)
//Storyboard Layer 2 (Pass)
//Storyboard Layer 3 (Foreground)
//Storyboard Layer 4 (Overlay)
//Storyboard Sound Samples

[TimingPoints]
4573,571.428571428571,4,2,1,30,1,0
4573,-83.3333333333333,4,2,1,30,0,0
13715,-76.9230769230769,4,2,1,35,0,0
41144,-76.9230769230769,4,2,1,40,0,0
50287,-66.6666666666667,4,2,1,60,0,0
77715,-83.3333333333333,4,2,1,20,0,0
86858,-83.3333333333333,4,2,1,30,0,0
96001,-83.3333333333333,4,2,1,35,0,0
114287,-50,4,2,1,60,0,1
169144,-76.9230769230769,4,2,1,30,0,0
178001,-76.9230769230769,4,2,1,35,0,0
178287,-76.9230769230769,4,2,1,60,0,0

[Colours]
Combo1 : 203,112,50
Combo2 : 136,159,43

[HitObjects]
256,304,4572,5,2,0:0:0:0:
440,192,5144,1,2,0:0:0:0:
256,80,5715,1,2,0:0:0:0:
72,192,6287,1,2,0:0:0:0:
256,304,6858,5,2,0:0:0:0:
174,244,7144,1,2,0:0:0:0:
205,148,7430,1,0,0:0:0:0:
307,148,7715,1,2,0:0:0:0:
338,244,8001,6,0,L|376:344,1,107.999996704102,2|0,0:0|0:0,0:0:0:0:
174,244,8572,2,0,L|135:344,1,107.999996704102,2|0,0:0|0:0,0:0:0:0:
256,304,9144,5,2,0:0:0:0:
256,304,9715,5,2,0:0:0:0:
338,244,10001,1,0,0:0:0:0:
256,184,10287,1,2,0:0:0:0:
174,244,10572,1,0,0:0:0:0:
256,304,10858,5,2,0:0:0:0:
256,304,11430,5,2,0:0:0:0:
174,244,11715,1,2,0:0:0:0:
205,148,12001,1,0,0:0:0:0:
307,148,12287,1,2,0:0:0:0:
338,244,12572,5,2,0:0:0:0:
338,244,13715,6,0,P|353:300|338:356,1,116.999994644165,2|0,0:0|0:0,0:0:0:0:
256,312,14287,1,2,0:0:0:0:
173,356,14572,1,2,0:0:0:0:
173,356,14715,1,2,0:0:0:0:
173,356,14858,2,0,B|125:304|169:248|173:248|177:248|221:192|173:140,1,233.999989288331,2|0,0:0|0:0,0:0:0:0:
339,356,16001,6,0,B|387:304|343:248|339:248|335:248|291:192|339:140,1,233.999989288331,2|2,0:0|0:0,0:0:0:0:
176,356,17144,1,2,0:0:0:0:
174,140,18287,6,0,P|159:84|174:28,1,116.999994644165,2|0,0:0|0:0,0:0:0:0:
256,72,18858,1,2,0:0:0:0:
339,28,19144,1,2,0:0:0:0:
339,28,19287,1,2,0:0:0:0:
339,28,19430,2,0,B|387:80|343:136|339:136|335:136|291:192|339:244,1,233.999989288331,2|0,0:0|0:0,0:0:0:0:
173,28,20572,6,0,B|125:80|169:136|173:136|177:136|221:192|173:244,1,233.999989288331,2|2,0:0|0:0,0:0:0:0:
339,28,21715,1,2,0:0:0:0:
256,244,22287,1,0,0:0:0:0:
173,28,22858,6,0,B|196:88|256:104|256:104|316:88|339:28,1,233.999989288331,2|2,0:0|0:0,0:0:0:0:
405,94,23715,1,2,0:0:0:0:
339,160,24001,2,0,B|288:180|256:239|256:239|224:180|173:160,1,233.999989288331,2|0,0:0|0:0,0:0:0:0:
339,292,25144,6,0,B|288:312|256:371|256:371|224:312|173:292,1,233.999989288331,2|0,0:0|0:0,0:0:0:0:
107,226,26001,1,2,0:0:0:0:
107,226,26144,1,2,0:0:0:0:
107,226,26287,2,0,P|256:147|405:226,1,350.999983932496,2|0,0:0|0:0,0:0:0:0:
340,292,27430,5,2,0:0:0:0:
340,292,28001,5,0,0:0:0:0:
304,320,28144,1,2,0:0:0:0:
256,328,28287,1,0,0:0:0:0:
208,320,28430,1,2,0:0:0:0:
172,292,28572,5,2,0:0:0:0:
107,226,28858,1,0,0:0:0:0:
172,160,29144,1,2,0:0:0:0:
256,328,29715,5,2,0:0:0:0:
340,160,30287,1,2,0:0:0:0:
256,328,30858,2,0,L|256:269,1,58.4999973220826,2|2,0:0|0:0,0:0:0:0:
256,236,31144,1,2,0:0:0:0:
256,236,32001,6,0,P|200:251|144:236,1,116.999994644165,2|0,0:0|0:0,0:0:0:0:
60,192,32572,1,2,0:0:0:0:
144,148,32858,1,2,0:0:0:0:
64,108,33144,2,0,B|48:72|68:20|128:-4|175:32|175:32|214:66,1,233.999989288331,2|0,0:0|0:0,0:0:0:0:
344,216,34287,6,0,P|256:281|168:216,1,233.999989288331,2|0,0:0|0:0,0:0:0:0:
108,288,35144,1,2,0:0:0:0:
108,288,35287,1,2,0:0:0:0:
108,288,35430,2,0,P|256:368|404:288,1,350.999983932496,2|0,0:0|0:0,0:0:0:0:
344,216,36572,5,2,0:0:0:0:
344,216,37144,5,0,0:0:0:0:
300,216,37287,1,2,0:0:0:0:
256,216,37430,1,0,0:0:0:0:
212,216,37572,1,2,0:0:0:0:
168,216,37715,5,2,0:0:0:0:
108,144,38001,1,0,0:0:0:0:
168,72,38287,1,2,0:0:0:0:
256,216,38858,5,2,0:0:0:0:
344,72,39430,1,2,0:0:0:0:
256,216,40001,2,0,L|256:274,1,58.4999973220826,2|0,0:0|0:0,0:0:0:0:
256,308,40287,1,2,0:0:0:0:
256,308,41144,5,2,0:0:0:0:
400,192,41715,1,2,0:0:0:0:
256,76,42287,1,2,0:0:0:0:
112,192,42858,5,2,0:0:0:0:
184,250,43144,1,0,0:0:0:0:
256,308,43430,1,2,0:0:0:0:
328,250,43715,1,0,0:0:0:0:
400,192,44001,5,2,0:0:0:0:
328,134,44287,1,2,0:0:0:0:
256,76,44572,1,0,0:0:0:0:
184,134,44858,1,2,0:0:0:0:
112,192,45144,5,0,0:0:0:0:
256,308,45715,5,0,0:0:0:0:
328,250,46001,1,0,0:0:0:0:
256,192,46287,1,2,0:0:0:0:
184,134,46572,1,2,0:0:0:0:
256,76,46858,5,2,0:0:0:0:
400,192,47430,1,2,0:0:0:0:
256,308,48001,5,2,0:0:0:0:
184,250,48287,1,0,0:0:0:0:
256,192,48572,1,2,0:0:0:0:
328,134,48858,1,2,0:0:0:0:
256,76,49144,5,2,0:0:0:0:
256,76,50287,6,0,B|256:164|256:164|260:172|260:172|252:172|252:172|256:180|256:180|256:268,1,202.500007724762,2|0,0:0|0:0,0:0:0:0:
320,320,50858,2,0,L|350:380,1,67.5000025749208,10|0,0:0|0:0,0:0:0:0:
192,320,51144,2,0,L|161:380,1,67.5000025749208,10|0,0:0|0:0,0:0:0:0:
320,320,51430,6,0,B|320:280|352:252|384:252|384:252|415:252,1,135.000005149842,10|0,0:0|0:0,0:0:0:0:
320,120,52001,2,0,B|256:100|256:100|192:120,1,135.000005149842,10|0,0:0|0:0,0:0:0:0:
96,252,52572,6,0,B|128:252|128:252|160:252|192:280|192:320,1,135.000005149842,10|0,0:0|0:0,0:0:0:0:
256,172,53144,1,10,0:0:0:0:
256,172,53287,1,8,0:0:0:0:
256,172,53430,1,8,0:0:0:0:
320,320,53715,2,0,B|320:280|352:252|384:252|384:252|415:252,1,135.000005149842,10|8,0:0|0:0,0:0:0:0:
336,108,54287,1,0,3:0:0:0:
176,108,54572,1,0,3:0:0:0:
256,308,54858,6,0,B|256:220|256:220|260:212|260:212|252:212|252:212|256:204|256:204|256:116,1,202.500007724762,2|0,0:0|0:0,0:0:0:0:
320,64,55430,2,0,L|350:3,1,67.5000025749208,10|0,0:0|0:0,0:0:0:0:
192,64,55715,2,0,L|161:3,1,67.5000025749208,10|0,0:0|0:0,0:0:0:0:
320,64,56001,6,0,B|320:104|352:132|384:132|384:132|415:132,1,135.000005149842,10|0,0:0|0:0,0:0:0:0:
320,264,56572,2,0,B|256:284|256:284|192:264,1,135.000005149842,10|0,0:0|0:0,0:0:0:0:
96,132,57144,6,0,B|128:132|128:132|160:132|192:104|192:64,1,135.000005149842,10|0,0:0|0:0,0:0:0:0:
256,212,57715,1,10,0:0:0:0:
256,212,57858,1,8,0:0:0:0:
256,212,58001,1,0,0:0:0:0:
320,64,58287,2,0,B|320:104|352:132|384:132|384:132|415:132,1,135.000005149842,10|8,0:0|0:0,0:0:0:0:
336,276,58858,1,0,3:0:0:0:
176,276,59144,2,0,L|108:276,1,67.5000025749208,0|2,3:0|0:0,0:0:0:0:
70,276,59430,6,0,B|42:256|36:220|36:220|42:184|70:164,1,135.000005149842,2|0,0:0|0:0,0:0:0:0:
336,220,60001,1,2,0:0:0:0:
176,220,60287,1,10,0:0:0:0:
442,164,60572,2,0,B|470:184|476:220|476:220|470:256|442:276,1,135.000005149842,10|0,0:0|0:0,0:0:0:0:
176,220,61144,1,8,0:0:0:0:
336,220,61430,1,0,0:0:0:0:
70,276,61715,6,0,L|176:360,1,135.000005149842,10|0,0:0|0:0,0:0:0:0:
256,220,62287,1,8,0:0:0:0:
336,360,62572,1,10,0:0:0:0:
336,360,62715,1,2,0:0:0:0:
336,360,62858,2,0,L|442:276,1,135.000005149842,10|8,0:0|0:0,0:0:0:0:
442,108,63430,2,0,L|336:24,1,135.000005149842,10|0,0:0|0:0,0:0:0:0:
216,99,64001,6,0,P|182:192|216:285,1,202.500007724762,2|0,0:0|0:0,0:0:0:0:
296,285,64572,2,0,L|363:285,1,67.5000025749208,10|0,0:0|0:0,0:0:0:0:
216,285,64858,2,0,L|149:285,1,67.5000025749208,10|0,0:0|0:0,0:0:0:0:
296,285,65144,5,2,0:0:0:0:
256,128,65430,1,2,0:0:0:0:
216,285,65715,1,10,0:0:0:0:
256,128,66001,1,0,0:0:0:0:
296,285,66287,6,0,P|356:311|416:285,2,135.000005149842,10|0|8,0:0|0:0|0:0,0:0:0:0:
216,203,67001,2,0,B|248:176|256:150|256:150|264:176|296:203,1,135.000005149842,8|0,0:0|0:0,0:0:0:0:
216,285,67430,2,0,P|156:311|96:285,2,135.000005149842,10|8|8,0:0|0:0|0:0,0:0:0:0:
256,128,68287,2,0,L|256:60,1,67.5000025749208,0|2,0:0|0:0,0:0:0:0:
256,22,68572,6,0,B|325:22|325:22|371:68,1,135.000005149842,2|0,0:0|0:0,0:0:0:0:
256,256,69144,1,2,0:0:0:0:
256,128,69430,1,10,0:0:0:0:
371,315,69715,2,0,B|325:362|325:362|256:362,1,135.000005149842,10|0,0:0|0:0,0:0:0:0:
132,256,70287,1,0,0:0:0:0:
132,128,70572,1,0,0:0:0:0:
256,22,70858,6,0,B|391:22,1,135.000005149842,2|0,0:0|0:0,0:0:0:0:
391,192,71430,1,8,0:0:0:0:
391,362,71715,1,10,0:0:0:0:
391,362,71858,1,2,0:0:0:0:
391,362,72001,2,0,B|256:362,1,135.000005149842,2|0,0:0|0:0,0:0:0:0:
256,192,72572,1,2,0:0:0:0:
256,22,72858,5,0,0:0:0:0:
256,22,73001,1,0,0:0:0:0:
256,22,73144,2,0,B|304:-2|352:30|352:30|400:-2|448:22,1,202.500007724762,2|0,0:0|0:0,0:0:0:0:
504,78,73715,6,0,L|530:140,1,67.5000025749208,2|0,0:0|0:0,0:0:0:0:
447,135,74001,2,0,L|473:197,1,67.5000025749208,2|0,0:0|0:0,0:0:0:0:
390,192,74287,5,2,0:0:0:0:
256,280,74572,1,2,0:0:0:0:
122,192,74858,1,2,0:0:0:0:
256,104,75144,5,0,0:0:0:0:
256,104,75287,1,0,0:0:0:0:
256,104,75430,2,0,P|318:78|350:20,2,135.000005149842,2|0|2,0:0|0:0|0:0,0:0:0:0:
187,148,76144,2,0,B|220:156|234:192|234:192|220:228|187:236,1,135.000005149842
256,280,76572,2,0,P|318:306|350:364,2,135.000005149842,2|2|0,0:0|0:0|0:0,0:0:0:0:
256,280,77715,5,2,3:2:0:0:
174,220,78001,1,2,3:2:0:0:
205,124,78287,1,2,3:2:0:0:
307,124,78572,1,2,3:2:0:0:
338,220,78858,6,0,L|376:320,1,107.999996704102,2|0,3:2|3:0,0:0:0:0:
174,220,79430,2,0,L|136:320,1,107.999996704102,2|2,3:2|3:2,0:0:0:0:
256,280,80001,5,2,3:2:0:0:
452,192,80572,1,2,3:2:0:0:
256,104,81144,1,2,3:2:0:0:
60,192,81715,5,2,3:2:0:0:
60,300,82001,1,2,3:2:0:0:
158,300,82287,1,2,3:2:0:0:
158,192,82572,1,2,3:2:0:0:
256,192,82858,5,2,3:2:0:0:
256,300,83144,1,2,3:2:0:0:
354,300,83430,1,2,3:2:0:0:
354,192,83715,1,2,3:2:0:0:
452,192,84001,5,2,3:2:0:0:
256,192,84572,1,2,3:2:0:0:
452,300,85144,5,2,3:2:0:0:
354,300,85430,1,2,3:2:0:0:
256,300,85715,1,2,3:2:0:0:
256,300,86858,5,2,0:0:0:0:
174,240,87144,1,0,0:0:0:0:
205,144,87430,1,2,0:0:0:0:
307,144,87715,1,0,0:0:0:0:
338,240,88001,5,2,0:0:0:0:
338,240,88572,5,2,0:0:0:0:
256,300,88858,1,0,0:0:0:0:
174,240,89144,1,2,0:0:0:0:
174,240,89715,5,2,0:0:0:0:
256,40,90287,1,2,0:0:0:0:
338,240,90858,5,2,0:0:0:0:
420,300,91144,1,0,0:0:0:0:
502,240,91430,1,2,0:0:0:0:
502,144,91715,5,0,0:0:0:0:
420,84,92001,1,2,0:0:0:0:
336,144,92287,1,0,0:0:0:0:
338,240,92572,5,2,0:0:0:0:
420,192,92858,1,0,0:0:0:0:
502,144,93144,1,2,0:0:0:0:
338,240,93715,1,2,0:0:0:0:
502,144,94287,5,2,0:0:0:0:
420,192,94572,1,0,0:0:0:0:
338,240,94858,1,2,0:0:0:0:
338,240,96001,6,0,B|320:200|277:192|277:192|320:184|338:144,1,161.999995056153,4|0,0:0|0:0,0:0:0:0:
396,192,96572,1,2,0:0:0:0:
454,144,96715,2,0,L|496:144,2,26.9999991760254,2|2|2,0:0|0:0|0:0,0:0:0:0:
396,96,97001,1,2,0:0:0:0:
338,144,97144,6,0,L|298:43,1,107.999996704102,2|0,0:0|0:0,0:0:0:0:
174,144,97715,1,0,0:0:0:0:
174,144,97858,2,0,L|193:93,2,53.9999983520508,2|2|2,0:0|0:0|0:0,0:0:0:0:
250,144,98287,2,0,B|210:172|174:148|174:144|174:140|134:116|98:144,1,161.999995056153,2|0,0:0|0:0,0:0:0:0:
71,216,98858,6,0,B|44:212|44:212|17:216,2,53.9999983520508,2|2|2,0:0|0:0|0:0,0:0:0:0:
44,288,99287,1,2,0:0:0:0:
71,360,99430,1,2,0:0:0:0:
256,360,99715,1,2,0:0:0:0:
441,360,100001,5,2,0:0:0:0:
441,360,100096,1,2,0:0:0:0:
441,360,100192,2,0,L|476:360,1,35.9999989013672,2|2,0:0|0:0,0:0:0:0:
304,224,100572,6,0,B|264:206|256:163|256:163|248:206|208:224,1,161.999995056153,2|0,0:0|0:0,0:0:0:0:
256,282,101144,1,2,0:0:0:0:
208,340,101287,2,0,L|208:382,2,26.9999991760254,2|2|2,0:0|0:0|0:0,0:0:0:0:
160,282,101572,1,2,0:0:0:0:
208,224,101715,6,0,L|158:128,1,107.999996704102,2|0,0:0|0:0,0:0:0:0:
304,224,102287,2,0,L|353:128,1,107.999996704102,0|2,0:0|0:0,0:0:0:0:
401,68,102715,1,2,0:0:0:0:
450,128,102858,2,0,L|400:224,1,107.999996704102,2|0,0:0|0:0,0:0:0:0:
256,164,103430,5,2,0:0:0:0:
304,224,103572,1,2,0:0:0:0:
256,284,103715,1,2,0:0:0:0:
400,224,104001,1,2,0:0:0:0:
256,164,104287,1,2,0:0:0:0:
448,164,104572,5,2,0:0:0:0:
496,224,104715,1,2,0:0:0:0:
448,284,104858,1,2,0:0:0:0:
256,284,105144,6,0,P|184:316|112:284,1,161.999995056153,2|0,0:0|0:0,0:0:0:0:
64,224,105715,1,2,0:0:0:0:
112,163,105858,2,0,L|92:143,2,26.9999991760254,2|2|2,0:0|0:0|0:0,0:0:0:0:
160,224,106144,1,2,0:0:0:0:
208,163,106287,2,0,B|208:109|208:109|180:62,1,107.999996704102,2|0,0:0|0:0,0:0:0:0:
256,224,106858,5,0,0:0:0:0:
256,224,107001,2,0,L|256:288,2,53.9999983520508,2|2|2,0:0|0:0|0:0,0:0:0:0:
304,163,107430,2,0,P|376:131|448:163,1,161.999995056153,2|0,0:0|0:0,0:0:0:0:
496,224,108001,6,0,L|496:288,2,53.9999983520508,2|2|2,0:0|0:0|0:0,0:0:0:0:
448,163,108430,1,2,0:0:0:0:
400,224,108572,1,2,0:0:0:0:
256,224,108858,1,2,0:0:0:0:
112,224,109144,5,2,0:0:0:0:
112,224,109239,1,2,0:0:0:0:
112,224,109334,2,0,L|77:224,1,35.9999989013672,2|2,0:0|0:0,0:0:0:0:
256,304,109715,5,0,0:0:0:0:
400,224,110001,1,2,0:0:0:0:
256,144,110287,5,2,0:0:0:0:
256,224,110430,1,2,0:0:0:0:
256,304,110572,1,2,0:0:0:0:
112,224,110858,1,2,0:0:0:0:
256,144,111144,5,2,0:0:0:0:
256,144,111239,1,2,0:0:0:0:
256,144,111334,2,0,L|291:144,1,35.9999989013672,2|2,0:0|0:0,0:0:0:0:
292,144,112001,5,2,0:0:0:0:
436,192,112287,1,2,0:0:0:0:
292,240,112572,1,2,0:0:0:0:
248,232,112715,1,2,0:0:0:0:
228,192,112858,1,2,0:0:0:0:
248,152,113001,1,2,0:0:0:0:
292,144,113144,5,2,0:0:0:0:
148,192,113430,1,0,0:0:0:0:
148,192,113715,1,8,1:0:0:0:
292,240,114001,1,0,3:0:0:0:
420,288,114287,6,0,B|468:229|424:161|420:161|416:161|372:93|420:34,1,270,4|0,3:2|0:0,0:0:0:0:
338,34,114858,1,8,1:0:0:0:
256,34,115001,2,0,L|211:34,2,45,0|0|0,3:0|3:0|3:0,0:0:0:0:
256,115,115287,1,0,3:0:0:0:
337,115,115430,5,0,3:0:0:0:
256,256,115715,1,0,0:0:0:0:
175,115,116001,5,8,1:0:0:0:
256,115,116144,1,0,0:0:0:0:
256,115,116287,2,0,L|256:70,2,45,0|0|0,3:0|3:0|3:0,0:0:0:0:
337,115,116572,6,0,B|378:87|422:111|422:115|422:119|466:143|508:115,1,180,0|0,3:0|0:0,0:0:0:0:
361,216,117144,6,0,B|316:212|316:212|271:216,1,90,8|0,1:0|3:0,0:0:0:0:
316,284,117430,2,0,B|361:280|361:280|406:284,1,90,0|0,3:0|3:0,0:0:0:0:
361,352,117715,5,8,1:0:0:0:
172,288,118001,1,0,3:0:0:0:
172,288,118287,6,0,L|232:288,2,60,8|8|8,1:0|1:0|1:0,0:0:0:0:
172,288,118572,1,0,3:0:0:0:
132,360,118715,1,0,3:0:0:0:
92,288,118858,6,0,B|44:229|88:161|92:161|96:161|140:93|92:34,1,270,4|0,3:2|0:0,0:0:0:0:
174,34,119430,1,8,1:0:0:0:
256,34,119572,2,0,L|301:34,2,45,0|0|0,3:0|3:0|3:0,0:0:0:0:
256,115,119858,1,0,3:0:0:0:
175,115,120001,5,0,3:0:0:0:
256,256,120287,1,0,0:0:0:0:
337,115,120572,6,0,P|381:107|425:115,1,90,8|0,1:0|0:0,0:0:0:0:
452,192,120858,1,8,1:0:0:0:
452,192,121001,1,8,1:0:0:0:
425,269,121144,6,0,B|389:301|381:345|381:345|373:301|337:269,1,180,0|0,3:0|0:0,0:0:0:0:
192,192,121715,6,0,B|196:147|196:147|192:102,1,90,8|0,1:0|3:0,0:0:0:0:
124,147,122001,2,0,B|128:192|128:192|124:237,1,90,0|0,3:0|3:0,0:0:0:0:
56,192,122287,1,12,1:0:0:0:
192,282,122572,6,0,L|192:327,2,45,0|0|0,3:0|3:0|3:0,0:0:0:0:
256,232,122858,1,12,1:0:0:0:
256,232,123001,1,8,1:0:0:0:
320,282,123144,2,0,L|320:327,2,45,0|0|0,3:0|3:0|3:0,0:0:0:0:
384,232,123430,6,0,B|256:188|256:188|128:232,1,270,4|0,3:2|0:0,0:0:0:0:
56,192,124001,1,8,1:0:0:0:
56,192,124144,2,0,L|11:192,2,45,0|0|0,3:0|3:0|3:0,0:0:0:0:
128,152,124430,1,0,3:0:0:0:
56,112,124572,5,0,3:0:0:0:
200,192,124858,1,0,0:0:0:0:
56,272,125144,5,8,1:0:0:0:
128,312,125287,1,0,0:0:0:0:
128,312,125430,2,0,L|128:368,2,45,0|0|0,3:0|3:0|0:0,0:0:0:0:
200,272,125715,6,0,B|240:252|256:204|256:204|272:252|312:272,1,180,0|0,3:0|0:0,0:0:0:0:
312,112,126287,6,0,L|297:23,1,90,8|0,1:0|3:0,0:0:0:0:
214,23,126572,2,0,L|200:112,1,90,0|0,3:0|3:0,0:0:0:0:
118,112,126858,5,8,1:0:0:0:
256,192,127144,1,0,3:0:0:0:
394,112,127430,6,0,L|394:52,2,60,8|8|8,1:0|1:0|1:0,0:0:0:0:
394,112,127715,2,0,P|438:104|482:112,1,90,0|0,3:0|3:0,0:0:0:0:
438,180,128001,6,0,B|466:221|442:265|438:265|434:265|410:309|438:351,2,180,4|0|8,3:2|3:0|1:0,0:0:0:0:
394,112,128715,1,0,3:0:0:0:
350,180,128858,1,0,3:0:0:0:
256,48,129144,1,0,3:0:0:0:
162,180,129430,6,0,L|102:180,2,60,0|0|0,3:0|3:0|3:0,0:0:0:0:
162,180,129715,6,0,L|207:180,2,45,8|0|0,1:0|3:0|3:0,0:0:0:0:
256,297,130001,2,0,L|256:252,2,45,0|0|0,3:0|3:0|3:0,0:0:0:0:
350,180,130287,5,4,3:2:0:0:
256,48,130572,1,4,0:0:0:0:
162,180,130858,5,12,1:0:0:0:
202,218,131001,1,0,3:0:0:0:
256,231,131144,1,0,3:0:0:0:
309,218,131287,1,0,0:0:0:0:
350,180,131430,1,4,3:2:0:0:
208,114,131715,6,0,L|176:82,2,45,0|0|0,3:0|3:0|3:0,0:0:0:0:
256,48,132001,1,8,1:0:0:0:
256,48,132144,1,8,1:0:0:0:
304,114,132287,2,0,L|336:82,2,45,0|0|0,3:0|3:0|3:0,0:0:0:0:
350,180,132572,6,0,B|350:258|350:258|350:311|311:349,1,180,6|2,3:2|0:0,0:0:0:0:
256,288,133001,1,2,0:0:0:0:
200,349,133144,2,0,B|162:311|162:258|162:258|162:180,1,180,8|2,1:0|3:2,0:0:0:0:
116,114,133572,1,2,0:0:0:0:
164,48,133715,6,0,B|182:35|190:12|190:12|198:35|216:48,1,90,2|2,3:2|0:0,0:0:0:0:
296,48,134001,2,0,B|314:35|322:12|322:12|330:35|348:48,1,90,2|2,0:0|0:0,0:0:0:0:
396,114,134287,1,8,1:0:0:0:
256,192,134572,5,0,3:0:0:0:
256,192,134715,1,0,3:0:0:0:
256,192,134858,1,0,3:0:0:0:
396,270,135144,6,0,P|404:314|396:358,1,90,2|2,0:0|0:0,0:0:0:0:
326,231,135430,2,0,P|318:187|326:143,1,90,8|2,1:0|0:0,0:0:0:0:
256,270,135715,2,0,P|264:314|256:358,1,90,2|2,3:2|3:2,0:0:0:0:
186,231,136001,5,4,0:0:0:0:
93,99,136287,1,2,3:2:0:0:
0,231,136572,2,0,P|19:192|0:153,2,90,8|8|0,1:0|1:0|3:0,0:0:0:0:
65,279,137001,1,0,3:0:0:0:
65,279,137144,6,0,L|128:342,2,90,6|2|2,3:2|0:0|0:0,0:0:0:0:
129,231,137572,1,2,0:0:0:0:
192,279,137715,6,0,L|255:342,2,90,8|2|2,1:0|0:0|3:2,0:0:0:0:
256,231,138144,1,2,0:0:0:0:
319,279,138287,6,0,L|382:342,2,90,2|2|2,3:2|0:0|0:0,0:0:0:0:
383,231,138715,1,2,0:0:0:0:
447,279,138858,6,0,P|468:192|447:105,1,180,8|0,1:0|0:0,0:0:0:0:
383,153,139287,1,8,1:0:0:0:
319,105,139430,1,0,3:0:0:0:
256,252,139715,1,2,0:0:0:0:
193,105,140001,6,0,P|150:94|107:105,2,90,8|2|2,1:0|0:0|3:2,0:0:0:0:
256,52,140430,1,2,0:0:0:0:
319,105,140572,2,0,P|362:94|405:105,2,90,6|0|2,1:2|3:0|3:2,0:0:0:0:
256,252,141144,1,8,1:0:0:0:
256,252,141287,1,8,1:0:0:0:
256,252,141430,1,8,1:0:0:0:
193,105,141715,6,0,P|256:51|319:105,1,180,6|2,3:2|0:0,0:0:0:0:
382,156,142144,1,2,0:0:0:0:
319,207,142287,2,0,B|295:252|295:252|217:252|217:252|193:207,1,180,8|2,1:0|3:2,0:0:0:0:
130,156,142715,1,2,0:0:0:0:
67,207,142858,6,0,B|59:251|59:251|67:295,1,90,2|2,3:2|0:0,0:0:0:0:
130,346,143144,2,0,B|173:346|173:346|214:367,1,90,2|2,0:0|0:0,0:0:0:0:
297,367,143430,1,8,1:0:0:0:
457,367,143715,5,0,3:0:0:0:
457,367,143858,1,0,3:0:0:0:
457,367,144001,1,0,3:0:0:0:
377,227,144287,6,0,L|337:147,1,90,2|2,0:0|0:0,0:0:0:0:
256,227,144572,2,0,B|256:195|256:195|252:187|252:187|260:187|260:187|256:179|256:179|256:147,1,90,8|2,1:0|0:0,0:0:0:0:
135,227,144858,2,0,L|175:147,1,90,2|2,3:2|3:2,0:0:0:0:
117,88,145144,5,6,3:2:0:0:
256,8,145430,1,2,3:2:0:0:
395,88,145715,2,0,P|414:49|395:10,2,90,8|8|0,1:0|1:0|3:0,0:0:0:0:
453,147,146144,1,0,3:0:0:0:
396,207,146287,6,0,L|309:364,1,180,6|2,3:2|0:0,0:0:0:0:
116,207,146858,2,0,L|202:364,1,180,8|2,1:0|3:2,0:0:0:0:
256,304,147287,1,2,0:0:0:0:
309,364,147430,5,6,3:2:0:0:
256,212,147715,2,0,L|256:152,2,60,2|2|2,0:0|0:0|0:0,0:0:0:0:
256,212,148001,1,8,1:0:0:0:
203,364,148287,5,0,3:0:0:0:
256,304,148430,1,8,1:0:0:0:
309,364,148572,1,8,1:0:0:0:
428,245,148858,5,2,3:2:0:0:
368,192,149001,1,0,3:0:0:0:
428,139,149144,1,8,1:0:0:0:
309,20,149430,5,2,3:2:0:0:
256,80,149572,1,2,3:2:0:0:
203,20,149715,6,0,L|158:20,2,45,8|0|0,1:0|3:0|3:0,0:0:0:0:
256,80,150001,2,0,L|256:125,2,45,0|0|0,3:0|3:0|3:0,0:0:0:0:
309,20,150287,2,0,L|399:20,1,90,8|8,1:0|1:0,0:0:0:0:
480,20,150572,1,2,3:2:0:0:
480,20,150715,1,2,3:2:0:0:
480,101,150858,6,0,B|512:141|484:181|480:185|476:189|448:229|480:269,1,180,4|2,3:2|0:0,0:0:0:0:
337,192,151430,2,0,B|369:232|341:272|337:276|333:280|305:320|337:360,1,180,8|2,1:0|3:2,0:0:0:0:
256,360,151858,1,2,0:0:0:0:
174,360,152001,1,2,3:2:0:0:
175,192,152287,6,0,L|115:192,2,60,2|2|2,0:0|0:0|0:0,0:0:0:0:
175,192,152572,1,8,1:0:0:0:
256,52,152858,5,0,3:0:0:0:
256,52,153001,1,0,3:0:0:0:
256,52,153144,2,0,B|300:68|344:52|344:52|388:68|432:52,1,180,2|2,3:2|0:0,0:0:0:0:
317,165,153715,2,0,B|361:181|405:165|405:165|449:181|493:165,1,180,8|2,1:0|3:2,0:0:0:0:
468,244,154144,1,2,3:2:0:0:
493,323,154287,1,6,3:2:0:0:
331,323,154572,6,0,L|331:263,2,60,2|2|2,0:0|0:0|0:0,0:0:0:0:
331,323,154858,5,8,1:0:0:0:
298,353,155001,1,8,1:0:0:0:
256,365,155144,1,0,3:0:0:0:
213,353,155287,1,0,3:0:0:0:
181,323,155430,6,0,P|138:312|95:323,2,90,6|2|2,3:2|0:0|0:0,0:0:0:0:
256,292,155858,1,2,0:0:0:0:
331,323,156001,2,0,P|359:239|331:155,1,180,8|2,1:0|3:2,0:0:0:0:
181,323,156572,2,0,P|153:239|181:155,1,180,2|2,3:2|0:0,0:0:0:0:
256,124,157001,1,2,0:0:0:0:
331,155,157144,6,0,B|278:192|256:264|256:264|234:192|181:155,1,270,8|8,1:0|1:0,0:0:0:0:
106,124,157715,5,2,3:2:0:0:
256,52,158001,1,0,0:0:0:0:
406,124,158287,1,8,1:0:0:0:
304,248,158572,5,2,3:2:0:0:
304,248,158715,1,2,3:2:0:0:
304,248,158858,2,0,L|304:338,2,90,4|0|0,3:2|3:0|3:0,0:0:0:0:
256,180,159287,1,2,3:2:0:0:
208,248,159430,2,0,L|208:338,2,90,8|8|8,1:0|1:0|1:0,0:0:0:0:
106,124,160001,6,0,B|88:56|136:16|176:16|176:16|206:16,1,180,4|2,3:2|0:0,0:0:0:0:
406,124,160572,2,0,B|424:56|376:16|336:16|336:16|305:16,1,180,8|2,1:0|3:2,0:0:0:0:
256,84,161001,1,2,3:2:0:0:
207,16,161144,1,2,3:2:0:0:
256,192,161430,6,0,L|256:252,2,60,2|2|2,0:0|0:0|0:0,0:0:0:0:
256,192,161715,1,8,1:0:0:0:
106,260,162001,5,0,3:0:0:0:
106,260,162144,1,0,3:0:0:0:
106,260,162287,2,0,B|88:328|136:368|176:368|176:368|206:368,1,180,2|2,3:2|0:0,0:0:0:0:
406,260,162858,2,0,B|424:328|376:368|336:368|336:368|305:368,1,180,8|2,1:0|3:2,0:0:0:0:
256,300,163287,1,2,3:2:0:0:
207,368,163430,1,6,3:2:0:0:
256,192,163715,6,0,L|256:132,2,60,2|2|2,0:0|0:0|0:0,0:0:0:0:
256,192,164001,6,0,L|346:192,1,90,8|8,1:0|1:0,0:0:0:0:
346,110,164287,2,0,L|436:110,1,90,0|0,3:0|3:0,0:0:0:0:
436,28,164572,5,4,3:2:0:0:
256,28,164858,1,2,0:0:0:0:
76,28,165144,1,8,1:0:0:0:
76,192,165430,1,2,3:2:0:0:
76,356,165715,5,0,3:0:0:0:
256,356,166001,1,0,0:0:0:0:
436,356,166287,5,8,1:0:0:0:
436,319,166430,1,2,0:0:0:0:
436,282,166572,1,2,0:0:0:0:
436,245,166715,1,8,1:0:0:0:
436,208,166858,5,12,1:0:0:0:
256,208,167144,2,0,L|256:298,2,90,0|0|12,3:0|3:0|1:0,0:0:0:0:
76,208,167715,1,2,3:2:0:0:
210,88,168001,6,0,L|210:43,2,45,4|0|0,3:1|3:0|3:0,0:0:0:0:
302,88,168287,2,0,L|302:43,2,45,0|0|0,3:0|3:0|3:0,0:0:0:0:
392,88,168572,6,0,L|482:88,2,90,8|8|0,1:0|1:0|3:0,0:0:0:0:
392,178,169001,1,0,3:0:0:0:
302,178,169144,6,0,P|256:208|210:178,1,116.999994644165,4|0,3:2|0:0,0:0:0:0:
143,243,169715,1,2,0:0:0:0:
210,308,170001,1,2,0:0:0:0:
210,308,170144,1,2,0:0:0:0:
210,308,170287,2,0,B|188:352|188:352|324:352|324:352|302:308,1,233.999989288331,2|0,0:0|3:0,0:0:0:0:
369,243,171144,1,0,3:0:0:0:
302,178,171430,6,0,B|256:128|256:73|256:73|256:128|210:178,1,233.999989288331,2|2,0:0|0:0,0:0:0:0:
143,243,172287,1,0,3:0:0:0:
143,243,172430,1,0,3:0:0:0:
143,243,172572,2,0,L|4:54,1,233.999989288331,2|0,0:0|3:0,0:0:0:0:
37,21,173287,1,0,3:0:0:0:
210,206,173715,6,0,P|256:176|302:206,1,116.999994644165,2|0,0:0|0:0,0:0:0:0:
369,141,174287,1,2,0:0:0:0:
302,76,174572,1,2,0:0:0:0:
302,76,174715,1,2,0:0:0:0:
302,76,174858,2,0,B|324:32|324:32|188:32|188:32|210:76,1,233.999989288331,2|0,0:0|3:0,0:0:0:0:
143,141,175715,1,0,3:0:0:0:
210,206,176001,6,0,B|256:256|256:311|256:311|256:256|302:206,1,233.999989288331,2|2,0:0|0:0,0:0:0:0:
369,141,176858,1,0,3:0:0:0:
369,141,177001,1,0,3:0:0:0:
369,141,177144,2,0,L|507:329,1,233.999989288331,2|0,0:0|3:0,0:0:0:0:
424,372,178001,1,8,1:0:0:0:
340,329,178287,6,0,P|251:255|208:148,1,233.999989288331,12|8,0:0|1:0,0:0:0:0:
256,68,179144,1,0,3:0:0:0:
303,148,179430,2,0,P|260:255|171:329,1,233.999989288331,8|8,3:2|1:0,0:0:0:0:
88,372,180287,5,0,3:0:0:0:
88,372,180430,1,0,3:0:0:0:
88,372,180572,2,0,L|40:265,1,116.999994644165,8|0,3:2|0:0,0:0:0:0:
100,192,181144,1,8,1:0:0:0:
40,118,181430,1,0,3:0:0:0:
40,118,181572,1,0,3:0:0:0:
40,118,181715,2,0,L|88:12,1,116.999994644165,8|0,3:2|3:0,0:0:0:0:
172,55,182287,5,8,1:0:0:0:
209,85,182430,1,8,1:0:0:0:
256,97,182572,1,0,3:0:0:0:
302,85,182715,1,0,3:0:0:0:
340,55,182858,5,12,0:0:0:0:
384,140,183144,1,0,0:0:0:0:
340,224,183430,5,8,1:0:0:0:
303,193,183572,1,0,0:0:0:0:
256,182,183715,1,0,3:0:0:0:
210,193,183858,1,0,0:0:0:0:
172,224,184001,6,0,B|156:280|156:280|172:336,1,116.999994644165,8|0,3:2|0:0,0:0:0:0:
256,292,184572,1,8,1:0:0:0:
340,336,184858,5,0,3:0:0:0:
340,336,185001,1,0,3:0:0:0:
340,336,185144,2,0,B|356:280|356:280|340:224,1,116.999994644165,8|0,1:0|3:0,0:0:0:0:
256,182,185715,1,8,1:0:0:0:
256,182,185858,1,0,3:0:0:0:
256,182,186001,1,0,3:0:0:0:
172,224,186287,6,0,B|156:280,1,58.4999973220826,12|0,0:0|3:0,0:0:0:0:
135,259,186572,1,0,3:0:0:0:
80,192,186858,5,8,1:0:0:0:
50,155,187001,1,8,1:0:0:0:
38,108,187143,1,0,3:0:0:0:
50,62,187286,1,0,3:0:0:0:
80,24,187430,6,0,P|136:9|192:24,1,116.999994644165,12|0,0:0|0:0,0:0:0:0:
256,92,188001,1,8,1:0:0:0:
321,23,188287,1,0,3:0:0:0:
386,92,188572,6,0,L|304:312,1,233.999989288331,8|8,3:2|1:0,0:0:0:0:
208,312,189430,1,0,3:0:0:0:
208,312,189572,1,0,3:0:0:0:
208,312,189715,2,0,L|126:92,1,233.999989288331,8|8,3:2|1:0,0:0:0:0:
191,23,190572,5,0,3:0:0:0:
191,23,190715,1,0,3:0:0:0:
191,23,190858,1,8,3:2:0:0:
256,92,191144,1,0,3:0:0:0:
321,23,191430,5,8,1:0:0:0:
351,60,191572,1,8,1:0:0:0:
363,107,191715,1,0,3:0:0:0:
351,153,191858,1,0,3:0:0:0:
321,191,192001,5,12,0:0:0:0:
256,120,192287,1,0,0:0:0:0:
191,191,192572,5,8,1:0:0:0:
161,153,192715,1,0,0:0:0:0:
149,107,192858,1,0,3:0:0:0:
161,60,193001,1,0,0:0:0:0:
191,23,193144,6,0,L|74:23,2,116.999994644165,8|0|8,3:2|3:0|1:0,0:0:0:0:
256,88,194001,5,0,3:0:0:0:
256,88,194144,1,0,3:0:0:0:
256,88,194287,1,8,1:0:0:0:
321,23,194572,1,0,3:0:0:0:
386,88,194858,1,8,1:0:0:0:
386,88,195001,1,0,3:0:0:0:
386,88,195144,1,0,3:0:0:0:
321,153,195430,6,0,L|321:211,1,58.4999973220826,12|0,0:0|3:0,0:0:0:0:
321,245,195715,1,0,3:0:0:0:
256,312,196001,5,8,3:1:0:0:
209,312,196144,1,8,3:1:0:0:
162,312,196287,1,8,3:1:0:0:
115,312,196430,5,0,3:0:0:0:
