osu file format v14

[General]
AudioFilename: audio.mp3
AudioLeadIn: 0
PreviewTime: -1
Countdown: 1
SampleSet: Soft
StackLeniency: 0
Mode: 0
LetterboxInBreaks: 0
WidescreenStoryboard: 0

[Editor]
Bookmarks: 45,20255,40466,60676,80887,101097,121308,136466,150360,161729,181939,183202
DistanceSpacing: 0.9
BeatDivisor: 3
GridSize: 16
TimelineZoom: 3.900004

[Metadata]
Title:Path of Honor
TitleUnicode:Path of Honor
Artist:Loki
ArtistUnicode:Loki
Creator:Loki
Version:owo
Source:
Tags:
BeatmapID:1426884
BeatmapSetID:674354

[Difficulty]
HPDrainRate:5
CircleSize:5.4
OverallDifficulty:7.8
ApproachRate:9.3
SliderMultiplier:1.7
SliderTickRate:1

[Events]
//Background and Video events
0,0,"A-Dreamy-World-Wallpaper.jpg",0,0
//Break Periods
//Storyboard Layer 0 (Background)
//Storyboard Layer 1 (Fail)
//Storyboard Layer 2 (Pass)
//Storyboard Layer 3 (Foreground)
//Storyboard Sound Samples

[TimingPoints]
45,315.789473684211,4,2,0,100,1,0
9832,-100,4,2,0,5,0,0
9836,-100,4,2,0,100,0,0
18360,-97.0873786407767,4,2,0,100,0,0
18992,-255.102040816327,4,2,0,100,0,0
19306,-100,4,2,0,5,0,0
19310,-100,4,2,0,100,0,0
40466,-133.333333333333,4,2,0,100,0,0
80887,-200,4,2,0,100,0,0
81183,-200,4,2,0,5,0,0
81222,-200,4,2,0,100,0,0
82446,-200,4,2,0,5,0,0
82485,-200,4,2,0,100,0,0
83077,-200,4,2,0,5,0,0
83116,-200,4,2,0,100,0,0
84972,-200,4,2,0,5,0,0
85011,-200,4,2,0,100,0,0
85939,-208.333333333333,4,2,0,100,0,0
86235,-200,4,2,0,5,0,0
86274,-200,4,2,0,100,0,0
87202,-208.333333333333,4,2,0,100,0,0
87498,-200,4,2,0,5,0,0
87537,-200,4,2,0,100,0,0
88466,-170.940170940171,4,2,0,100,0,0
88762,-200,4,2,0,5,0,0
88801,-300,4,2,0,100,0,0
90025,-200,4,2,0,5,0,0
90064,-200,4,2,0,100,0,0
91288,-200,4,2,0,5,0,0
91327,-200,4,2,0,100,0,0
92551,-200,4,2,0,5,0,0
92590,-200,4,2,0,100,0,0
93183,-200,4,2,0,5,0,0
93222,-200,4,2,0,100,0,0
95077,-200,4,2,0,5,0,0
95116,-200,4,2,0,100,0,0
96341,-200,4,2,0,5,0,0
96380,-200,4,2,0,100,0,0
97604,-200,4,2,0,5,0,0
97643,-200,4,2,0,100,0,0
98235,-200,4,2,0,5,0,0
98274,-200,4,2,0,100,0,0
98867,-200,4,2,0,5,0,0
98906,-200,4,2,0,100,0,0
101097,-133.333333333333,4,2,0,100,0,0
121308,-83.3333333333333,4,2,0,100,0,0
128887,-133.333333333333,4,2,0,100,0,0
130150,-400,4,2,0,100,0,0
131413,-133.333333333333,4,2,0,100,0,0
135834,-66.6666666666667,4,2,0,100,0,0
136130,-66.6666666666667,4,2,0,5,0,0
136170,-66.6666666666667,4,2,0,100,0,0
136308,-133.333333333333,4,2,0,100,0,0
146235,-133.333333333333,4,2,0,5,0,0
146275,-133.333333333333,4,2,0,100,0,0
150656,-133.333333333333,4,2,0,5,0,0
150696,-133.333333333333,4,2,0,100,0,0
156676,-136.986301369863,4,2,0,100,0,0
161729,-100,4,2,0,100,0,0
181939,-83.3333333333333,4,2,0,100,0,0
183202,-77.8210116731517,4,2,0,100,0,0
183513,-77.8210116731517,4,2,0,5,0,0
183523,-77.8210116731517,4,2,0,100,0,0
183831,-77.8210116731517,4,2,0,5,0,0

[HitObjects]
124,140,45,5,0,0:0:0:0:
124,140,360,5,0,0:0:0:0:
178,114,466,1,0,0:0:0:0:
173,173,571,1,0,0:0:0:0:
124,140,676,1,0,0:0:0:0:
124,140,992,5,0,0:0:0:0:
183,144,1097,1,0,0:0:0:0:
149,193,1202,1,0,0:0:0:0:
124,140,1308,1,0,0:0:0:0:
124,140,1623,5,0,0:0:0:0:
173,172,1729,1,0,0:0:0:0:
119,198,1834,1,0,0:0:0:0:
124,140,1939,1,0,0:0:0:0:
124,140,2255,6,0,L|236:130,1,113.333333333333
236,129,2571,5,0,0:0:0:0:
236,130,2887,5,0,0:0:0:0:
182,104,2992,1,0,0:0:0:0:
187,163,3097,1,0,0:0:0:0:
236,130,3202,1,0,0:0:0:0:
236,130,3518,5,0,0:0:0:0:
177,134,3623,1,0,0:0:0:0:
211,183,3729,1,0,0:0:0:0:
236,130,3834,6,0,L|256:11,1,113.333333333333
287,184,4150,2,0,L|173:226,1,113.333333333333
309,113,4466,2,0,L|402:189,1,113.333333333333
236,130,4781,2,0,L|256:11,1,113.333333333333
254,18,5097,5,0,0:0:0:0:
254,18,5413,5,0,0:0:0:0:
201,56,5518,1,0,0:0:0:0:
239,109,5623,1,0,0:0:0:0:
292,70,5729,1,0,0:0:0:0:
331,123,6045,5,0,0:0:0:0:
278,161,6150,1,0,0:0:0:0:
316,214,6255,1,0,0:0:0:0:
369,175,6360,1,0,0:0:0:0:
408,228,6676,5,0,0:0:0:0:
355,266,6781,1,0,0:0:0:0:
393,319,6887,1,0,0:0:0:0:
446,280,6992,1,0,0:0:0:0:
485,333,7308,6,0,L|461:222,1,113.333333333333
461,222,7623,5,0,0:0:0:0:
461,222,7939,5,0,0:0:0:0:
498,167,8045,1,0,0:0:0:0:
443,130,8150,1,0,0:0:0:0:
406,183,8255,1,0,0:0:0:0:
348,150,8571,5,0,0:0:0:0:
385,95,8676,1,0,0:0:0:0:
330,58,8781,1,0,0:0:0:0:
293,111,8887,6,0,L|228:204,1,113.333333333333
199,46,9202,2,0,L|292:110,1,113.333333333333
228,203,9518,2,0,B|134:138|134:138|230:-2,1,283.333333333333
229,0,10150,5,0,0:0:0:0:
310,21,10466,5,0,0:0:0:0:
316,101,10571,1,0,0:0:0:0:
240,131,10676,1,0,0:0:0:0:
187,69,10781,1,0,0:0:0:0:
187,69,11097,5,0,0:0:0:0:
194,150,11202,1,0,0:0:0:0:
274,169,11308,1,0,0:0:0:0:
315,100,11413,1,0,0:0:0:0:
315,100,11729,5,0,0:0:0:0:
320,180,11834,1,0,0:0:0:0:
244,210,11939,1,0,0:0:0:0:
192,148,12045,1,0,0:0:0:0:
192,148,12360,6,0,L|199:261,1,113.333333333333
199,261,12676,5,0,0:0:0:0:
280,240,12992,5,0,0:0:0:0:
286,160,13097,1,0,0:0:0:0:
210,130,13202,1,0,0:0:0:0:
157,192,13308,1,0,0:0:0:0:
157,192,13623,5,0,0:0:0:0:
164,110,13729,1,0,0:0:0:0:
244,91,13834,1,0,0:0:0:0:
285,160,13939,6,0,L|276:293,1,113.333333333333
361,136,14255,2,0,L|340:266,1,113.333333333333
436,110,14571,2,0,L|404:238,1,113.333333333333
511,85,14887,2,0,L|468:210,1,113.333333333333
435,52,15202,5,0,0:0:0:0:
435,52,15518,5,0,0:0:0:0:
371,126,15623,1,0,0:0:0:0:
403,218,15729,1,0,0:0:0:0:
498,236,15834,1,0,0:0:0:0:
435,52,16150,5,0,0:0:0:0:
342,84,16255,1,0,0:0:0:0:
324,179,16360,1,0,0:0:0:0:
397,242,16466,1,0,0:0:0:0:
435,52,16781,5,0,0:0:0:0:
338,33,16887,1,0,0:0:0:0:
275,106,16992,1,0,0:0:0:0:
307,197,17097,1,0,0:0:0:0:
435,52,17413,6,0,L|327:88,1,113.333333333333
327,88,17729,2,0,P|352:138|347:194,1,113.333333333333
347,194,18045,5,0,0:0:0:0:
401,168,18150,1,0,0:0:0:0:
454,194,18255,1,0,0:0:0:0:
466,251,18360,2,0,B|454:194|454:194|401:168,1,116.733332353668
347,194,18676,5,0,0:0:0:0:
335,251,18781,1,0,0:0:0:0:
373,296,18887,1,0,0:0:0:0:
433,295,18992,6,0,B|402:299|373:296|373:296|353:277|336:252,1,116.620002420093
336,252,19623,5,0,0:0:0:0:
335,224,19702,1,0,0:0:0:0:
326,197,19781,1,0,0:0:0:0:
310,174,19860,1,0,0:0:0:0:
285,139,19939,5,0,0:0:0:0:
272,99,20018,1,0,0:0:0:0:
270,56,20097,1,0,0:0:0:0:
281,17,20176,1,0,0:0:0:0:
339,33,20255,6,0,P|361:93|382:122,1,85
258,146,20571,2,0,P|307:186|339:201,1,85
437,215,20887,1,0,0:0:0:0:
440,218,20966,1,0,0:0:0:0:
443,221,21045,5,0,0:0:0:0:
425,84,21202,1,0,0:0:0:0:
323,0,21360,1,0,0:0:0:0:
359,128,21518,6,0,P|400:130|437:109,1,85
275,151,21834,2,0,P|294:188|330:209,1,85
213,89,22150,2,0,P|190:124|189:166,1,85
230,241,22466,1,0,0:0:0:0:
233,244,22545,1,0,0:0:0:0:
236,247,22623,1,0,0:0:0:0:
278,69,22781,6,0,L|254:151,1,85
218,271,23097,1,0,0:0:0:0:
320,173,23255,1,0,0:0:0:0:
272,63,23413,1,0,0:0:0:0:
275,66,23492,1,0,0:0:0:0:
278,69,23571,1,0,0:0:0:0:
127,180,23729,2,0,L|209:204,1,85
329,247,24045,5,0,0:0:0:0:
374,129,24202,1,0,0:0:0:0:
469,217,24360,1,0,0:0:0:0:
415,75,24518,1,0,0:0:0:0:
387,266,24676,2,0,L|471:278,1,85
346,182,24992,1,0,0:0:0:0:
349,185,25071,1,0,0:0:0:0:
352,188,25150,1,0,0:0:0:0:
234,315,25308,6,0,L|258:233,1,85
221,79,25623,2,0,L|197:161,1,85
82,262,25939,1,0,0:0:0:0:
85,265,26018,1,0,0:0:0:0:
88,268,26097,5,0,0:0:0:0:
88,128,26255,1,0,0:0:0:0:
179,33,26413,1,0,0:0:0:0:
159,164,26571,6,0,P|118:170|79:154,1,85
246,50,26887,2,0,P|272:81|277:123,1,85
228,239,27202,2,0,L|312:246,1,85
192,151,27518,1,0,0:0:0:0:
195,154,27597,1,0,0:0:0:0:
198,157,27676,1,0,0:0:0:0:
79,339,27834,6,0,L|72:255,1,85
60,127,28150,1,0,0:0:0:0:
133,224,28308,1,0,0:0:0:0:
79,339,28466,1,0,0:0:0:0:
6,242,28623,1,0,0:0:0:0:
109,166,28781,2,0,P|159:167|191:200,1,85
186,304,29097,5,0,0:0:0:0:
320,222,29255,1,0,0:0:0:0:
178,299,29413,1,0,0:0:0:0:
365,293,29571,1,0,0:0:0:0:
170,304,29729,5,0,0:0:0:0:
167,275,29808,1,0,0:0:0:0:
165,247,29887,1,0,0:0:0:0:
163,219,29966,1,0,0:0:0:0:
236,205,30045,5,0,0:0:0:0:
232,247,30123,1,0,0:0:0:0:
228,289,30202,1,0,0:0:0:0:
224,332,30281,1,0,0:0:0:0:
220,373,30360,6,0,P|262:368|304:373,1,85
444,285,30676,2,0,P|401:289|359:284,1,85
232,201,30992,1,0,0:0:0:0:
235,204,31071,1,0,0:0:0:0:
238,207,31150,5,0,0:0:0:0:
361,160,31308,1,0,0:0:0:0:
489,213,31466,1,0,0:0:0:0:
339,246,31623,6,0,P|328:205|333:161,1,85
220,30,31939,2,0,P|230:70|225:114,1,85
112,246,32255,2,0,P|101:205|106:161,1,85
158,69,32571,1,0,0:0:0:0:
161,72,32650,1,0,0:0:0:0:
164,75,32729,1,0,0:0:0:0:
174,290,32887,6,0,L|181:204,1,85
194,79,33202,1,0,0:0:0:0:
112,195,33360,1,0,0:0:0:0:
168,284,33518,1,0,0:0:0:0:
171,287,33597,1,0,0:0:0:0:
174,290,33676,1,0,0:0:0:0:
229,150,33834,2,0,P|188:136|144:142,1,85
38,188,34150,5,0,0:0:0:0:
83,306,34308,1,0,0:0:0:0:
146,168,34466,1,0,0:0:0:0:
18,248,34623,1,0,0:0:0:0:
188,286,34781,2,0,P|202:245|195:201,1,85
109,77,35097,1,0,0:0:0:0:
112,80,35176,1,0,0:0:0:0:
115,83,35255,1,0,0:0:0:0:
44,247,35413,6,0,P|85:237|127:237,1,85
195,139,35729,2,0,P|236:148|278:148,1,85
209,59,36045,1,0,0:0:0:0:
212,62,36123,1,0,0:0:0:0:
215,65,36202,5,0,0:0:0:0:
168,188,36360,1,0,0:0:0:0:
221,316,36518,1,0,0:0:0:0:
251,175,36676,6,0,P|208:176|167:187,1,85
0,99,36992,2,0,P|42:100|83:111,1,85
251,23,37308,2,0,P|208:24|167:35,1,85
34,171,37623,1,0,0:0:0:0:
37,174,37702,1,0,0:0:0:0:
40,177,37781,1,0,0:0:0:0:
174,269,37939,6,0,L|166:184,1,85
125,49,38255,1,0,0:0:0:0:
236,96,38413,1,0,0:0:0:0:
125,142,38571,1,0,0:0:0:0:
236,187,38729,1,0,0:0:0:0:
99,247,38887,2,0,L|106:162,1,85
276,269,39202,5,0,0:0:0:0:
200,130,39360,1,0,0:0:0:0:
270,275,39518,1,0,0:0:0:0:
314,122,39676,1,0,0:0:0:0:
264,281,39834,5,0,0:0:0:0:
293,284,39913,1,0,0:0:0:0:
321,286,39992,1,0,0:0:0:0:
349,288,40071,1,0,0:0:0:0:
363,215,40150,5,0,0:0:0:0:
321,219,40229,1,0,0:0:0:0:
279,223,40308,1,0,0:0:0:0:
236,227,40387,1,0,0:0:0:0:
194,231,40466,6,0,L|200:167,1,63.7500024318696
338,71,40781,1,0,0:0:0:0:
352,249,40939,6,0,L|346:185,1,63.7500024318696
230,110,41255,1,0,0:0:0:0:
216,288,41413,6,0,L|221:224,1,63.7500024318696
114,341,41729,6,0,L|119:277,1,63.7500024318696
276,138,42045,1,0,0:0:0:0:
284,252,42202,1,0,0:0:0:0:
278,136,42360,1,0,0:0:0:0:
286,250,42518,1,0,0:0:0:0:
297,361,42676,6,0,L|328:363,1,31.8750012159348
461,310,42834,2,0,L|429:312,1,31.8750012159348
314,130,42992,6,0,L|308:193,1,63.7500024318696
171,290,43308,1,0,0:0:0:0:
157,112,43466,6,0,L|162:175,1,63.7500024318696
14,236,43781,1,0,0:0:0:0:
0,58,43939,6,0,L|5:121,1,63.7500024318696
113,5,44255,6,0,L|118:68,1,63.7500024318696
292,116,44571,1,0,0:0:0:0:
284,231,44729,1,0,0:0:0:0:
290,114,44887,1,0,0:0:0:0:
282,228,45045,1,0,0:0:0:0:
289,113,45202,1,0,0:0:0:0:
294,0,45360,2,0,L|325:2,1,31.8750012159348
470,116,45518,6,0,L|406:110,1,63.7500024318696
406,110,45834,1,0,0:0:0:0:
221,205,45992,6,0,L|284:210,1,63.7500024318696
285,211,46308,1,0,0:0:0:0:
451,336,46466,6,0,L|387:330,1,63.7500024318696
448,227,46781,6,0,L|511:232,1,63.7500024318696
511,232,47097,1,0,0:0:0:0:
325,142,47255,6,0,L|261:147,1,63.7500024318696
261,147,47571,1,0,0:0:0:0:
336,301,47729,6,0,L|341:237,1,63.7500024318696
445,298,48045,6,0,L|439:361,1,63.7500024318696
439,361,48360,1,0,0:0:0:0:
390,196,48518,6,0,L|384:132,1,63.7500024318696
384,132,48834,1,0,0:0:0:0:
378,68,48992,6,0,L|384:132,1,63.7500024318696
392,304,49308,5,0,0:0:0:0:
312,300,49387,5,0,0:0:0:0:
280,294,49466,1,0,0:0:0:0:
249,295,49545,1,0,0:0:0:0:
218,305,49623,1,0,0:0:0:0:
186,305,49702,1,0,0:0:0:0:
155,298,49781,1,0,0:0:0:0:
145,268,49860,1,0,0:0:0:0:
144,236,49939,1,0,0:0:0:0:
155,206,50018,1,0,0:0:0:0:
175,182,50097,1,0,0:0:0:0:
202,165,50176,1,0,0:0:0:0:
263,147,50255,5,0,0:0:0:0:
326,155,50334,1,0,0:0:0:0:
384,180,50413,1,0,0:0:0:0:
447,186,50492,1,0,0:0:0:0:
507,164,50571,5,0,0:0:0:0:
512,85,50729,1,0,0:0:0:0:
442,119,50887,1,0,0:0:0:0:
313,214,51045,5,0,0:0:0:0:
321,135,51202,1,0,0:0:0:0:
384,180,51360,1,0,0:0:0:0:
495,296,51518,5,0,0:0:0:0:
500,217,51676,1,0,0:0:0:0:
431,251,51834,5,0,0:0:0:0:
442,119,51992,1,0,0:0:0:0:
428,250,52150,1,0,0:0:0:0:
444,119,52308,1,0,0:0:0:0:
426,250,52466,1,0,0:0:0:0:
446,119,52623,1,0,0:0:0:0:
321,168,52781,5,0,0:0:0:0:
424,250,52939,1,0,0:0:0:0:
376,128,53097,5,0,0:0:0:0:
381,207,53255,1,0,0:0:0:0:
311,173,53413,1,0,0:0:0:0:
204,192,53571,5,0,0:0:0:0:
199,271,53729,1,0,0:0:0:0:
269,237,53887,1,0,0:0:0:0:
376,256,54045,5,0,0:0:0:0:
381,335,54202,1,0,0:0:0:0:
311,301,54360,5,0,0:0:0:0:
311,173,54518,1,0,0:0:0:0:
308,300,54676,1,0,0:0:0:0:
313,173,54834,1,0,0:0:0:0:
306,300,54992,1,0,0:0:0:0:
315,173,55150,1,0,0:0:0:0:
304,300,55308,1,0,0:0:0:0:
317,173,55466,2,0,L|275:143,1,31.8750012159348
420,248,55623,5,0,0:0:0:0:
485,204,55781,1,0,0:0:0:0:
491,281,55939,1,0,0:0:0:0:
419,244,56097,5,0,0:0:0:0:
488,205,56255,1,0,0:0:0:0:
487,283,56413,1,0,0:0:0:0:
420,240,56571,5,0,0:0:0:0:
491,208,56729,1,0,0:0:0:0:
428,162,56887,5,0,0:0:0:0:
367,112,57045,1,0,0:0:0:0:
354,188,57202,1,0,0:0:0:0:
428,158,57360,5,0,0:0:0:0:
363,113,57518,1,0,0:0:0:0:
357,190,57676,1,0,0:0:0:0:
427,153,57834,5,0,0:0:0:0:
359,115,57992,1,0,0:0:0:0:
425,75,58150,5,0,0:0:0:0:
490,30,58308,1,0,0:0:0:0:
496,107,58466,1,0,0:0:0:0:
425,71,58623,5,0,0:0:0:0:
494,31,58781,1,0,0:0:0:0:
493,109,58939,1,0,0:0:0:0:
426,66,59097,5,0,0:0:0:0:
497,34,59255,1,0,0:0:0:0:
343,20,59413,5,0,0:0:0:0:
263,24,59492,5,0,0:0:0:0:
231,30,59571,1,0,0:0:0:0:
200,29,59650,1,0,0:0:0:0:
169,19,59729,1,0,0:0:0:0:
137,19,59808,1,0,0:0:0:0:
106,26,59887,1,0,0:0:0:0:
96,56,59966,1,0,0:0:0:0:
95,88,60045,1,0,0:0:0:0:
106,118,60123,1,0,0:0:0:0:
126,142,60202,1,0,0:0:0:0:
153,159,60281,1,0,0:0:0:0:
214,177,60360,5,0,0:0:0:0:
277,169,60439,1,0,0:0:0:0:
335,144,60518,1,0,0:0:0:0:
398,138,60597,1,0,0:0:0:0:
458,160,60676,5,0,0:0:0:0:
458,250,60834,1,0,0:0:0:0:
454,134,60992,5,0,0:0:0:0:
429,250,61150,1,0,0:0:0:0:
448,170,61308,5,0,0:0:0:0:
384,232,61466,1,0,0:0:0:0:
454,134,61623,5,0,0:0:0:0:
353,173,61781,1,0,0:0:0:0:
279,245,61939,5,0,0:0:0:0:
279,155,62097,1,0,0:0:0:0:
283,271,62255,5,0,0:0:0:0:
308,155,62413,1,0,0:0:0:0:
289,235,62571,5,0,0:0:0:0:
353,173,62729,1,0,0:0:0:0:
283,271,62887,5,0,0:0:0:0:
384,232,63045,1,0,0:0:0:0:
487,306,63202,5,0,0:0:0:0:
384,306,63360,1,0,0:0:0:0:
486,233,63518,5,0,0:0:0:0:
399,342,63676,1,0,0:0:0:0:
383,233,63834,5,0,0:0:0:0:
486,233,63992,1,0,0:0:0:0:
384,160,64150,5,0,0:0:0:0:
471,269,64308,1,0,0:0:0:0:
487,160,64466,5,0,0:0:0:0:
384,160,64623,1,0,0:0:0:0:
487,86,64781,5,0,0:0:0:0:
399,196,64939,1,0,0:0:0:0:
487,86,65097,5,0,0:0:0:0:
384,86,65255,1,0,0:0:0:0:
472,122,65413,5,0,0:0:0:0:
436,85,65492,1,0,0:0:0:0:
400,49,65571,1,0,0:0:0:0:
364,12,65650,1,0,0:0:0:0:
337,111,65729,5,0,0:0:0:0:
349,205,65887,1,0,0:0:0:0:
335,101,66045,5,0,0:0:0:0:
350,214,66202,1,0,0:0:0:0:
472,122,66360,5,0,0:0:0:0:
460,216,66518,1,0,0:0:0:0:
474,113,66676,5,0,0:0:0:0:
462,207,66834,1,0,0:0:0:0:
292,169,66992,5,0,0:0:0:0:
304,263,67150,1,0,0:0:0:0:
290,154,67308,5,0,0:0:0:0:
305,277,67466,1,0,0:0:0:0:
236,124,67623,5,0,0:0:0:0:
160,221,67781,1,0,0:0:0:0:
219,63,67939,5,0,0:0:0:0:
97,78,68097,1,0,0:0:0:0:
112,200,68255,5,0,0:0:0:0:
206,188,68413,1,0,0:0:0:0:
218,282,68571,1,0,0:0:0:0:
124,294,68729,1,0,0:0:0:0:
156,174,68887,5,0,0:0:0:0:
231,232,69045,1,0,0:0:0:0:
173,307,69202,1,0,0:0:0:0:
98,249,69360,1,0,0:0:0:0:
206,188,69518,5,0,0:0:0:0:
206,188,69834,5,0,0:0:0:0:
328,205,69992,1,0,0:0:0:0:
234,115,70150,5,0,0:0:0:0:
362,155,70308,1,0,0:0:0:0:
278,41,70466,5,0,0:0:0:0:
409,109,70623,1,0,0:0:0:0:
284,188,70781,5,0,0:0:0:0:
193,146,70939,1,0,0:0:0:0:
282,221,71097,5,0,0:0:0:0:
224,139,71255,1,0,0:0:0:0:
182,231,71413,5,0,0:0:0:0:
273,189,71571,1,0,0:0:0:0:
184,264,71729,5,0,0:0:0:0:
242,182,71887,1,0,0:0:0:0:
142,173,72045,5,0,0:0:0:0:
233,215,72202,1,0,0:0:0:0:
144,140,72360,5,0,0:0:0:0:
202,222,72518,1,0,0:0:0:0:
244,130,72676,5,0,0:0:0:0:
153,172,72834,1,0,0:0:0:0:
242,97,72992,5,0,0:0:0:0:
184,179,73150,1,0,0:0:0:0:
344,160,73308,5,0,0:0:0:0:
334,260,73466,1,0,0:0:0:0:
341,139,73623,5,0,0:0:0:0:
340,240,73781,1,0,0:0:0:0:
253,188,73939,5,0,0:0:0:0:
243,88,74097,1,0,0:0:0:0:
251,208,74255,5,0,0:0:0:0:
250,107,74413,1,0,0:0:0:0:
162,257,74571,5,0,0:0:0:0:
172,157,74729,1,0,0:0:0:0:
164,278,74887,5,0,0:0:0:0:
165,177,75045,1,0,0:0:0:0:
167,298,75202,5,0,0:0:0:0:
160,198,75360,1,0,0:0:0:0:
171,317,75518,1,0,0:0:0:0:
164,277,75597,1,0,0:0:0:0:
158,238,75676,1,0,0:0:0:0:
152,198,75755,1,0,0:0:0:0:
146,159,75834,5,0,0:0:0:0:
245,168,75992,1,0,0:0:0:0:
146,159,76150,5,0,0:0:0:0:
245,168,76308,1,0,0:0:0:0:
155,60,76466,5,0,0:0:0:0:
146,159,76623,1,0,0:0:0:0:
155,60,76781,5,0,0:0:0:0:
146,159,76939,1,0,0:0:0:0:
254,69,77097,5,0,0:0:0:0:
155,60,77255,1,0,0:0:0:0:
254,69,77413,5,0,0:0:0:0:
155,60,77571,1,0,0:0:0:0:
241,218,77729,5,0,0:0:0:0:
254,69,77887,1,0,0:0:0:0:
92,205,78045,5,0,0:0:0:0:
241,218,78202,1,0,0:0:0:0:
105,56,78360,5,0,0:0:0:0:
92,205,78676,5,0,0:0:0:0:
241,218,78834,1,0,0:0:0:0:
254,69,78992,5,0,0:0:0:0:
105,56,79150,1,0,0:0:0:0:
89,234,79308,5,0,0:0:0:0:
267,250,79466,1,0,0:0:0:0:
286,36,79623,6,0,B|261:35|261:35|230:22|221:32|221:32|196:55|186:42,1,95.6250036478044
97,145,79939,5,0,0:0:0:0:
275,129,80097,1,0,0:0:0:0:
51,190,80255,5,0,0:0:0:0:
229,206,80413,1,0,0:0:0:0:
5,145,80571,5,0,0:0:0:0:
183,129,80729,1,0,0:0:0:0:
180,132,80887,6,0,L|328:144,1,148.75
434,161,81518,1,0,0:0:0:0:
367,244,81834,1,0,0:0:0:0:
267,281,82150,6,0,P|309:212|271:139,2,170
223,209,83729,5,0,0:0:0:0:
271,139,83887,1,0,0:0:0:0:
355,145,84045,1,0,0:0:0:0:
394,84,84360,5,0,0:0:0:0:
346,154,84518,1,0,0:0:0:0:
262,147,84676,6,0,P|312:83|394:84,1,170
353,164,85623,1,0,0:0:0:0:
263,146,85939,6,0,B|313:82|313:82|407:84,1,163.200003984375
353,164,86887,1,0,0:0:0:0:
263,146,87202,6,0,B|289:105|289:105|344:79|344:79|403:83,1,163.200003984375
263,146,88466,6,0,B|396:82,1,148.75
400,86,89097,1,0,0:0:0:0:
267,150,89255,1,0,0:0:0:0:
345,139,89413,1,0,0:0:0:0:
263,146,89729,6,0,B|339:110,1,85
400,86,90360,1,0,0:0:0:0:
267,150,90518,1,0,0:0:0:0:
345,139,90676,1,0,0:0:0:0:
400,86,90834,1,0,0:0:0:0:
226,107,90992,6,0,P|208:164|251:206,1,127.5
320,180,91623,2,0,L|333:135,1,42.5
375,217,91939,2,0,L|388:262,1,42.5
430,176,92255,2,0,L|465:53,1,127.5
402,19,92887,2,0,L|366:141,1,127.5
430,176,93518,1,0,0:0:0:0:
464,53,93834,5,0,0:0:0:0:
447,114,93992,1,0,0:0:0:0:
430,176,94150,1,0,0:0:0:0:
422,247,94466,5,0,0:0:0:0:
439,185,94623,1,0,0:0:0:0:
456,124,94781,2,0,L|322:87,1,127.5
299,152,95413,1,0,0:0:0:0:
360,170,95571,1,0,0:0:0:0:
421,188,95729,2,0,L|462:198,1,42.5
386,249,96045,2,0,L|264:216,1,127.5
194,191,96676,6,0,L|192:134,1,42.5
251,143,96992,2,0,L|301:169,1,42.5
264,215,97308,2,0,P|221:260|159:256,1,127.5
250,143,97939,2,0,P|311:157|338:212,1,127.5
195,191,98571,2,0,P|177:131|211:80,1,127.5
285,77,99202,5,0,0:0:0:0:
250,143,99360,1,0,0:0:0:0:
211,80,99518,1,0,0:0:0:0:
285,77,99834,5,0,0:0:0:0:
215,209,99992,1,0,0:0:0:0:
277,82,100150,5,0,0:0:0:0:
282,231,100308,1,0,0:0:0:0:
272,90,100466,5,0,0:0:0:0:
351,216,100623,1,0,0:0:0:0:
271,99,100781,5,0,0:0:0:0:
304,116,100860,1,0,0:0:0:0:
338,133,100939,1,0,0:0:0:0:
372,151,101018,1,0,0:0:0:0:
408,168,101097,6,0,L|410:231,1,63.7500024318696
402,39,101413,1,0,0:0:0:0:
308,206,101571,6,0,L|310:269,1,63.7500024318696
302,77,101887,1,0,0:0:0:0:
212,244,102045,6,0,L|209:307,1,63.7500024318696
218,115,102360,5,0,0:0:0:0:
212,244,102518,1,0,0:0:0:0:
302,77,102676,5,0,0:0:0:0:
308,206,102834,1,0,0:0:0:0:
402,39,102992,5,0,0:0:0:0:
408,168,103150,1,0,0:0:0:0:
302,77,103308,5,0,0:0:0:0:
308,206,103466,1,0,0:0:0:0:
314,335,103623,6,0,L|251:337,1,63.7500024318696
443,329,103939,1,0,0:0:0:0:
308,206,104097,6,0,L|246:218,1,63.7500024318696
433,177,104413,1,0,0:0:0:0:
279,80,104571,6,0,L|220:103,1,63.7500024318696
397,29,104887,5,0,0:0:0:0:
279,80,105045,1,0,0:0:0:0:
400,39,105202,5,0,0:0:0:0:
275,69,105360,1,0,0:0:0:0:
402,50,105518,5,0,0:0:0:0:
273,58,105676,1,0,0:0:0:0:
401,61,105834,5,0,0:0:0:0:
274,47,105992,2,0,L|305:50,1,31.8750012159348
433,65,106150,6,0,L|427:127,1,63.7500024318696
418,256,106466,1,0,0:0:0:0:
401,61,106623,6,0,L|384:121,1,63.7500024318696
352,245,106939,1,0,0:0:0:0:
369,50,107097,6,0,L|342:107,1,63.7500024318696
289,225,107413,6,0,L|315:167,1,63.7500024318696
369,50,107729,1,0,0:0:0:0:
352,245,107887,6,0,L|368:184,1,63.7500024318696
401,61,108202,1,0,0:0:0:0:
418,256,108360,6,0,L|423:193,1,63.7500024318696
433,65,108676,6,0,L|427:127,1,63.7500024318696
418,256,108992,1,0,0:0:0:0:
401,61,109150,6,0,L|384:121,1,63.7500024318696
352,245,109465,1,0,0:0:0:0:
369,50,109623,6,0,L|342:107,1,63.7500024318696
289,225,109939,5,0,0:0:0:0:
219,181,110018,5,0,0:0:0:0:
213,149,110097,1,0,0:0:0:0:
220,118,110175,1,0,0:0:0:0:
238,91,110254,1,0,0:0:0:0:
263,71,110333,1,0,0:0:0:0:
293,62,110412,1,0,0:0:0:0:
324,63,110491,1,0,0:0:0:0:
354,74,110570,1,0,0:0:0:0:
378,95,110649,1,0,0:0:0:0:
393,123,110728,1,0,0:0:0:0:
398,154,110807,1,0,0:0:0:0:
374,210,110887,5,0,0:0:0:0:
360,269,110966,1,0,0:0:0:0:
387,326,111045,1,0,0:0:0:0:
443,350,111124,1,0,0:0:0:0:
500,329,111202,5,0,0:0:0:0:
511,249,111360,1,0,0:0:0:0:
438,273,111518,1,0,0:0:0:0:
500,329,111676,5,0,0:0:0:0:
511,249,111834,1,0,0:0:0:0:
438,273,111992,1,0,0:0:0:0:
500,329,112150,5,0,0:0:0:0:
511,249,112308,1,0,0:0:0:0:
500,169,112466,5,0,0:0:0:0:
361,249,112623,1,0,0:0:0:0:
405,107,112781,5,0,0:0:0:0:
324,245,112938,1,0,0:0:0:0:
263,97,113097,5,0,0:0:0:0:
261,257,113254,1,0,0:0:0:0:
114,177,113413,5,0,0:0:0:0:
192,316,113570,1,0,0:0:0:0:
274,179,113729,5,0,0:0:0:0:
354,190,113887,1,0,0:0:0:0:
434,201,114045,1,0,0:0:0:0:
275,172,114202,5,0,0:0:0:0:
354,190,114360,1,0,0:0:0:0:
432,207,114518,1,0,0:0:0:0:
277,165,114676,5,0,0:0:0:0:
354,190,114834,1,0,0:0:0:0:
294,244,114992,5,0,0:0:0:0:
260,86,115150,1,0,0:0:0:0:
211,240,115309,5,0,0:0:0:0:
330,131,115466,1,0,0:0:0:0:
177,83,115623,5,0,0:0:0:0:
211,239,115781,1,0,0:0:0:0:
367,206,115939,5,0,0:0:0:0:
333,50,116097,2,0,L|338:81,1,31.8750012159348
268,196,116255,5,0,0:0:0:0:
188,185,116413,1,0,0:0:0:0:
177,265,116571,1,0,0:0:0:0:
266,191,116729,5,0,0:0:0:0:
185,187,116887,1,0,0:0:0:0:
181,267,117045,1,0,0:0:0:0:
263,186,117202,5,0,0:0:0:0:
183,189,117360,1,0,0:0:0:0:
186,270,117518,5,0,0:0:0:0:
105,273,117676,1,0,0:0:0:0:
142,201,117834,1,0,0:0:0:0:
183,273,117992,5,0,0:0:0:0:
102,269,118150,1,0,0:0:0:0:
146,200,118308,1,0,0:0:0:0:
181,276,118466,5,0,0:0:0:0:
101,265,118624,1,0,0:0:0:0:
150,201,118782,5,0,0:0:0:0:
86,153,118939,1,0,0:0:0:0:
165,162,119097,1,0,0:0:0:0:
152,199,119255,5,0,0:0:0:0:
84,157,119412,1,0,0:0:0:0:
164,159,119570,1,0,0:0:0:0:
155,198,119729,5,0,0:0:0:0:
83,161,119886,1,0,0:0:0:0:
162,156,120045,5,0,0:0:0:0:
179,74,120124,5,0,0:0:0:0:
161,48,120203,1,0,0:0:0:0:
134,30,120281,1,0,0:0:0:0:
103,24,120360,1,0,0:0:0:0:
71,28,120439,1,0,0:0:0:0:
43,42,120518,1,0,0:0:0:0:
22,65,120597,1,0,0:0:0:0:
8,94,120676,1,0,0:0:0:0:
6,126,120755,1,0,0:0:0:0:
15,157,120834,1,0,0:0:0:0:
34,182,120913,1,0,0:0:0:0:
90,205,120993,5,0,0:0:0:0:
142,236,121072,1,0,0:0:0:0:
163,296,121151,1,0,0:0:0:0:
141,352,121230,1,0,0:0:0:0:
85,377,121308,6,0,L|92:275,1,101.999996887207
102,122,121623,5,0,0:0:0:0:
273,180,121781,1,0,0:0:0:0:
130,111,121939,1,0,0:0:0:0:
266,203,122097,1,0,0:0:0:0:
121,76,122255,1,0,0:0:0:0:
253,225,122413,1,0,0:0:0:0:
162,69,122571,5,0,0:0:0:0:
227,252,122729,1,0,0:0:0:0:
230,255,122887,1,0,0:0:0:0:
24,121,123045,1,0,0:0:0:0:
21,124,123202,1,0,0:0:0:0:
290,106,123360,1,0,0:0:0:0:
62,291,123676,5,0,0:0:0:0:
65,294,123992,1,0,0:0:0:0:
89,122,124150,5,0,0:0:0:0:
260,180,124308,1,0,0:0:0:0:
114,219,124466,5,0,0:0:0:0:
254,191,124624,1,0,0:0:0:0:
118,322,124781,5,0,0:0:0:0:
254,203,124939,1,0,0:0:0:0:
83,145,125097,5,0,0:0:0:0:
203,281,125255,1,0,0:0:0:0:
156,110,125413,5,0,0:0:0:0:
191,287,125571,1,0,0:0:0:0:
225,150,125729,5,0,0:0:0:0:
178,286,125887,1,0,0:0:0:0:
305,162,126044,5,0,0:0:0:0:
168,279,126202,1,0,0:0:0:0:
135,101,126360,5,0,0:0:0:0:
305,162,126518,1,0,0:0:0:0:
218,22,126676,5,0,0:0:0:0:
295,185,126834,1,0,0:0:0:0:
317,67,126992,5,0,0:0:0:0:
271,194,127150,1,0,0:0:0:0:
410,108,127308,5,0,0:0:0:0:
247,184,127466,1,0,0:0:0:0:
121,98,127623,5,0,0:0:0:0:
308,165,127781,1,0,0:0:0:0:
212,11,127939,5,0,0:0:0:0:
297,190,128097,1,0,0:0:0:0:
321,60,128255,5,0,0:0:0:0:
270,200,128413,1,0,0:0:0:0:
423,106,128571,5,0,0:0:0:0:
244,189,128729,1,0,0:0:0:0:
104,93,128887,5,0,0:0:0:0:
87,174,128966,5,0,0:0:0:0:
86,206,129044,1,0,0:0:0:0:
98,236,129123,1,0,0:0:0:0:
120,258,129202,1,0,0:0:0:0:
150,270,129281,1,0,0:0:0:0:
181,269,129360,1,0,0:0:0:0:
210,256,129439,1,0,0:0:0:0:
232,233,129518,1,0,0:0:0:0:
242,203,129597,1,0,0:0:0:0:
240,172,129676,1,0,0:0:0:0:
226,143,129755,1,0,0:0:0:0:
166,123,129835,5,0,0:0:0:0:
215,83,129913,1,0,0:0:0:0:
277,81,129992,1,0,0:0:0:0:
329,117,130071,1,0,0:0:0:0:
349,177,130150,6,0,P|323:152|329:116,1,74.375
331,40,130781,5,0,0:0:0:0:
166,123,130939,1,0,0:0:0:0:
349,177,131097,1,0,0:0:0:0:
211,309,131255,1,0,0:0:0:0:
79,171,131413,6,0,L|142:176,1,63.7500024318696
339,103,131729,2,0,L|275:108,1,63.7500024318696
136,240,132045,2,0,L|141:176,1,63.7500024318696
269,45,132360,2,0,L|274:108,1,63.7500024318696
289,297,132676,6,0,L|352:292,1,63.7500024318696
156,228,132992,2,0,L|92:223,1,63.7500024318696
289,159,133308,2,0,L|353:154,1,63.7500024318696
156,90,133623,2,0,L|92:85,1,63.7500024318696
284,222,133939,6,0,L|289:158,1,63.7500024318696
160,26,134255,2,0,L|155:90,1,63.7500024318696
290,231,134571,2,0,L|295:161,1,63.7500024318696
153,16,134887,2,0,L|148:86,1,63.7500024318696
133,268,135202,5,0,0:0:0:0:
296,240,135360,1,0,0:0:0:0:
268,77,135518,1,0,0:0:0:0:
105,105,135676,1,0,0:0:0:0:
136,285,135834,6,0,B|141:276|141:276|148:287|148:287|152:276|152:276|161:284|161:284|165:272|165:272|171:280|171:280|176:270|176:270|182:278|182:278|187:268|187:268|194:274|194:274|199:266|199:266|206:274|206:274|211:263|211:263|220:271|220:271|220:262|220:262|227:266|227:266|232:260|232:260|240:263|240:263|243:254|243:254|251:259|251:259|254:252|254:252|261:258|261:258|266:250|266:250|273:253|273:253|273:249|273:249|277:252|277:252|281:248|281:248|285:249|285:249|288:246|288:246|291:247|291:247|296:243|296:243|301:247|301:247|302:242|302:242|306:245|306:245|310:242|310:242|314:243|314:243|316:240|316:240|321:242|321:242|324:238|324:238|327:242|327:242|330:237|330:237|336:243|336:243|336:237|336:237|341:241|341:241|341:237|341:237|346:241|346:241|344:236|344:236|351:237|351:237|351:238|351:238|356:238|356:238|358:237|358:237|361:237|361:237|364:234|364:234|371:224,1,382.500014591218
136,285,136466,6,0,L|142:221,1,63.7500024318696
160,31,136781,2,0,L|154:94,1,63.7500024318696
144,284,137097,1,0,0:0:0:0:
133,221,137255,1,0,0:0:0:0:
151,31,137413,1,0,0:0:0:0:
162,94,137571,1,0,0:0:0:0:
204,272,137729,6,0,L|273:261,1,63.7500024318696
422,172,138045,2,0,L|358:162,1,63.7500024318696
203,263,138360,1,0,0:0:0:0:
267,270,138518,1,0,0:0:0:0:
422,163,138676,1,0,0:0:0:0:
357,170,138834,1,0,0:0:0:0:
162,188,138992,6,0,L|169:124,1,63.7500024318696
146,314,139308,2,0,L|138:377,1,63.7500024318696
153,186,139623,1,0,0:0:0:0:
177,125,139781,1,0,0:0:0:0:
154,316,139939,5,0,0:0:0:0:
153,186,140097,1,0,0:0:0:0:
265,250,140255,2,0,L|210:282,1,63.7500024318696
203,296,140571,2,0,L|257:263,1,63.7500024318696
177,125,140886,5,0,0:0:0:0:
260,290,141044,1,0,0:0:0:0:
314,107,141202,1,0,0:0:0:0:
446,245,141360,1,0,0:0:0:0:
308,377,141518,5,0,0:0:0:0:
313,313,141676,1,0,0:0:0:0:
318,249,141834,1,0,0:0:0:0:
322,184,141992,1,0,0:0:0:0:
250,308,142150,5,0,0:0:0:0:
313,313,142308,1,0,0:0:0:0:
378,318,142466,1,0,0:0:0:0:
443,322,142624,1,0,0:0:0:0:
319,250,142781,5,0,0:0:0:0:
382,255,142939,1,0,0:0:0:0:
377,318,143097,1,0,0:0:0:0:
314,313,143255,1,0,0:0:0:0:
387,192,143413,5,0,0:0:0:0:
382,255,143571,1,0,0:0:0:0:
319,250,143729,1,0,0:0:0:0:
324,187,143887,1,0,0:0:0:0:
173,176,144045,5,0,0:0:0:0:
221,134,144203,1,0,0:0:0:0:
284,139,144360,1,0,0:0:0:0:
324,187,144518,1,0,0:0:0:0:
211,286,144676,5,0,0:0:0:0:
169,239,144834,1,0,0:0:0:0:
173,176,144991,1,0,0:0:0:0:
220,135,145149,1,0,0:0:0:0:
211,286,145308,5,0,0:0:0:0:
220,135,145466,1,0,0:0:0:0:
204,285,145623,5,0,0:0:0:0:
226,135,145781,1,0,0:0:0:0:
308,331,145939,6,0,B|238:338|238:338|184:356|184:356|162:318|184:286|229:287|226:319,1,223.125008511544
373,329,146571,5,0,0:0:0:0:
378,265,146729,1,0,0:0:0:0:
314,260,146887,1,0,0:0:0:0:
319,196,147045,1,0,0:0:0:0:
240,337,147202,5,0,0:0:0:0:
245,273,147360,1,0,0:0:0:0:
181,268,147518,1,0,0:0:0:0:
186,204,147676,1,0,0:0:0:0:
199,71,147834,5,0,0:0:0:0:
194,135,147992,1,0,0:0:0:0:
258,140,148150,1,0,0:0:0:0:
253,204,148308,1,0,0:0:0:0:
332,63,148465,5,0,0:0:0:0:
327,127,148623,1,0,0:0:0:0:
391,132,148781,5,0,0:0:0:0:
383,228,148939,1,0,0:0:0:0:
375,324,149097,5,0,0:0:0:0:
311,319,149255,1,0,0:0:0:0:
348,267,149413,1,0,0:0:0:0:
375,324,149571,1,0,0:0:0:0:
284,262,149729,5,0,0:0:0:0:
348,267,149887,1,0,0:0:0:0:
274,371,150044,5,0,0:0:0:0:
220,257,150202,1,0,0:0:0:0:
293,153,150360,6,0,B|326:153|361:161|361:161|383:134|360:96|378:58|416:57|440:101|411:133|400:104,1,223.125008511544
316,290,150992,5,0,0:0:0:0:
247,118,151150,1,0,0:0:0:0:
177,295,151308,1,0,0:0:0:0:
58,147,151466,1,0,0:0:0:0:
207,27,151624,6,0,L|145:16,1,63.7500024318696
31,93,151939,1,0,0:0:0:0:
152,194,152097,2,0,L|96:217,1,31.8750012159348
207,27,152255,6,0,L|145:16,1,63.7500024318696
31,93,152571,1,0,0:0:0:0:
152,194,152729,1,0,0:0:0:0:
34,312,152887,6,0,L|96:323,1,63.7500024318696
210,246,153202,1,0,0:0:0:0:
89,145,153360,2,0,L|145:122,1,31.8750012159348
34,312,153518,6,0,L|96:323,1,63.7500024318696
210,246,153834,1,0,0:0:0:0:
89,145,153992,1,0,0:0:0:0:
273,70,154150,6,0,L|262:132,1,63.7500024318696
89,145,154466,1,0,0:0:0:0:
209,245,154623,2,0,L|221:275,1,31.8750012159348
273,70,154781,6,0,L|262:132,1,63.7500024318696
89,145,155097,1,0,0:0:0:0:
209,245,155255,1,0,0:0:0:0:
342,220,155413,6,0,L|331:158,1,63.7500024318696
158,145,155729,1,0,0:0:0:0:
278,45,155887,2,0,L|290:15,1,31.8750012159348
342,220,156045,6,0,L|331:158,1,63.7500024318696
158,145,156360,5,0,0:0:0:0:
181,125,156438,1,0,0:0:0:0:
205,105,156517,1,0,0:0:0:0:
229,85,156596,1,0,0:0:0:0:
276,45,156676,6,0,L|228:86,1,62.0500017042542
111,185,156992,1,0,0:0:0:0:
296,225,157150,2,0,L|301:256,1,31.0250008521271
276,45,157308,6,0,L|228:86,1,62.0500017042542
111,185,157623,1,0,0:0:0:0:
296,225,157781,1,0,0:0:0:0:
413,125,157939,6,0,L|353:103,1,62.0500017042542
296,225,158255,1,0,0:0:0:0:
439,314,158413,2,0,L|433:282,1,31.0250008521271
413,125,158571,6,0,L|353:103,1,62.0500017042542
296,225,158887,1,0,0:0:0:0:
439,314,159045,1,0,0:0:0:0:
270,373,159202,6,0,L|281:310,1,62.0500017042542
152,271,159518,1,0,0:0:0:0:
231,155,159676,2,0,L|262:160,1,31.0250008521271
270,373,159834,6,0,L|281:310,1,62.0500017042542
152,271,160150,1,0,0:0:0:0:
231,155,160308,1,0,0:0:0:0:
270,373,160466,5,0,0:0:0:0:
231,155,160623,1,0,0:0:0:0:
235,343,160781,5,0,0:0:0:0:
310,134,160938,1,0,0:0:0:0:
219,299,161097,5,0,0:0:0:0:
219,299,161729,6,0,L|226:214,1,85
130,69,162045,2,0,L|137:153,1,85
151,296,162360,1,0,0:0:0:0:
154,299,162439,1,0,0:0:0:0:
157,302,162518,5,0,0:0:0:0:
258,208,162675,1,0,0:0:0:0:
391,209,162833,1,0,0:0:0:0:
246,351,162992,6,0,P|235:309|239:267,1,85
157,157,163308,2,0,P|198:146|240:150,1,85
395,73,163623,2,0,P|405:114|401:156,1,85
440,262,163939,1,0,0:0:0:0:
443,265,164018,1,0,0:0:0:0:
446,268,164097,1,0,0:0:0:0:
323,127,164255,6,0,L|315:211,1,85
302,340,164571,1,0,0:0:0:0:
387,227,164729,1,0,0:0:0:0:
317,121,164887,1,0,0:0:0:0:
320,124,164966,1,0,0:0:0:0:
323,127,165045,1,0,0:0:0:0:
209,217,165202,2,0,P|239:246|277:263,1,85
402,231,165518,5,0,0:0:0:0:
284,186,165675,1,0,0:0:0:0:
372,91,165833,1,0,0:0:0:0:
230,145,165991,1,0,0:0:0:0:
421,173,166150,2,0,L|433:89,1,85
337,214,166466,1,0,0:0:0:0:
340,217,166545,1,0,0:0:0:0:
343,220,166623,1,0,0:0:0:0:
230,128,166781,6,0,L|237:212,1,85
90,224,167097,2,0,L|159:175,1,85
298,77,167413,1,0,0:0:0:0:
301,80,167492,1,0,0:0:0:0:
304,83,167572,5,0,0:0:0:0:
334,217,167729,1,0,0:0:0:0:
267,332,167887,1,0,0:0:0:0:
201,194,168045,6,0,P|242:183|284:187,1,85
86,139,168360,2,0,P|45:128|3:132,1,85
201,84,168676,2,0,P|242:73|284:77,1,85
86,29,168992,1,0,0:0:0:0:
89,32,169071,1,0,0:0:0:0:
92,35,169150,1,0,0:0:0:0:
255,238,169308,6,0,L|248:153,1,85
237,26,169623,1,0,0:0:0:0:
181,134,169781,1,0,0:0:0:0:
255,238,169939,1,0,0:0:0:0:
309,130,170096,1,0,0:0:0:0:
195,73,170255,2,0,P|153:78|124:108,1,85
179,264,170571,5,0,0:0:0:0:
45,182,170729,1,0,0:0:0:0:
187,259,170887,1,0,0:0:0:0:
0,253,171045,1,0,0:0:0:0:
195,264,171203,5,0,0:0:0:0:
198,235,171282,1,0,0:0:0:0:
200,207,171361,1,0,0:0:0:0:
202,179,171440,1,0,0:0:0:0:
129,165,171519,5,0,0:0:0:0:
133,207,171597,1,0,0:0:0:0:
137,249,171676,1,0,0:0:0:0:
141,292,171755,1,0,0:0:0:0:
145,333,171834,6,0,L|61:340,1,85
204,283,172150,2,0,L|211:366,1,85
131,243,172466,1,0,0:0:0:0:
134,246,172545,1,0,0:0:0:0:
137,249,172624,5,0,0:0:0:0:
231,148,172781,1,0,0:0:0:0:
230,15,172939,1,0,0:0:0:0:
116,83,173097,6,0,P|137:119|169:146,1,85
239,279,173413,2,0,P|198:268|163:244,1,85
15,205,173729,2,0,P|36:241|68:268,1,85
221,201,174045,1,0,0:0:0:0:
224,204,174123,1,0,0:0:0:0:
227,207,174202,1,0,0:0:0:0:
91,99,174360,6,0,L|175:106,1,85
311,118,174676,1,0,0:0:0:0:
199,31,174834,1,0,0:0:0:0:
85,93,174992,1,0,0:0:0:0:
88,96,175071,1,0,0:0:0:0:
91,99,175150,1,0,0:0:0:0:
250,197,175308,2,0,L|243:111,1,85
150,144,175623,5,0,0:0:0:0:
227,44,175781,1,0,0:0:0:0:
250,197,175939,1,0,0:0:0:0:
148,79,176096,1,0,0:0:0:0:
323,93,176255,2,0,P|324:136|304:176,1,85
188,261,176571,1,0,0:0:0:0:
191,264,176650,1,0,0:0:0:0:
194,267,176728,1,0,0:0:0:0:
254,118,176887,6,0,L|169:125,1,85
0,141,177202,2,0,L|84:133,1,85
248,112,177518,1,0,0:0:0:0:
251,115,177597,1,0,0:0:0:0:
254,118,177677,5,0,0:0:0:0:
153,212,177834,1,0,0:0:0:0:
20,211,177992,1,0,0:0:0:0:
192,155,178150,6,0,P|214:191|217:236,1,85
299,228,178466,2,0,P|289:270|259:303,1,85
323,355,178781,2,0,P|286:377|241:380,1,85
212,226,179097,1,0,0:0:0:0:
215,229,179176,1,0,0:0:0:0:
218,232,179255,1,0,0:0:0:0:
372,135,179413,6,0,L|364:220,1,85
323,355,179729,1,0,0:0:0:0:
434,308,179887,1,0,0:0:0:0:
323,262,180045,1,0,0:0:0:0:
434,217,180203,1,0,0:0:0:0:
297,157,180361,2,0,L|304:242,1,85
442,165,180676,5,0,0:0:0:0:
303,241,180834,1,0,0:0:0:0:
448,171,180992,1,0,0:0:0:0:
295,127,181150,1,0,0:0:0:0:
454,177,181308,5,0,0:0:0:0:
457,148,181387,1,0,0:0:0:0:
459,120,181466,1,0,0:0:0:0:
461,92,181545,1,0,0:0:0:0:
388,78,181624,5,0,0:0:0:0:
392,120,181703,1,0,0:0:0:0:
396,162,181782,1,0,0:0:0:0:
400,205,181861,1,0,0:0:0:0:
404,247,181940,6,0,P|313:232|252:277,1,152.999995330811
409,298,182255,1,0,0:0:0:0:
407,281,182333,1,0,0:0:0:0:
406,264,182412,1,0,0:0:0:0:
404,247,182491,1,0,0:0:0:0:
399,196,182571,5,0,0:0:0:0:
219,156,182729,1,0,0:0:0:0:
343,20,182887,1,0,0:0:0:0:
343,20,183202,6,0,L|338:40|337:40|342:60|337:80|336:80|341:100|330:118|340:136|329:154|339:172|324:186|324:187|338:201|338:202|323:216|323:217|337:231|337:232|319:242|318:242|335:252|336:252|318:262|317:262|334:272|335:272|315:277|314:277|333:282|334:282|314:287|313:287|332:292|333:292|313:297,1,438.28125
