osu file format v14

[General]
AudioFilename: audio.mp3
AudioLeadIn: 0
PreviewTime: 76869
Countdown: 0
SampleSet: Drum
StackLeniency: 0.7
Mode: 0
LetterboxInBreaks: 0
WidescreenStoryboard: 0

[Editor]
Bookmarks: -16,11126,22097,33069,44040,55012,65983,76955,87926
DistanceSpacing: 1
BeatDivisor: 6
GridSize: 32
TimelineZoom: 3.299999

[Metadata]
Title:Interlude
TitleUnicode:Interlude
Artist:Loki
ArtistUnicode:Loki
Creator:Tatan
Version:Welcome to the Mountain
Source:osu!
Tags:Loki's "Tales of the Mountains" Beatmap Pack FA Featured Artist Symphonic Metal Instrumental Rock Thaehan Gremio Mappers' Guild MG walaowey TheShadowOfDark
BeatmapID:2281346
BeatmapSetID:1091243

[Difficulty]
HPDrainRate:5.5
CircleSize:3.8
OverallDifficulty:8.7
ApproachRate:9.2
SliderMultiplier:1.4
SliderTickRate:1

[Events]
//Background and Video events
0,0,"157854577769081396.jpg",0,0
//Break Periods
//Storyboard Layer 0 (Background)
//Storyboard Layer 1 (Fail)
//Storyboard Layer 2 (Pass)
//Storyboard Layer 3 (Foreground)
//Storyboard Layer 4 (Overlay)
//Storyboard Sound Samples

[TimingPoints]
155,342.857142857143,4,2,1,40,1,0
155,-133.333333333333,4,2,1,40,0,0
11126,-100,4,2,1,40,0,0
22097,-83.3333333333333,4,2,1,50,0,0
55012,-83.3333333333333,4,2,1,60,0,0
65983,-83.3333333333333,4,2,1,50,0,0
76955,-83.3333333333333,4,2,1,40,0,0
77640,-66.6666666666667,4,2,1,40,0,0
77897,-66.6666666666667,4,2,1,5,0,0
77983,-66.6666666666667,4,2,1,40,0,0
78240,-66.6666666666667,4,2,1,5,0,0
78326,-66.6666666666667,4,2,1,40,0,0
80640,-66.6666666666667,4,2,1,5,0,0
80726,-66.6666666666667,4,2,1,40,0,0
80983,-66.6666666666667,4,2,1,5,0,0
81069,-66.6666666666667,4,2,1,40,0,0
87240,-133.333333333333,4,3,1,60,0,0
87926,-133.333333333333,4,3,1,70,0,1
98897,-100,4,2,1,30,0,0
99583,-80,4,2,1,30,0,0
100269,-200,4,2,1,30,0,0
101555,-200,4,2,1,5,0,0
101640,-100,4,2,1,30,0,0
103012,-66.6666666666667,4,2,1,30,0,0
103526,-66.6666666666667,4,2,1,5,0,0
103697,-66.6666666666667,4,2,1,50,0,0
104212,-66.6666666666667,4,2,1,5,0,0
104383,-57.1428571428571,4,2,1,70,0,0
104897,-57.1428571428571,4,2,1,5,0,0
105069,-50,4,2,1,90,0,0
105583,-50,4,2,1,5,0,0

[Colours]
Combo1 : 128,64,0
Combo2 : 255,128,64

[HitObjects]
37,69,155,6,0,L|109:66,3,52.5000020027161,2|0|0|0,0:0|0:0|0:0|0:0,0:0:0:0:
42,145,840,2,0,L|114:142,3,52.5000020027161,2|0|0|0,0:0|0:0|0:0|0:0,0:0:0:0:
225,113,1526,6,0,L|153:110,3,52.5000020027161,2|0|0|0,0:0|0:0|0:0|0:0,0:0:0:0:
220,189,2212,2,0,L|148:186,3,52.5000020027161,2|0|0|0,0:0|0:0|0:0|0:0,0:0:0:0:
456,190,2897,5,2,0:0:0:0:
400,113,3068,1,0,0:0:0:0:
311,143,3240,1,0,0:0:0:0:
311,237,3411,1,0,0:0:0:0:
400,266,3583,5,2,0:0:0:0:
474,190,3755,1,0,0:0:0:0:
405,95,3926,1,0,0:0:0:0:
296,132,4098,1,0,0:0:0:0:
296,247,4269,5,2,0:0:0:0:
405,283,4441,1,0,0:0:0:0:
491,190,4612,1,0,0:0:0:0:
410,79,4783,1,0,0:0:0:0:
222,147,4955,5,2,0:0:0:0:
217,58,5126,1,2,0:0:0:0:
306,54,5297,1,2,0:0:0:0:
311,143,5469,1,0,0:0:0:0:
127,47,5640,6,0,L|130:119,3,52.5000020027161,2|0|0|0,0:0|0:0|0:0|0:0,0:0:0:0:
51,52,6326,2,0,L|54:124,3,52.5000020027161,2|0|0|0,0:0|0:0|0:0|0:0,0:0:0:0:
83,235,7012,6,0,L|86:163,3,52.5000020027161,2|0|0|0,0:0|0:0|0:0|0:0,0:0:0:0:
7,230,7697,2,0,L|10:158,3,52.5000020027161,2|0|0|0,0:0|0:0|0:0|0:0,0:0:0:0:
24,338,8383,5,2,0:0:0:0:
193,308,8555,1,0,0:0:0:0:
36,335,8726,1,0,0:0:0:0:
180,310,8898,1,0,0:0:0:0:
91,215,9069,5,2,0:0:0:0:
121,384,9241,1,0,0:0:0:0:
93,227,9412,1,0,0:0:0:0:
118,372,9584,1,0,0:0:0:0:
289,237,9755,5,2,0:0:0:0:
300,143,9927,1,0,0:0:0:0:
206,131,10098,1,0,0:0:0:0:
195,225,10269,1,0,0:0:0:0:
303,254,10440,5,2,0:0:0:0:
317,129,10612,1,2,0:0:0:0:
191,113,10783,1,2,0:0:0:0:
177,238,10954,1,0,0:0:0:0:
484,112,11126,6,0,L|476:12,1,70,2|0,0:0|0:0,0:0:0:0:
400,49,11469,2,0,L|405:118,1,70
439,369,11812,5,2,0:0:0:0:
337,335,11983,1,0,0:0:0:0:
337,229,12155,1,0,0:0:0:0:
439,196,12326,1,0,0:0:0:0:
501,282,12497,6,0,P|452:288|410:267,1,70,2|0,0:0|0:0,0:0:0:0:
264,212,12840,2,0,P|313:206|355:227,1,70
180,298,13183,2,0,L|170:199,1,70,2|0,0:0|0:0,0:0:0:0:
271,142,13526,2,0,L|263:211,1,70,2|0,0:0|0:0,0:0:0:0:
84,118,13869,5,2,0:0:0:0:
227,59,14040,1,0,0:0:0:0:
177,143,14212,1,0,0:0:0:0:
69,120,14383,1,0,0:0:0:0:
236,49,14555,5,2,0:0:0:0:
323,81,14726,1,0,0:0:0:0:
415,43,14897,1,0,0:0:0:0:
502,75,15068,1,0,0:0:0:0:
439,222,15240,5,2,0:0:0:0:
345,233,15412,1,0,0:0:0:0:
333,139,15583,1,0,0:0:0:0:
427,128,15754,1,0,0:0:0:0:
476,309,15926,6,0,L|374:299,1,70,2|0,0:0|0:0,0:0:0:0:
281,374,16269,2,0,L|383:364,1,70,2|0,0:0|0:0,0:0:0:0:
231,224,16612,5,2,0:0:0:0:
178,363,16783,1,0,0:0:0:0:
213,231,16955,1,0,0:0:0:0:
202,352,17126,1,0,0:0:0:0:
50,137,17297,6,0,P|98:135|140:167,1,70,2|0,0:0|0:0,0:0:0:0:
102,228,17640,2,0,P|67:232|34:221,1,70
185,93,17983,6,0,P|217:81|252:86,1,70,2|0,0:0|0:0,0:0:0:0:
267,170,18326,2,0,P|234:181|199:176,1,70
341,100,18669,5,2,0:0:0:0:
359,196,18840,1,0,0:0:0:0:
259,74,19012,1,2,0:0:0:0:
406,48,19183,1,0,0:0:0:0:
272,239,19355,6,0,L|264:139,1,70,2|0,0:0|0:0,0:0:0:0:
188,176,19698,2,0,L|193:245,1,70
367,305,20040,6,0,L|375:205,1,70,2|0,0:0|0:0,0:0:0:0:
451,242,20383,2,0,L|446:311,1,70
308,366,20726,5,2,0:0:0:0:
221,334,20897,1,0,0:0:0:0:
129,372,21068,1,0,0:0:0:0:
42,340,21239,1,0,0:0:0:0:
112,185,21412,5,2,0:0:0:0:
206,174,21584,1,0,0:0:0:0:
218,268,21755,1,0,0:0:0:0:
124,279,21926,1,0,0:0:0:0:
324,102,22097,5,2,0:0:0:0:
306,251,22269,1,0,0:0:0:0:
245,48,22440,1,2,0:0:0:0:
218,268,22612,1,2,0:0:0:0:
449,131,22783,5,2,0:0:0:0:
340,122,22955,1,2,0:0:0:0:
330,231,23126,1,2,0:0:0:0:
439,240,23297,1,0,0:0:0:0:
232,180,23469,5,2,0:0:0:0:
282,331,23640,1,0,0:0:0:0:
324,102,23812,1,2,0:0:0:0:
218,268,23983,1,2,0:0:0:0:
57,45,24155,5,2,0:0:0:0:
154,18,24326,1,2,0:0:0:0:
264,143,24497,1,2,0:0:0:0:
167,116,24668,1,0,0:0:0:0:
331,21,24840,5,2,0:0:0:0:
381,107,25012,1,0,0:0:0:0:
347,203,25183,1,2,0:0:0:0:
397,289,25355,1,2,0:0:0:0:
480,94,25526,5,2,0:0:0:0:
264,143,25697,1,2,0:0:0:0:
446,194,25869,1,2,0:0:0:0:
254,139,26040,1,0,0:0:0:0:
370,330,26212,5,2,0:0:0:0:
477,312,26383,1,0,0:0:0:0:
460,205,26555,1,2,0:0:0:0:
352,222,26726,1,2,0:0:0:0:
493,324,26897,5,2,0:0:0:0:
357,347,27068,1,2,0:0:0:0:
472,188,27240,1,2,0:0:0:0:
334,209,27411,1,2,0:0:0:0:
219,281,27583,5,2,0:0:0:0:
38,317,27755,1,0,0:0:0:0:
270,349,27926,1,2,0:0:0:0:
1,238,28098,1,0,0:0:0:0:
127,342,28269,5,2,0:0:0:0:
147,233,28440,1,2,0:0:0:0:
128,331,28612,1,2,0:0:0:0:
145,243,28783,1,2,0:0:0:0:
86,85,28955,5,2,0:0:0:0:
244,144,29126,1,0,0:0:0:0:
16,146,29297,1,2,0:0:0:0:
310,72,29469,1,0,0:0:0:0:
99,183,29640,5,2,0:0:0:0:
175,10,29812,1,2,0:0:0:0:
172,250,29983,1,2,0:0:0:0:
86,85,30155,1,2,0:0:0:0:
70,319,30326,5,2,0:0:0:0:
169,356,30497,1,2,0:0:0:0:
275,312,30668,1,2,0:0:0:0:
376,349,30839,1,2,0:0:0:0:
492,171,31012,5,2,0:0:0:0:
297,218,31183,1,2,0:0:0:0:
421,125,31355,1,2,0:0:0:0:
452,250,31526,1,2,0:0:0:0:
414,371,31697,5,2,0:0:0:0:
290,350,31869,1,2,0:0:0:0:
312,229,32040,1,2,0:0:0:0:
435,251,32212,1,2,0:0:0:0:
361,313,32383,5,0,0:0:0:0:
350,298,32555,1,0,0:0:0:0:
365,287,32726,1,0,0:0:0:0:
376,303,32898,1,0,0:0:0:0:
230,269,33069,6,0,P|221:220|253:163,1,83.9999974365235,2|0,0:0|0:0,0:0:0:0:
158,142,33412,2,0,P|195:109|261:108,1,83.9999974365235
455,144,33755,6,0,P|417:176|351:177,1,83.9999974365235,2|0,0:0|0:0,0:0:0:0:
381,270,34098,2,0,P|334:253|300:197,1,83.9999974365235
235,12,34440,6,0,P|281:28|315:84,1,83.9999974365235,2|0,0:0|0:0,0:0:0:0:
380,13,34783,2,0,P|389:61|357:119,1,83.9999974365235
158,142,35126,6,0,L|165:27,1,83.9999974365235,2|0,0:0|0:0,0:0:0:0:
80,49,35469,2,0,L|74:132,1,83.9999974365235,2|0,0:0|0:0,0:0:0:0:
48,291,35812,5,2,0:0:0:0:
199,259,35983,1,0,0:0:0:0:
108,219,36155,1,0,0:0:0:0:
133,332,36326,1,0,0:0:0:0:
187,167,36497,5,2,0:0:0:0:
227,341,36669,1,0,0:0:0:0:
99,202,36840,1,0,0:0:0:0:
214,255,37012,1,0,0:0:0:0:
48,291,37183,5,2,0:0:0:0:
110,112,37355,1,0,0:0:0:0:
133,332,37526,1,0,0:0:0:0:
14,212,37697,1,0,0:0:0:0:
267,154,37869,5,2,0:0:0:0:
251,243,38040,1,2,0:0:0:0:
162,227,38212,1,2,0:0:0:0:
178,138,38383,1,0,0:0:0:0:
332,283,38555,6,0,P|341:234|309:177,1,83.9999974365235,2|0,0:0|0:0,0:0:0:0:
404,156,38898,2,0,P|366:123|300:122,1,83.9999974365235
107,158,39241,6,0,P|144:190|210:191,1,83.9999974365235,2|0,0:0|0:0,0:0:0:0:
181,284,39584,2,0,P|227:267|261:211,1,83.9999974365235
327,26,39926,6,0,P|280:42|246:98,1,83.9999974365235,2|0,0:0|0:0,0:0:0:0:
182,27,40269,2,0,P|173:75|205:133,1,83.9999974365235
483,155,40612,6,0,L|480:58,1,83.9999974365235,2|0,0:0|0:0,0:0:0:0:
401,72,40955,2,0,L|403:155,1,83.9999974365235,2|0,0:0|0:0,0:0:0:0:
457,368,41297,5,2,0:0:0:0:
469,253,41468,1,0,0:0:0:0:
356,238,41640,1,0,0:0:0:0:
342,352,41811,1,0,0:0:0:0:
450,359,41983,5,2,0:0:0:0:
461,259,42154,1,0,0:0:0:0:
350,345,42326,1,0,0:0:0:0:
362,246,42497,1,0,0:0:0:0:
244,367,42669,5,2,0:0:0:0:
256,267,42840,1,0,0:0:0:0:
150,200,43012,1,0,0:0:0:0:
162,300,43183,1,0,0:0:0:0:
231,174,43355,5,2,0:0:0:0:
71,251,43526,1,2,0:0:0:0:
256,267,43697,1,2,0:0:0:0:
168,114,43869,1,0,0:0:0:0:
337,324,44040,6,0,P|355:286|354:244,1,83.9999974365235,2|0,0:0|0:0,0:0:0:0:
278,61,44383,1,0,0:0:0:0:
231,174,44555,1,0,0:0:0:0:
407,161,44726,6,0,P|369:143|327:144,1,83.9999974365235,2|0,0:0|0:0,0:0:0:0:
143,220,45069,1,0,0:0:0:0:
256,267,45241,1,0,0:0:0:0:
247,94,45412,6,0,P|229:131|230:173,1,83.9999974365235,2|0,0:0|0:0,0:0:0:0:
306,358,45755,1,0,0:0:0:0:
353,245,45927,1,0,0:0:0:0:
130,376,46097,6,0,L|239:371,1,83.9999974365235,2|0,0:0|0:0,0:0:0:0:
83,286,46440,2,0,L|0:282,1,83.9999974365235,2|0,0:0|0:0,0:0:0:0:
163,204,46783,6,0,P|185:252|166:319,1,83.9999974365235,2|0,0:0|0:0,0:0:0:0:
84,140,47126,1,0,0:0:0:0:
51,231,47297,1,0,0:0:0:0:
117,58,47469,6,0,P|75:53|34:70,1,83.9999974365235,2|0,0:0|0:0,0:0:0:0:
187,114,47812,1,0,0:0:0:0:
220,23,47983,1,0,0:0:0:0:
133,190,48155,6,0,P|172:205|214:201,1,83.9999974365235,2|0,0:0|0:0,0:0:0:0:
311,56,48497,1,0,0:0:0:0:
187,114,48668,1,0,0:0:0:0:
380,236,48840,6,0,L|385:126,1,83.9999974365235,2|0,0:0|0:0,0:0:0:0:
304,147,49183,2,0,L|300:230,1,83.9999974365235,2|0,0:0|0:0,0:0:0:0:
310,337,49526,6,0,P|274:315|229:310,1,83.9999974365235,2|0,0:0|0:0,0:0:0:0:
143,362,49869,1,0,0:0:0:0:
155,253,50040,1,0,0:0:0:0:
0,270,50212,6,0,P|35:291|81:297,1,83.9999974365235,2|0,0:0|0:0,0:0:0:0:
177,136,50555,1,0,0:0:0:0:
165,245,50726,1,0,0:0:0:0:
44,111,50897,6,0,L|40:-15,1,83.9999974365235,2|0,0:0|0:0,0:0:0:0:
97,181,51240,1,0,0:0:0:0:
0,186,51412,1,0,0:0:0:0:
193,139,51583,6,0,L|197:265,1,83.9999974365235,2|0,0:0|0:0,0:0:0:0:
140,69,51926,1,2,0:0:0:0:
237,64,52098,1,0,0:0:0:0:
382,127,52269,6,0,P|341:133|302:117,1,83.9999974365235,2|0,0:0|0:0,0:0:0:0:
315,34,52612,2,0,P|355:27|394:43,1,83.9999974365235
498,202,52955,6,0,P|457:195|418:211,1,83.9999974365235,2|0,0:0|0:0,0:0:0:0:
431,295,53298,2,0,P|471:301|510:285,1,83.9999974365235
323,210,53640,6,0,L|314:320,1,83.9999974365235,2|0,0:0|0:0,0:0:0:0:
244,198,53983,2,0,L|235:308,1,83.9999974365235
154,345,54326,6,0,L|145:235,1,83.9999974365235,2|2,0:0|0:0,0:0:0:0:
75,357,54669,2,0,L|66:247,1,83.9999974365235,2|0,0:0|0:0,0:0:0:0:
50,97,55012,5,2,0:0:0:0:
142,88,55183,1,0,0:0:0:0:
150,181,55355,1,2,0:0:0:0:
57,189,55526,1,2,0:0:0:0:
230,37,55697,5,2,0:0:0:0:
239,224,55869,1,2,0:0:0:0:
314,49,56040,1,2,0:0:0:0:
321,205,56212,1,0,0:0:0:0:
38,86,56383,5,2,0:0:0:0:
48,201,56554,1,0,0:0:0:0:
163,191,56726,1,2,0:0:0:0:
151,77,56897,1,2,0:0:0:0:
107,287,57069,5,2,0:0:0:0:
257,244,57240,1,2,0:0:0:0:
91,292,57412,1,2,0:0:0:0:
283,334,57583,1,2,0:0:0:0:
137,195,57755,5,2,0:0:0:0:
184,349,57926,1,2,0:0:0:0:
198,113,58097,1,2,0:0:0:0:
107,287,58269,1,2,0:0:0:0:
282,77,58440,5,2,0:0:0:0:
140,39,58612,1,2,0:0:0:0:
301,163,58783,1,2,0:0:0:0:
374,63,58955,1,2,0:0:0:0:
210,152,59126,5,2,0:0:0:0:
243,235,59297,1,2,0:0:0:0:
333,248,59469,1,2,0:0:0:0:
389,177,59640,1,2,0:0:0:0:
183,147,59812,5,2,0:0:0:0:
226,255,59983,1,2,0:0:0:0:
344,272,60155,1,2,0:0:0:0:
417,179,60326,1,2,0:0:0:0:
267,58,60497,5,2,0:0:0:0:
76,117,60669,1,0,0:0:0:0:
304,137,60840,1,2,0:0:0:0:
34,44,61012,1,2,0:0:0:0:
160,176,61183,5,2,0:0:0:0:
183,6,61355,1,2,0:0:0:0:
162,162,61526,1,2,0:0:0:0:
182,21,61697,1,0,0:0:0:0:
229,255,61869,5,2,0:0:0:0:
55,203,62040,1,0,0:0:0:0:
285,326,62212,1,2,0:0:0:0:
0,356,62383,1,2,0:0:0:0:
142,161,62555,5,2,0:0:0:0:
170,360,62727,1,2,0:0:0:0:
139,139,62898,1,2,0:0:0:0:
171,380,63070,1,2,0:0:0:0:
349,102,63240,5,2,0:0:0:0:
234,89,63412,1,2,0:0:0:0:
92,237,63583,1,2,0:0:0:0:
203,206,63755,1,2,0:0:0:0:
151,24,63926,5,2,0:0:0:0:
139,139,64098,1,2,0:0:0:0:
315,278,64269,1,2,0:0:0:0:
283,167,64441,1,2,0:0:0:0:
92,353,64612,5,2,0:0:0:0:
206,364,64784,1,2,0:0:0:0:
218,250,64955,1,2,0:0:0:0:
104,238,65126,1,2,0:0:0:0:
108,339,65297,5,0,0:0:0:0:
192,347,65469,1,0,0:0:0:0:
201,263,65640,1,0,0:0:0:0:
117,254,65811,1,0,0:0:0:0:
295,322,65983,6,0,P|316:286|318:244,1,83.9999974365235,2|0,0:0|0:0,0:0:0:0:
286,98,66326,2,0,P|265:133|263:175,1,83.9999974365235
478,143,66669,6,0,L|471:34,1,83.9999974365235,2|0,0:0|0:0,0:0:0:0:
394,65,67012,2,0,L|399:148,1,83.9999974365235
428,328,67355,6,0,P|469:334|508:318,1,83.9999974365235,2|0,0:0|0:0,0:0:0:0:
495,235,67698,2,0,P|455:228|416:244,1,83.9999974365235
327,379,68040,6,0,P|286:385|247:369,1,83.9999974365235,2|0,0:0|0:0,0:0:0:0:
260,286,68383,2,0,P|300:279|339:295,1,83.9999974365235
175,323,68726,5,2,0:0:0:0:
82,315,68897,1,0,0:0:0:0:
182,236,69069,1,0,0:0:0:0:
89,228,69240,1,0,0:0:0:0:
200,213,69412,5,2,0:0:0:0:
188,347,69583,1,0,0:0:0:0:
75,203,69755,1,0,0:0:0:0:
63,337,69926,1,0,0:0:0:0:
219,196,70097,5,2,0:0:0:0:
59,183,70268,1,0,0:0:0:0:
44,354,70440,1,0,0:0:0:0:
204,367,70611,1,0,0:0:0:0:
150,112,70783,5,2,0:0:0:0:
134,303,70955,1,0,0:0:0:0:
200,213,71126,1,0,0:0:0:0:
75,203,71297,1,0,0:0:0:0:
276,279,71469,6,0,P|297:243|299:201,1,83.9999974365235,2|0,0:0|0:0,0:0:0:0:
267,55,71812,2,0,P|246:90|244:132,1,83.9999974365235
450,10,72155,6,0,L|341:17,1,83.9999974365235,2|0,0:0|0:0,0:0:0:0:
372,94,72498,2,0,L|455:89,1,83.9999974365235
414,258,72841,6,0,P|408:217|424:178,1,83.9999974365235,2|0,0:0|0:0,0:0:0:0:
507,191,73184,2,0,P|514:231|498:270,1,83.9999974365235
238,337,73526,6,0,P|222:298|229:258,1,83.9999974365235,2|0,0:0|0:0,0:0:0:0:
312,245,73869,2,0,P|327:283|322:325,1,83.9999974365235
65,151,74212,5,2,0:0:0:0:
258,175,74383,1,0,0:0:0:0:
93,240,74555,1,0,0:0:0:0:
38,68,74726,1,0,0:0:0:0:
179,214,74897,5,2,0:0:0:0:
2,202,75069,1,0,0:0:0:0:
152,128,75240,1,0,0:0:0:0:
92,260,75412,1,0,0:0:0:0:
105,41,75583,5,2,0:0:0:0:
179,214,75755,1,0,0:0:0:0:
193,18,75926,1,0,0:0:0:0:
59,115,76097,1,0,0:0:0:0:
298,106,76269,5,2,0:0:0:0:
87,13,76440,1,0,0:0:0:0:
179,230,76612,1,0,0:0:0:0:
296,26,76783,1,0,0:0:0:0:
183,110,76955,5,2,0:0:0:0:
410,155,77297,5,2,0:0:0:0:
333,219,77468,1,2,0:0:0:0:
502,238,77640,2,0,P|461:225|441:324,1,157.500006008148,2|0,0:0|0:0,0:0:0:0:
436,306,77983,2,0,P|441:235|417:144,1,157.500006008148,2|0,0:0|0:0,0:0:0:0:
410,155,78326,1,2,0:0:0:0:
80,181,78669,5,2,0:0:0:0:
156,23,78840,1,2,0:0:0:0:
187,196,79012,1,2,0:0:0:0:
61,74,79183,1,2,0:0:0:0:
234,98,79355,1,2,0:0:0:0:
80,181,79526,1,2,0:0:0:0:
143,113,79697,1,2,0:0:0:0:
0,259,80040,5,2,0:0:0:0:
26,346,80211,1,2,0:0:0:0:
206,264,80383,2,0,P|160:265|112:357,1,157.500006008148,2|0,0:0|0:0,0:0:0:0:
119,356,80726,2,0,B|131:309|111:264|96:289|76:245|88:198,1,157.500006008148,2|0,0:0|0:0,0:0:0:0:
95,202,81069,1,2,0:0:0:0:
371,321,81412,5,2,0:0:0:0:
275,353,81583,1,2,0:0:0:0:
202,238,81755,1,2,0:0:0:0:
298,270,81926,1,2,0:0:0:0:
384,160,82097,1,2,0:0:0:0:
272,188,82268,1,2,0:0:0:0:
472,244,82440,5,2,0:0:0:0:
457,85,82612,1,2,0:0:0:0:
300,97,82783,1,2,0:0:0:0:
314,256,82955,1,2,0:0:0:0:
470,69,83126,5,2,0:0:0:0:
487,257,83298,1,2,0:0:0:0:
284,83,83469,1,2,0:0:0:0:
300,271,83641,1,2,0:0:0:0:
384,32,83812,5,2,0:0:0:0:
143,101,83983,1,2,0:0:0:0:
384,128,84155,1,2,0:0:0:0:
126,98,84326,1,2,0:0:0:0:
288,0,84497,5,2,0:0:0:0:
309,194,84669,1,2,0:0:0:0:
202,28,84840,1,2,0:0:0:0:
220,190,85012,1,2,0:0:0:0:
288,94,85183,5,2,0:0:0:0:
114,15,85355,1,2,0:0:0:0:
224,205,85526,1,2,0:0:0:0:
288,0,85697,1,2,0:0:0:0:
166,108,85869,1,2,0:0:0:0:
376,129,86040,1,2,0:0:0:0:
208,36,86212,1,2,0:0:0:0:
224,220,86383,1,2,0:0:0:0:
372,34,86555,5,2,0:0:0:0:
156,120,86726,1,2,0:0:0:0:
330,225,86897,1,2,0:0:0:0:
288,0,87069,1,2,0:0:0:0:
261,117,87240,6,0,L|262:140,10,17.500000667572,2|0|0|0|0|0|0|0|0|0|0,0:0|0:0|0:0|0:0|0:0|0:0|0:0|0:0|0:0|0:0|0:0,0:0:0:0:
244,93,87926,1,4,0:2:0:0:
64,288,88269,5,2,3:0:0:0:
96,96,88440,1,2,3:0:0:0:
159,263,88612,1,0,3:0:0:0:
37,205,88783,1,0,0:0:0:0:
203,187,88955,2,0,L|226:188,4,17.500000667572,2|0|0|0|0,0:0|0:0|0:0|0:0|0:0,0:0:0:0:
177,167,89297,1,4,0:2:0:0:
416,352,89640,5,2,0:0:0:0:
430,168,89812,1,2,0:0:0:0:
324,368,89983,1,0,0:0:0:0:
493,263,90155,1,2,0:0:0:0:
312,154,90326,2,0,L|289:155,4,17.500000667572,2|0|0|0|0,0:0|0:0|0:0|0:0|0:0,0:0:0:0:
332,136,90669,1,4,0:2:0:0:
119,341,91012,5,2,0:0:0:0:
27,193,91183,1,2,0:0:0:0:
36,372,91355,1,0,0:0:0:0:
96,129,91526,1,0,0:0:0:0:
206,362,91697,2,0,L|205:379,4,17.500000667572,2|0|0|0|0,0:0|0:0|0:0|0:0|0:0,0:0:0:0:
221,341,92040,1,4,0:2:0:0:
160,32,92383,5,2,0:0:0:0:
105,225,92555,1,2,0:0:0:0:
167,5,92726,1,2,0:0:0:0:
222,262,92897,1,2,0:0:0:0:
65,71,93069,2,0,L|65:53,4,17.500000667572,2|0|0|2|0,0:0|0:0|0:0|0:0|0:0,0:0:0:0:
82,95,93412,5,2,0:0:0:0:
334,62,93583,1,0,0:0:0:0:
189,168,93755,1,2,0:0:0:0:
167,5,93926,1,0,0:0:0:0:
316,223,94097,5,2,0:0:0:0:
64,192,94269,1,0,0:0:0:0:
261,112,94440,1,2,0:0:0:0:
230,298,94612,1,0,0:0:0:0:
148,87,94783,5,2,0:0:0:0:
223,316,94955,1,0,0:0:0:0:
220,25,95126,1,2,0:0:0:0:
130,282,95297,1,0,0:0:0:0:
320,64,95469,5,2,0:0:0:0:
62,104,95640,1,0,0:0:0:0:
318,239,95812,1,2,0:0:0:0:
341,52,95983,1,0,0:0:0:0:
210,221,96155,5,2,0:0:0:0:
448,188,96326,1,0,0:0:0:0:
172,109,96497,1,2,0:0:0:0:
279,324,96669,1,0,0:0:0:0:
220,25,96840,5,2,0:0:0:0:
173,313,97012,1,0,0:0:0:0:
272,107,97183,1,2,0:0:0:0:
114,226,97355,1,0,0:0:0:0:
341,180,97526,5,2,0:0:0:0:
68,139,97697,1,0,0:0:0:0:
362,97,97869,1,2,0:0:0:0:
21,218,98040,1,0,0:0:0:0:
299,39,98212,5,6,0:2:0:0:
204,317,98383,1,2,0:0:0:0:
149,42,98555,1,2,0:0:0:0:
255,245,98726,1,2,0:0:0:0:
68,139,98897,6,0,P|107:128|143:134,1,70,2|2,0:2|0:0,0:0:0:0:
148,216,99240,2,0,P|114:226|80:223,1,70,2|2,0:0|0:0,0:0:0:0:
225,79,99583,2,0,B|253:116|239:161|239:161|226:206|254:244,1,175,2|2,0:0|0:0,0:0:0:0:
352,281,100269,6,0,P|289:253|319:373,1,262.5,2|0,0:0|0:0,0:0:0:0:
315,365,101640,6,0,P|353:366|384:384,1,70,2|0,0:0|0:0,0:0:0:0:
507,285,101983,2,0,P|469:286|438:304,1,70,2|0,0:0|0:0,0:0:0:0:
503,373,102326,1,2,0:0:0:0:
503,373,102669,1,2,0:0:0:0:
397,58,103012,6,0,B|459:17|530:103|455:179|364:145|397:90|318:79|263:103,1,315.000012016297,2|0,0:0|0:0,0:0:0:0:
3,75,103697,6,0,B|75:96|109:182|109:182|122:90|187:52,1,315.000012016297,2|0,0:0|0:0,0:0:0:0:
255,224,104383,6,0,B|333:181|310:101|235:73|185:104|153:207|211:267|276:278,1,367.500003504753,2|0,0:0|0:0,0:0:0:0:
486,316,105069,6,0,B|413:289|354:339|354:339|295:388|222:362|222:362|150:335|91:385,1,420,2|0,0:0|0:0,0:0:0:0:
