osu file format v14

[General]
AudioFilename: audio.mp3
AudioLeadIn: 0
PreviewTime: 87755
Countdown: 0
SampleSet: Soft
StackLeniency: 0.6
Mode: 0
LetterboxInBreaks: 0
WidescreenStoryboard: 1

[Editor]
DistanceSpacing: 0.8
BeatDivisor: 2
GridSize: 4
TimelineZoom: 1

[Metadata]
Title:Interlude
TitleUnicode:Interlude
Artist:Loki
ArtistUnicode:Loki
Creator:Chewin
Version:Normal
Source:
Tags:Tales of the Mountains featured artist symphony osu!
BeatmapID:1398736
BeatmapSetID:659093

[Difficulty]
HPDrainRate:3
CircleSize:3
OverallDifficulty:3
ApproachRate:5
SliderMultiplier:1.2
SliderTickRate:1

[Events]
//Background and Video events
0,0,"BG.png",0,0
//Break Periods
//Storyboard Layer 0 (Background)
//Storyboard Layer 1 (Fail)
//Storyboard Layer 2 (Pass)
//Storyboard Layer 3 (Foreground)
//Storyboard Sound Samples

[TimingPoints]
155,342.857142857143,4,2,1,50,1,0
326,-100,4,2,2,50,0,0
497,-100,4,2,3,50,0,0
669,-100,4,2,4,50,0,0
840,-100,4,2,1,50,0,0
1011,-100,4,2,2,50,0,0
1183,-100,4,2,3,50,0,0
1355,-100,4,2,4,50,0,0
1526,-100,4,2,1,50,0,0
1697,-100,4,2,2,50,0,0
1869,-100,4,2,3,50,0,0
2040,-100,4,2,4,50,0,0
2212,-100,4,2,1,50,0,0
2383,-100,4,2,2,50,0,0
2555,-100,4,2,3,50,0,0
2726,-100,4,2,4,50,0,0
2897,-100,4,2,5,50,0,0
3069,-100,4,2,2,50,0,0
3240,-100,4,2,3,50,0,0
3412,-100,4,2,4,50,0,0
3583,-100,4,2,5,50,0,0
3755,-100,4,2,2,50,0,0
3926,-100,4,2,3,50,0,0
4097,-100,4,2,4,50,0,0
4269,-100,4,2,5,50,0,0
4440,-100,4,2,2,50,0,0
4612,-100,4,2,3,50,0,0
4783,-100,4,2,4,50,0,0
4954,-100,4,2,6,50,0,0
5125,-100,4,2,7,50,0,0
5297,-100,4,2,2,50,0,0
5469,-100,4,2,3,50,0,0
5640,-100,4,2,1,50,0,0
5812,-100,4,2,2,50,0,0
5983,-100,4,2,3,50,0,0
6155,-100,4,2,4,50,0,0
6326,-100,4,2,1,50,0,0
6497,-100,4,2,2,50,0,0
6669,-100,4,2,3,50,0,0
6840,-100,4,2,4,50,0,0
7012,-100,4,2,1,50,0,0
7183,-100,4,2,2,50,0,0
7355,-100,4,2,3,50,0,0
7526,-100,4,2,4,50,0,0
7697,-100,4,2,1,50,0,0
7869,-100,4,2,2,50,0,0
8040,-100,4,2,3,50,0,0
8212,-100,4,2,4,50,0,0
8383,-100,4,2,7,50,0,0
8555,-100,4,2,4,50,0,0
8726,-100,4,2,8,50,0,0
8897,-100,4,2,9,50,0,0
9069,-100,4,2,7,50,0,0
9240,-100,4,2,4,50,0,0
9412,-100,4,2,8,50,0,0
9583,-100,4,2,9,50,0,0
9755,-100,4,2,1,50,0,0
9926,-100,4,2,3,50,0,0
10097,-100,4,2,4,50,0,0
10269,-100,4,2,10,50,0,0
10440,-100,4,2,1,50,0,0
10612,-100,4,2,2,50,0,0
10783,-100,4,2,3,50,0,0
10955,-100,4,2,10,50,0,0
11126,-100,4,2,1,50,0,0
11297,-100,4,2,2,50,0,0
11469,-100,4,2,3,50,0,0
11640,-100,4,2,4,50,0,0
11812,-100,4,2,1,50,0,0
11983,-100,4,2,2,50,0,0
12155,-100,4,2,3,50,0,0
12326,-100,4,2,4,50,0,0
12497,-100,4,2,1,50,0,0
12669,-100,4,2,2,50,0,0
12840,-100,4,2,3,50,0,0
13012,-100,4,2,4,50,0,0
13183,-100,4,2,1,50,0,0
13355,-100,4,2,2,50,0,0
13526,-100,4,2,3,50,0,0
13697,-100,4,2,4,50,0,0
13869,-100,4,2,5,50,0,0
14040,-100,4,2,2,50,0,0
14212,-100,4,2,3,50,0,0
14383,-100,4,2,4,50,0,0
14555,-100,4,2,5,50,0,0
14726,-100,4,2,2,50,0,0
14897,-100,4,2,3,50,0,0
15069,-100,4,2,4,50,0,0
15240,-100,4,2,5,50,0,0
15412,-100,4,2,2,50,0,0
15583,-100,4,2,3,50,0,0
15755,-100,4,2,4,50,0,0
15926,-100,4,2,6,50,0,0
16097,-100,4,2,7,50,0,0
16269,-100,4,2,2,50,0,0
16440,-100,4,2,3,50,0,0
16612,-100,4,2,1,50,0,0
16783,-100,4,2,2,50,0,0
16955,-100,4,2,3,50,0,0
17126,-100,4,2,4,50,0,0
17297,-100,4,2,1,50,0,0
17469,-100,4,2,2,50,0,0
17640,-100,4,2,3,50,0,0
17812,-100,4,2,4,50,0,0
17983,-100,4,2,1,50,0,0
18155,-100,4,2,2,50,0,0
18326,-100,4,2,3,50,0,0
18497,-100,4,2,4,50,0,0
18669,-100,4,2,1,50,0,0
18840,-100,4,2,2,50,0,0
19012,-100,4,2,3,50,0,0
19183,-100,4,2,4,50,0,0
19355,-100,4,2,7,50,0,0
19526,-100,4,2,4,50,0,0
19697,-100,4,2,8,50,0,0
19869,-100,4,2,9,50,0,0
20040,-100,4,2,7,50,0,0
20212,-100,4,2,4,50,0,0
20383,-100,4,2,8,50,0,0
20555,-100,4,2,9,50,0,0
20726,-100,4,2,1,50,0,0
20897,-100,4,2,3,50,0,0
21069,-100,4,2,4,50,0,0
21240,-100,4,2,10,50,0,0
21412,-100,4,2,1,50,0,0
21583,-100,4,2,2,50,0,0
21755,-100,4,2,3,50,0,0
21926,-100,4,2,10,50,0,0
22097,-100,4,2,4,50,0,0
22269,-100,4,2,9,50,0,0
22440,-100,4,2,4,50,0,0
22612,-100,4,2,2,50,0,0
22783,-100,4,2,3,50,0,0
22955,-100,4,2,4,50,0,0
23126,-100,4,2,8,50,0,0
23297,-100,4,2,11,50,0,0
23469,-100,4,2,4,50,0,0
23640,-100,4,2,11,50,0,0
23812,-100,4,2,4,50,0,0
23983,-100,4,2,3,50,0,0
24155,-100,4,2,1,50,0,0
24326,-100,4,2,2,50,0,0
24497,-100,4,2,7,50,0,0
24669,-100,4,2,1,50,0,0
24840,-100,4,2,5,50,0,0
25012,-100,4,2,2,50,0,0
25183,-100,4,2,5,50,0,0
25355,-100,4,2,6,50,0,0
25526,-100,4,2,12,50,0,0
25697,-100,4,2,6,50,0,0
25869,-100,4,2,5,50,0,0
26040,-100,4,2,7,50,0,0
26212,-100,4,2,1,50,0,0
26383,-100,4,2,2,50,0,0
26555,-100,4,2,3,50,0,0
26726,-100,4,2,4,50,0,0
26897,-100,4,2,11,50,0,0
27069,-100,4,2,4,50,0,0
27240,-100,4,2,3,50,0,0
27412,-100,4,2,2,50,0,0
27583,-100,4,2,4,50,0,0
27755,-100,4,2,9,50,0,0
27926,-100,4,2,4,50,0,0
28097,-100,4,2,2,50,0,0
28269,-100,4,2,3,50,0,0
28440,-100,4,2,4,50,0,0
28612,-100,4,2,8,50,0,0
28783,-100,4,2,11,50,0,0
28955,-100,4,2,4,50,0,0
29126,-100,4,2,11,50,0,0
29297,-100,4,2,4,50,0,0
29469,-100,4,2,3,50,0,0
29640,-100,4,2,1,50,0,0
29812,-100,4,2,2,50,0,0
29983,-100,4,2,7,50,0,0
30155,-100,4,2,1,50,0,0
30326,-100,4,2,5,50,0,0
30497,-100,4,2,2,50,0,0
30669,-100,4,2,5,50,0,0
30840,-100,4,2,6,50,0,0
31012,-100,4,2,12,50,0,0
31183,-100,4,2,6,50,0,0
31355,-100,4,2,5,50,0,0
31526,-100,4,2,7,50,0,0
31697,-100,4,2,1,50,0,0
31869,-100,4,2,2,50,0,0
32040,-100,4,2,3,50,0,0
32212,-100,4,2,4,50,0,0
32383,-100,4,2,11,50,0,0
32555,-100,4,2,13,50,0,0
32726,-100,4,2,14,50,0,0
32897,-100,4,2,15,50,0,0
33069,-100,4,2,1,50,0,0
33240,-100,4,2,2,50,0,0
33412,-100,4,2,3,50,0,0
33583,-100,4,2,4,50,0,0
33755,-100,4,2,1,50,0,0
33926,-100,4,2,2,50,0,0
34097,-100,4,2,3,50,0,0
34269,-100,4,2,4,50,0,0
34440,-100,4,2,1,50,0,0
34612,-100,4,2,2,50,0,0
34783,-100,4,2,3,50,0,0
34955,-100,4,2,4,50,0,0
35126,-100,4,2,1,50,0,0
35297,-100,4,2,2,50,0,0
35469,-100,4,2,3,50,0,0
35640,-100,4,2,4,50,0,0
35812,-100,4,2,5,50,0,0
35983,-100,4,2,2,50,0,0
36155,-100,4,2,3,50,0,0
36326,-100,4,2,4,50,0,0
36497,-100,4,2,5,50,0,0
36669,-100,4,2,2,50,0,0
36840,-100,4,2,3,50,0,0
37012,-100,4,2,4,50,0,0
37183,-100,4,2,5,50,0,0
37355,-100,4,2,2,50,0,0
37526,-100,4,2,3,50,0,0
37697,-100,4,2,4,50,0,0
37869,-100,4,2,6,50,0,0
38040,-100,4,2,7,50,0,0
38212,-100,4,2,2,50,0,0
38383,-100,4,2,3,50,0,0
38555,-100,4,2,1,50,0,0
38726,-100,4,2,2,50,0,0
38897,-100,4,2,3,50,0,0
39069,-100,4,2,4,50,0,0
39240,-100,4,2,1,50,0,0
39412,-100,4,2,2,50,0,0
39583,-100,4,2,3,50,0,0
39755,-100,4,2,4,50,0,0
39926,-100,4,2,1,50,0,0
40097,-100,4,2,2,50,0,0
40269,-100,4,2,3,50,0,0
40440,-100,4,2,4,50,0,0
40612,-100,4,2,1,50,0,0
40783,-100,4,2,2,50,0,0
40955,-100,4,2,3,50,0,0
41126,-100,4,2,4,50,0,0
41297,-100,4,2,7,50,0,0
41469,-100,4,2,4,50,0,0
41640,-100,4,2,8,50,0,0
41812,-100,4,2,9,50,0,0
41983,-100,4,2,7,50,0,0
42155,-100,4,2,4,50,0,0
42326,-100,4,2,8,50,0,0
42497,-100,4,2,9,50,0,0
42669,-100,4,2,1,50,0,0
42840,-100,4,2,3,50,0,0
43012,-100,4,2,4,50,0,0
43183,-100,4,2,10,50,0,0
43355,-100,4,2,1,50,0,0
43526,-100,4,2,2,50,0,0
43697,-100,4,2,3,50,0,0
43869,-100,4,2,10,50,0,0
44040,-100,4,2,1,50,0,0
44212,-100,4,2,2,50,0,0
44383,-100,4,2,3,50,0,0
44555,-100,4,2,4,50,0,0
44726,-100,4,2,1,50,0,0
44897,-100,4,2,2,50,0,0
45069,-100,4,2,3,50,0,0
45240,-100,4,2,4,50,0,0
45412,-100,4,2,1,50,0,0
45583,-100,4,2,2,50,0,0
45755,-100,4,2,3,50,0,0
45926,-100,4,2,4,50,0,0
46097,-100,4,2,1,50,0,0
46269,-100,4,2,2,50,0,0
46440,-100,4,2,3,50,0,0
46612,-100,4,2,4,50,0,0
46783,-100,4,2,5,50,0,0
46955,-100,4,2,2,50,0,0
47126,-100,4,2,3,50,0,0
47297,-100,4,2,4,50,0,0
47469,-100,4,2,5,50,0,0
47640,-100,4,2,2,50,0,0
47812,-100,4,2,3,50,0,0
47983,-100,4,2,4,50,0,0
48155,-100,4,2,5,50,0,0
48326,-100,4,2,2,50,0,0
48497,-100,4,2,3,50,0,0
48669,-100,4,2,4,50,0,0
48840,-100,4,2,6,50,0,0
49012,-100,4,2,7,50,0,0
49183,-100,4,2,2,50,0,0
49355,-100,4,2,3,50,0,0
49526,-100,4,2,1,50,0,0
49697,-100,4,2,2,50,0,0
49869,-100,4,2,3,50,0,0
50040,-100,4,2,4,50,0,0
50212,-100,4,2,1,50,0,0
50383,-100,4,2,2,50,0,0
50555,-100,4,2,3,50,0,0
50726,-100,4,2,4,50,0,0
50897,-100,4,2,1,50,0,0
51069,-100,4,2,2,50,0,0
51240,-100,4,2,3,50,0,0
51412,-100,4,2,4,50,0,0
51583,-100,4,2,1,50,0,0
51755,-100,4,2,2,50,0,0
51926,-100,4,2,3,50,0,0
52097,-100,4,2,4,50,0,0
52269,-100,4,2,7,50,0,0
52440,-100,4,2,4,50,0,0
52612,-100,4,2,8,50,0,0
52783,-100,4,2,9,50,0,0
52955,-100,4,2,7,50,0,0
53126,-100,4,2,4,50,0,0
53297,-100,4,2,8,50,0,0
53469,-100,4,2,9,50,0,0
53640,-100,4,2,1,50,0,0
53812,-100,4,2,3,50,0,0
53983,-100,4,2,4,50,0,0
54155,-100,4,2,10,50,0,0
54326,-100,4,2,1,50,0,0
54497,-100,4,2,2,50,0,0
54669,-100,4,2,3,50,0,0
54840,-100,4,2,10,50,0,0
55012,-100,4,2,4,50,0,0
55183,-100,4,2,9,50,0,0
55355,-100,4,2,4,50,0,0
55526,-100,4,2,2,50,0,0
55697,-100,4,2,3,50,0,0
55869,-100,4,2,4,50,0,0
56040,-100,4,2,8,50,0,0
56212,-100,4,2,11,50,0,0
56383,-100,4,2,4,50,0,0
56555,-100,4,2,11,50,0,0
56726,-100,4,2,4,50,0,0
56897,-100,4,2,3,50,0,0
57069,-100,4,2,1,50,0,0
57240,-100,4,2,2,50,0,0
57412,-100,4,2,7,50,0,0
57583,-100,4,2,1,50,0,0
57755,-100,4,2,5,50,0,0
57926,-100,4,2,2,50,0,0
58097,-100,4,2,5,50,0,0
58269,-100,4,2,6,50,0,0
58440,-100,4,2,12,50,0,0
58612,-100,4,2,6,50,0,0
58783,-100,4,2,5,50,0,0
58955,-100,4,2,7,50,0,0
59126,-100,4,2,1,50,0,0
59297,-100,4,2,2,50,0,0
59469,-100,4,2,3,50,0,0
59640,-100,4,2,4,50,0,0
59812,-100,4,2,11,50,0,0
59983,-100,4,2,4,50,0,0
60155,-100,4,2,3,50,0,0
60326,-100,4,2,2,50,0,0
60497,-100,4,2,4,50,0,0
60669,-100,4,2,9,50,0,0
60840,-100,4,2,4,50,0,0
61012,-100,4,2,2,50,0,0
61183,-100,4,2,3,50,0,0
61355,-100,4,2,4,50,0,0
61526,-100,4,2,8,50,0,0
61697,-100,4,2,11,50,0,0
61869,-100,4,2,4,50,0,0
62040,-100,4,2,11,50,0,0
62212,-100,4,2,4,50,0,0
62383,-100,4,2,3,50,0,0
62555,-100,4,2,1,50,0,0
62726,-100,4,2,2,50,0,0
62897,-100,4,2,7,50,0,0
63069,-100,4,2,1,50,0,0
63240,-100,4,2,5,50,0,0
63412,-100,4,2,2,50,0,0
63583,-100,4,2,5,50,0,0
63755,-100,4,2,6,50,0,0
63926,-100,4,2,12,50,0,0
64097,-100,4,2,6,50,0,0
64269,-100,4,2,5,50,0,0
64440,-100,4,2,7,50,0,0
64612,-100,4,2,1,50,0,0
64783,-100,4,2,2,50,0,0
64955,-100,4,2,3,50,0,0
65126,-100,4,2,4,50,0,0
65297,-100,4,2,11,50,0,0
65469,-100,4,2,13,50,0,0
65640,-100,4,2,14,50,0,0
65812,-100,4,2,15,50,0,0
65983,-100,4,2,1,50,0,0
66155,-100,4,2,2,50,0,0
66326,-100,4,2,3,50,0,0
66497,-100,4,2,4,50,0,0
66669,-100,4,2,1,50,0,0
66840,-100,4,2,2,50,0,0
67012,-100,4,2,3,50,0,0
67183,-100,4,2,4,50,0,0
67355,-100,4,2,1,50,0,0
67526,-100,4,2,2,50,0,0
67697,-100,4,2,3,50,0,0
67869,-100,4,2,4,50,0,0
68040,-100,4,2,1,50,0,0
68212,-100,4,2,2,50,0,0
68383,-100,4,2,3,50,0,0
68555,-100,4,2,4,50,0,0
68726,-100,4,2,5,50,0,0
68897,-100,4,2,2,50,0,0
69069,-100,4,2,3,50,0,0
69240,-100,4,2,4,50,0,0
69412,-100,4,2,5,50,0,0
69583,-100,4,2,2,50,0,0
69755,-100,4,2,3,50,0,0
69926,-100,4,2,4,50,0,0
70097,-100,4,2,5,50,0,0
70269,-100,4,2,2,50,0,0
70440,-100,4,2,3,50,0,0
70612,-100,4,2,4,50,0,0
70783,-100,4,2,6,50,0,0
70955,-100,4,2,7,50,0,0
71126,-100,4,2,2,50,0,0
71297,-100,4,2,3,50,0,0
71469,-100,4,2,1,50,0,0
71640,-100,4,2,2,50,0,0
71812,-100,4,2,3,50,0,0
71983,-100,4,2,4,50,0,0
72155,-100,4,2,1,50,0,0
72326,-100,4,2,2,50,0,0
72497,-100,4,2,3,50,0,0
72669,-100,4,2,4,50,0,0
72840,-100,4,2,1,50,0,0
73012,-100,4,2,2,50,0,0
73183,-100,4,2,3,50,0,0
73355,-100,4,2,4,50,0,0
73526,-100,4,2,1,50,0,0
73697,-100,4,2,2,50,0,0
73869,-100,4,2,3,50,0,0
74040,-100,4,2,4,50,0,0
74212,-100,4,2,7,50,0,0
74383,-100,4,2,4,50,0,0
74555,-100,4,2,8,50,0,0
74726,-100,4,2,9,50,0,0
74897,-100,4,2,7,50,0,0
75069,-100,4,2,4,50,0,0
75240,-100,4,2,8,50,0,0
75412,-100,4,2,9,50,0,0
75583,-100,4,2,1,50,0,0
75755,-100,4,2,3,50,0,0
75926,-100,4,2,4,50,0,0
76097,-100,4,2,10,50,0,0
76269,-100,4,2,1,50,0,0
76440,-100,4,2,2,50,0,0
76612,-100,4,2,3,50,0,0
76783,-100,4,2,10,50,0,0
76955,-100,4,2,4,70,0,1
77297,-100,4,2,8,70,0,1
77469,-100,4,2,4,70,0,1
77640,-100,4,2,2,70,0,1
77983,-100,4,2,8,70,0,1
78326,-100,4,2,4,70,0,1
78669,-100,4,2,8,70,0,1
78840,-100,4,2,4,70,0,1
79012,-100,4,2,2,70,0,1
79183,-100,4,2,7,70,0,1
79355,-100,4,2,3,70,0,1
79526,-100,4,2,8,70,0,1
79697,-100,4,2,4,70,0,1
80040,-100,4,2,8,70,0,1
80212,-100,4,2,4,70,0,1
80383,-100,4,2,2,70,0,1
80726,-100,4,2,8,70,0,1
81069,-100,4,2,4,70,0,1
81412,-100,4,2,8,70,0,1
81583,-100,4,2,4,70,0,1
81755,-100,4,2,2,70,0,1
81926,-100,4,2,7,70,0,1
82097,-100,4,2,3,70,0,1
82269,-100,4,2,8,70,0,1
82440,-100,4,2,4,70,0,1
82612,-100,4,2,9,70,0,1
82783,-100,4,2,4,70,0,1
82955,-100,4,2,3,70,0,1
83126,-100,4,2,2,70,0,1
83297,-100,4,2,1,70,0,1
83469,-100,4,2,7,70,0,1
83640,-100,4,2,2,70,0,1
83812,-100,4,2,3,70,0,1
83983,-100,4,2,8,70,0,1
84155,-100,4,2,3,70,0,1
84326,-100,4,2,2,70,0,1
84497,-100,4,2,4,70,0,1
84669,-100,4,2,9,70,0,1
84840,-100,4,2,4,70,0,1
85012,-100,4,2,2,70,0,1
85183,-100,4,2,8,70,0,1
85355,-100,4,2,11,70,0,1
85526,-100,4,2,8,70,0,1
85697,-100,4,2,4,70,0,1
85869,-100,4,2,3,70,0,1
86040,-100,4,2,7,70,0,1
86212,-100,4,2,2,70,0,1
86383,-100,4,2,3,70,0,1
86555,-100,4,2,4,70,0,1
86726,-100,4,2,11,70,0,1
86897,-100,4,2,4,70,0,1
87069,-100,4,2,2,70,0,1
87240,-100,4,2,1,70,0,1
87412,-100,4,2,7,70,0,1
87583,-100,4,2,2,70,0,1
87755,-100,4,2,3,70,0,0
87926,-100,4,2,4,70,0,1
88269,-100,4,2,8,70,0,1
88440,-100,4,2,4,70,0,1
88612,-100,4,2,2,70,0,1
88955,-100,4,2,8,70,0,1
89297,-100,4,2,4,70,0,1
89640,-100,4,2,8,70,0,1
89812,-100,4,2,4,70,0,1
89983,-100,4,2,2,70,0,1
90155,-100,4,2,7,70,0,1
90326,-100,4,2,3,70,0,1
90497,-100,4,2,8,70,0,1
90669,-100,4,2,4,70,0,1
91012,-100,4,2,8,70,0,1
91183,-100,4,2,4,70,0,1
91355,-100,4,2,2,70,0,1
91697,-100,4,2,8,70,0,1
92040,-100,4,2,4,70,0,1
92383,-100,4,2,8,70,0,1
92555,-100,4,2,4,70,0,1
92726,-100,4,2,2,70,0,1
92897,-100,4,2,7,70,0,1
93069,-100,4,2,3,70,0,1
93240,-100,4,2,8,70,0,1
93412,-100,4,2,4,70,0,1
93583,-100,4,2,9,70,0,1
93755,-100,4,2,4,70,0,1
93926,-100,4,2,3,70,0,1
94097,-100,4,2,2,70,0,1
94269,-100,4,2,1,70,0,1
94440,-100,4,2,7,70,0,1
94612,-100,4,2,2,70,0,1
94783,-100,4,2,3,70,0,1
94955,-100,4,2,8,70,0,1
95126,-100,4,2,3,70,0,1
95297,-100,4,2,2,70,0,1
95469,-100,4,2,4,70,0,1
95640,-100,4,2,9,70,0,1
95812,-100,4,2,4,70,0,1
95983,-100,4,2,2,70,0,1
96155,-100,4,2,8,70,0,1
96326,-100,4,2,11,70,0,1
96497,-100,4,2,8,70,0,1
96669,-100,4,2,4,70,0,1
96840,-100,4,2,3,70,0,1
97012,-100,4,2,7,70,0,1
97183,-100,4,2,2,70,0,1
97355,-100,4,2,3,70,0,1
97526,-100,4,2,4,70,0,1
97697,-100,4,2,11,70,0,1
97869,-100,4,2,4,70,0,1
98040,-100,4,2,2,70,0,1
98212,-100,4,2,1,70,0,1
98383,-100,4,2,7,50,0,1
98555,-100,4,2,2,30,0,0
98726,-100,4,2,3,20,0,0
98897,-133.333333333333,4,2,99,20,0,0
99069,-133.333333333333,4,2,99,25,0,0
99240,-133.333333333333,4,2,99,30,0,0
101297,-133.333333333333,4,2,99,15,0,0
101640,-133.333333333333,4,2,99,30,0,0
103012,-133.333333333333,4,2,99,40,0,0
103526,-133.333333333333,4,2,99,15,0,0
103697,-105.263157894737,4,2,99,50,0,0
104212,-105.263157894737,4,2,99,15,0,0
104383,-95.2380952380952,4,2,99,50,0,0
104897,-95.2380952380952,4,2,99,15,0,0
105069,-80,4,2,99,50,0,0
105583,-80,4,2,99,5,0,0

[Colours]
Combo1 : 141,71,71
Combo2 : 72,164,255
Combo3 : 221,221,221
Combo4 : 0,174,174

[HitObjects]
144,192,155,6,0,P|200:196|284:272,1,120,2|2,0:0|0:0,0:0:0:0:
324,292,840,2,0,P|388:292|456:240,1,120,2|2,0:0|0:0,0:0:0:0:
472,176,1526,2,0,L|464:24,1,120,2|2,0:0|0:0,0:0:0:0:
372,28,2212,2,0,L|378:147,1,120,2|2,0:0|0:0,0:0:0:0:
352,240,2897,6,0,P|284:240|224:196,1,120,2|2,0:0|0:0,0:0:0:0:
208,124,3583,2,0,P|152:100|92:112,1,120,2|2,0:0|0:0,0:0:0:0:
60,200,4269,2,0,L|68:320,1,120,2|2,0:0|0:0,0:0:0:0:
160,296,4955,2,0,L|164:355,2,60,2|2|2,0:0|0:0|0:0,0:0:0:0:
152,200,5640,5,2,0:0:0:0:
152,200,5983,1,2,0:0:0:0:
240,240,6326,2,0,P|308:228|352:180,1,120,2|2,0:0|0:0,0:0:0:0:
404,120,7012,1,2,0:0:0:0:
404,120,7355,1,2,0:0:0:0:
472,188,7697,2,0,L|464:336,1,120,2|2,0:0|0:0,0:0:0:0:
372,336,8383,6,0,L|378:224,2,60,2|2|2,0:0|0:0|0:0,0:0:0:0:
284,300,9069,2,0,P|224:304|152:356,1,120,2|2,0:0|0:0,0:0:0:0:
80,356,9755,2,0,L|-8:344,2,60,2|2|2,0:0|0:0|0:0,0:0:0:0:
108,264,10440,2,0,B|104:104,1,120,2|2,0:0|0:0,0:0:0:0:
20,96,11126,6,0,P|88:48|200:160,1,240,2|2,0:0|0:0,0:0:0:0:
256,312,12497,1,2,0:0:0:0:
440,252,13183,2,0,B|452:192|452:192|424:96,1,120,2|2,0:0|0:0,0:0:0:0:
356,192,13869,6,0,B|248:144|252:240|112:176,1,240,2|2,0:0|0:0,0:0:0:0:
256,40,15240,1,2,0:0:0:0:
435,135,15926,2,0,B|452:192|452:192|440:252,1,120,2|2,0:0|0:0,0:0:0:0:
356,192,16612,6,0,B|248:144|252:240|112:176,1,240,2|2,0:0|0:0,0:0:0:0:
256,320,17983,1,2,0:0:0:0:
400,192,18669,1,2,0:0:0:0:
400,192,19012,1,2,0:0:0:0:
356,108,19355,6,0,P|280:68|328:152,1,240,2|2,0:0|0:0,0:0:0:0:
160,264,20726,2,0,P|140:336|124:244,1,240,2|2,0:0|0:0,0:0:0:0:
184,72,22097,5,2,0:0:0:0:
220,160,22440,1,2,0:0:0:0:
296,104,22783,1,2,0:0:0:0:
368,168,23126,1,2,0:0:0:0:
436,100,23469,2,0,L|432:28,2,60,2|2|2,0:0|0:0|0:0,0:0:0:0:
468,192,24155,2,0,L|456:264,2,60,2|2|2,0:0|0:0|0:0,0:0:0:0:
436,100,24840,5,2,0:0:0:0:
368,168,25183,1,2,0:0:0:0:
296,104,25526,1,2,0:0:0:0:
220,160,25869,1,2,0:0:0:0:
288,228,26212,6,0,B|304:288|304:288|284:376,1,120,2|2,0:0|0:0,0:0:0:0:
212,288,26897,2,0,B|168:288|168:288|140:296|140:296|88:296,1,120,2|2,0:0|0:0,0:0:0:0:
4,336,27583,5,2,0:0:0:0:
16,240,27926,1,2,0:0:0:0:
93,296,28269,1,2,0:0:0:0:
156,224,28612,1,2,0:0:0:0:
224,292,28955,2,0,L|212:372,2,60,2|2|2,0:0|0:0|0:0,0:0:0:0:
292,224,29640,2,0,L|288:152,2,60,2|2|2,0:0|0:0|0:0,0:0:0:0:
320,316,30326,5,2,0:0:0:0:
292,224,30669,1,2,0:0:0:0:
224,292,31012,1,2,0:0:0:0:
156,224,31355,1,2,0:0:0:0:
224,156,31697,6,0,L|220:16,1,120,2|2,0:0|0:0,0:0:0:0:
128,8,32383,2,0,L|131:127,1,120,2|2,0:0|0:0,0:0:0:0:
156,224,33069,6,0,P|208:248|296:216,1,120,2|2,0:0|0:0,0:0:0:0:
332,164,33755,2,0,L|324:16,1,120,2|2,0:0|0:0,0:0:0:0:
420,24,34440,2,0,L|426:143,1,120,2|2,0:0|0:0,0:0:0:0:
472,228,35126,2,0,B|484:288|484:288|472:356,1,120,2|2,0:0|0:0,0:0:0:0:
396,288,35812,6,0,P|320:292|264:336,1,120,2|2,0:0|0:0,0:0:0:0:
200,360,36497,2,0,P|140:368|84:332,1,120,2|2,0:0|0:0,0:0:0:0:
48,252,37183,2,0,B|40:192|40:192|52:108,1,120,2|2,0:0|0:0,0:0:0:0:
128,80,37869,2,0,L|120:-28,2,60,2|2|2,0:0|0:0|0:0,0:0:0:0:
144,176,38555,6,0,P|204:176|268:132,1,120,2|2,0:0|0:0,0:0:0:0:
276,52,39240,2,0,P|344:44|408:76,1,120,2|2,0:0|0:0,0:0:0:0:
448,140,39926,2,0,B|460:200|460:200|448:272,1,120,2|2,0:0|0:0,0:0:0:0:
368,308,40612,2,0,P|304:308|244:348,1,120,2|2,0:0|0:0,0:0:0:0:
164,360,41297,6,0,P|108:360|44:320,1,120,2|2,0:0|0:0,0:0:0:0:
48,232,41983,2,0,L|56:80,1,120,2|2,0:0|0:0,0:0:0:0:
148,92,42669,2,0,L|141:211,1,120,2|2,0:0|0:0,0:0:0:0:
176,300,43355,2,0,L|164:360,2,60,2|2|2,0:0|0:0|0:0,0:0:0:0:
240,228,44040,6,0,B|420:228|420:228|372:276,1,240,2|2,0:0|0:0,0:0:0:0:
204,352,45412,1,2,0:0:0:0:
40,252,46097,2,0,P|28:192|44:128,1,120,2|2,0:0|0:0,0:0:0:0:
120,192,46783,6,0,B|212:192|212:192|260:220|260:220|352:220,1,240,2|2,0:0|0:0,0:0:0:0:
428,44,48155,1,2,0:0:0:0:
236,60,48840,2,0,P|224:120|248:196,1,120,2|2,0:0|0:0,0:0:0:0:
332,176,49526,6,0,P|272:268|152:224,1,240,2|2,0:0|0:0,0:0:0:0:
236,60,50897,1,2,0:0:0:0:
380,188,51583,1,2,0:0:0:0:
380,188,51926,1,2,0:0:0:0:
376,284,52269,6,0,P|348:356|328:260,1,240,2|2,0:0|0:0,0:0:0:0:
208,104,53640,2,0,P|156:48|188:136,1,240,2|2,0:0|0:0,0:0:0:0:
256,312,55012,5,2,0:0:0:0:
340,264,55355,1,2,0:0:0:0:
392,344,55697,1,2,0:0:0:0:
472,292,56040,1,2,0:0:0:0:
420,212,56383,2,0,L|428:144,2,60,2|2|2,0:0|0:0|0:0,0:0:0:0:
340,264,57069,2,0,L|352:348,2,60,2|2|2,0:0|0:0|0:0,0:0:0:0:
324,168,57755,5,2,0:0:0:0:
252,232,58097,1,2,0:0:0:0:
204,148,58440,1,2,0:0:0:0:
132,212,58783,1,2,0:0:0:0:
56,152,59126,6,0,B|36:208|36:208|56:276,1,120,2|2,0:0|0:0,0:0:0:0:
140,308,59812,2,0,P|200:308|272:352,1,120,2|2,0:0|0:0,0:0:0:0:
324,268,60497,5,2,0:0:0:0:
352,360,60840,1,2,0:0:0:0:
444,332,61183,1,2,0:0:0:0:
416,240,61526,1,2,0:0:0:0:
348,172,61869,2,0,L|336:84,2,60,2|2|2,0:0|0:0|0:0,0:0:0:0:
416,240,62555,2,0,L|480:228,2,60,2|2|2,0:0|0:0|0:0,0:0:0:0:
324,268,63240,5,2,0:0:0:0:
260,196,63583,1,2,0:0:0:0:
208,276,63926,1,2,0:0:0:0:
140,208,64269,1,2,0:0:0:0:
60,260,64612,6,0,B|48:204|48:204|64:140,1,120,2|2,0:0|0:0,0:0:0:0:
140,88,65297,2,0,B|180:88|180:88|216:104|216:104|304:104,1,120,2|2,0:0|0:0,0:0:0:0:
336,52,65983,6,0,L|404:28,2,60,2|2|2,0:0|0:0|0:0,0:0:0:0:
256,104,66669,1,2,0:0:0:0:
256,104,67012,1,2,0:0:0:0:
256,200,67355,2,0,L|256:272,2,60,2|2|2,0:0|0:0|0:0,0:0:0:0:
256,104,68040,1,2,0:0:0:0:
256,104,68383,1,2,0:0:0:0:
176,52,68726,6,0,L|108:28,2,60,2|2|2,0:0|0:0|0:0,0:0:0:0:
256,104,69412,1,2,0:0:0:0:
256,104,69755,1,2,0:0:0:0:
336,52,70097,2,0,L|404:28,2,60,2|2|2,0:0|0:0|0:0,0:0:0:0:
256,104,70783,1,2,0:0:0:0:
256,104,71126,1,2,0:0:0:0:
256,200,71469,6,0,L|256:328,1,120,2|2,0:0|0:0,0:0:0:0:
168,356,72155,2,0,P|104:360|48:320,1,120,2|2,0:0|0:0,0:0:0:0:
68,236,72840,2,0,P|132:232|188:272,1,120,2|2,0:0|0:0,0:0:0:0:
256,320,73526,2,0,P|308:332|376:300,1,120,2|2,0:0|0:0,0:0:0:0:
424,232,74212,6,0,L|500:224,2,60,2|2|2,0:0|0:0|0:0,0:0:0:0:
328,224,74897,2,0,L|264:228,2,60,2|2|2,0:0|0:0|0:0,0:0:0:0:
384,144,75583,2,0,L|380:64,2,60,2|2|2,0:0|0:0|0:0,0:0:0:0:
424,232,76269,2,0,L|500:224,2,60,2|2|2,0:0|0:0|0:0,0:0:0:0:
368,307,76955,5,2,0:0:0:0:
328,224,77297,2,0,L|264:228,1,60,2|2,0:0|0:0,0:0:0:0:
236,192,77640,2,0,P|248:256|236:336,1,120,2|2,0:0|0:0,0:0:0:0:
164,364,78326,1,2,0:0:0:0:
104,292,78669,2,0,L|36:296,2,60,2|2|2,0:0|0:0|0:0,0:0:0:0:
140,260,79183,2,0,L|212:272,2,60,2|2|2,0:0|0:0|0:0,0:0:0:0:
108,224,79697,5,2,0:0:0:0:
72,136,80040,2,0,L|80:72,1,60,2|2,0:0|0:0,0:0:0:0:
48,40,80383,2,0,P|104:60|184:32,1,120,2|2,0:0|0:0,0:0:0:0:
256,20,81069,1,2,0:0:0:0:
312,96,81412,2,0,L|392:80,2,60,2|2|2,0:0|0:0|0:0,0:0:0:0:
280,132,81926,2,0,L|216:120,2,60,2|2|2,0:0|0:0|0:0,0:0:0:0:
312,168,82440,5,2,0:0:0:0:
348,256,82783,1,2,0:0:0:0:
432,208,83126,1,2,0:0:0:0:
492,284,83469,1,2,0:0:0:0:
448,368,83812,1,2,0:0:0:0:
352,352,84155,1,2,0:0:0:0:
348,256,84497,6,0,L|352:184,2,60,2|2|2,0:0|0:0|0:0,0:0:0:0:
268,312,85183,2,0,L|276:372,2,60,2|2|2,0:0|0:0|0:0,0:0:0:0:
200,244,85869,2,0,L|204:172,2,60,2|2|2,0:0|0:0|0:0,0:0:0:0:
168,336,86555,5,2,0:0:0:0:
100,272,86897,1,2,0:0:0:0:
32,340,87240,1,10,0:0:0:0:
100,272,87583,1,10,0:0:0:0:
48,192,87926,5,6,0:0:0:0:
84,104,88269,2,0,L|156:108,1,60,2|2,0:0|0:0,0:0:0:0:
176,72,88612,2,0,B|160:132|160:132|184:208,1,120,2|2,0:0|0:0,0:0:0:0:
256,244,89297,1,6,0:0:0:0:
336,192,89640,2,0,L|332:124,2,60,2|2|2,0:0|0:0|0:0,0:0:0:0:
364,232,90155,2,0,L|360:300,2,60,2|2|2,0:0|0:0|0:0,0:0:0:0:
400,200,90669,5,6,0:0:0:0:
432,112,91012,2,0,P|393:106|340:124,1,60,2|2,0:0|0:0,0:0:0:0:
332,132,91355,2,0,P|272:132|216:92,1,120,2|2,0:0|0:0,0:0:0:0:
164,24,92040,1,6,0:0:0:0:
112,104,92383,2,0,L|120:180,2,60,2|2|2,0:0|0:0|0:0,0:0:0:0:
72,80,92897,2,0,L|80:16,2,60,2|2|2,0:0|0:0|0:0,0:0:0:0:
40,116,93412,5,2,0:0:0:0:
20,212,93755,1,2,0:0:0:0:
100,264,94097,1,2,0:0:0:0:
64,352,94440,1,2,0:0:0:0:
100,264,94783,1,2,0:0:0:0:
176,320,95126,1,2,0:0:0:0:
256,268,95469,6,0,L|340:256,2,60,2|2|2,0:0|0:0|0:0,0:0:0:0:
180,208,96155,2,0,L|112:196,2,60,2|2|2,0:0|0:0|0:0,0:0:0:0:
264,164,96840,2,0,L|348:152,2,60,2|2|2,0:0|0:0|0:0,0:0:0:0:
196,96,97526,5,2,0:0:0:0:
216,8,97869,1,2,0:0:0:0:
284,72,98212,1,10,0:0:0:0:
196,96,98555,1,10,0:0:0:0:
172,184,98897,6,0,L|180:304,2,90.0000034332277,2|2|2,0:0|0:0|0:0,0:0:0:0:
196,96,99926,1,2,0:0:0:0:
260,160,100269,6,0,B|460:160|460:160|372:208,1,270.000010299683,2|0,0:0|0:0,0:0:0:0:
324,244,101640,6,0,L|248:244,1,45.0000017166138,2|2,0:0|0:0,0:0:0:0:
234,244,101983,2,0,L|158:244,1,45.0000017166138,2|2,0:0|0:0,0:0:0:0:
144,244,102326,2,0,P|136:296|152:348,1,90.0000034332277,2|2,0:0|0:0,0:0:0:0:
232,348,103012,6,0,L|408:348,1,135.000005149841,2|0,0:0|0:0,0:0:0:0:
424,348,103697,6,0,P|456:288|392:180,1,170.999995433807,2|0,0:0|0:0,0:0:0:0:
358,192,104383,6,0,L|166:192,1,188.999994232178,2|0,0:0|0:0,0:0:0:0:
88,188,105069,6,0,P|28:244|128:244,1,225,2|0,0:0|0:0,0:0:0:0:
