osu file format v14

[General]
AudioFilename: audio.mp3
AudioLeadIn: 0
PreviewTime: 87755
Countdown: 0
SampleSet: Soft
StackLeniency: 0.6
Mode: 0
LetterboxInBreaks: 0
WidescreenStoryboard: 0

[Editor]
DistanceSpacing: 1.05
BeatDivisor: 4
GridSize: 4
TimelineZoom: 1

[Metadata]
Title:Interlude
TitleUnicode:Interlude
Artist:Loki
ArtistUnicode:Loki
Creator:Chewin
Version:Hard
Source:
Tags:Tales of the Mountains featured artist symphony osu!
BeatmapID:1397836
BeatmapSetID:659093

[Difficulty]
HPDrainRate:4
CircleSize:4
OverallDifficulty:5
ApproachRate:7.5
SliderMultiplier:1.5
SliderTickRate:1

[Events]
//Background and Video events
0,0,"BG.png",0,0
//Break Periods
//Storyboard Layer 0 (Background)
//Storyboard Layer 1 (Fail)
//Storyboard Layer 2 (Pass)
//Storyboard Layer 3 (Foreground)
//Storyboard Sound Samples

[TimingPoints]
155,342.857142857143,4,2,1,50,1,0
326,-100,4,2,2,50,0,0
497,-100,4,2,3,50,0,0
669,-100,4,2,4,50,0,0
840,-100,4,2,1,50,0,0
1011,-100,4,2,2,50,0,0
1183,-100,4,2,3,50,0,0
1355,-100,4,2,4,50,0,0
1526,-100,4,2,1,50,0,0
1697,-100,4,2,2,50,0,0
1869,-100,4,2,3,50,0,0
2040,-100,4,2,4,50,0,0
2212,-100,4,2,1,50,0,0
2383,-100,4,2,2,50,0,0
2555,-100,4,2,3,50,0,0
2726,-100,4,2,4,50,0,0
2897,-100,4,2,5,50,0,0
3069,-100,4,2,2,50,0,0
3240,-100,4,2,3,50,0,0
3412,-100,4,2,4,50,0,0
3583,-100,4,2,5,50,0,0
3755,-100,4,2,2,50,0,0
3926,-100,4,2,3,50,0,0
4097,-100,4,2,4,50,0,0
4269,-100,4,2,5,50,0,0
4440,-100,4,2,2,50,0,0
4612,-100,4,2,3,50,0,0
4783,-100,4,2,4,50,0,0
4954,-100,4,2,6,50,0,0
5125,-100,4,2,7,50,0,0
5297,-100,4,2,2,50,0,0
5469,-100,4,2,3,50,0,0
5640,-100,4,2,1,50,0,0
5812,-100,4,2,2,50,0,0
5983,-100,4,2,3,50,0,0
6155,-100,4,2,4,50,0,0
6326,-100,4,2,1,50,0,0
6497,-100,4,2,2,50,0,0
6669,-100,4,2,3,50,0,0
6840,-100,4,2,4,50,0,0
7012,-100,4,2,1,50,0,0
7183,-100,4,2,2,50,0,0
7355,-100,4,2,3,50,0,0
7526,-100,4,2,4,50,0,0
7697,-100,4,2,1,50,0,0
7869,-100,4,2,2,50,0,0
8040,-100,4,2,3,50,0,0
8212,-100,4,2,4,50,0,0
8383,-100,4,2,7,50,0,0
8555,-100,4,2,4,50,0,0
8726,-100,4,2,8,50,0,0
8897,-100,4,2,9,50,0,0
9069,-100,4,2,7,50,0,0
9240,-100,4,2,4,50,0,0
9412,-100,4,2,8,50,0,0
9583,-100,4,2,9,50,0,0
9755,-100,4,2,1,50,0,0
9926,-100,4,2,3,50,0,0
10097,-100,4,2,4,50,0,0
10269,-100,4,2,10,50,0,0
10440,-100,4,2,1,50,0,0
10612,-100,4,2,2,50,0,0
10783,-100,4,2,3,50,0,0
10955,-100,4,2,10,50,0,0
11126,-100,4,2,1,50,0,0
11297,-100,4,2,2,50,0,0
11469,-100,4,2,3,50,0,0
11640,-100,4,2,4,50,0,0
11812,-100,4,2,1,50,0,0
11983,-100,4,2,2,50,0,0
12155,-100,4,2,3,50,0,0
12326,-100,4,2,4,50,0,0
12497,-100,4,2,1,50,0,0
12669,-100,4,2,2,50,0,0
12840,-100,4,2,3,50,0,0
13012,-100,4,2,4,50,0,0
13183,-100,4,2,1,50,0,0
13355,-100,4,2,2,50,0,0
13526,-100,4,2,3,50,0,0
13697,-100,4,2,4,50,0,0
13869,-100,4,2,5,50,0,0
14040,-100,4,2,2,50,0,0
14212,-100,4,2,3,50,0,0
14383,-100,4,2,4,50,0,0
14555,-100,4,2,5,50,0,0
14726,-100,4,2,2,50,0,0
14897,-100,4,2,3,50,0,0
15069,-100,4,2,4,50,0,0
15240,-100,4,2,5,50,0,0
15412,-100,4,2,2,50,0,0
15583,-100,4,2,3,50,0,0
15755,-100,4,2,4,50,0,0
15926,-100,4,2,6,50,0,0
16097,-100,4,2,7,50,0,0
16269,-100,4,2,2,50,0,0
16440,-100,4,2,3,50,0,0
16612,-100,4,2,1,50,0,0
16783,-100,4,2,2,50,0,0
16955,-100,4,2,3,50,0,0
17126,-100,4,2,4,50,0,0
17297,-100,4,2,1,50,0,0
17469,-100,4,2,2,50,0,0
17640,-100,4,2,3,50,0,0
17812,-100,4,2,4,50,0,0
17983,-100,4,2,1,50,0,0
18155,-100,4,2,2,50,0,0
18326,-100,4,2,3,50,0,0
18497,-100,4,2,4,50,0,0
18669,-100,4,2,1,50,0,0
18840,-100,4,2,2,50,0,0
19012,-100,4,2,3,50,0,0
19183,-100,4,2,4,50,0,0
19355,-100,4,2,7,50,0,0
19526,-100,4,2,4,50,0,0
19697,-100,4,2,8,50,0,0
19869,-100,4,2,9,50,0,0
20040,-100,4,2,7,50,0,0
20212,-100,4,2,4,50,0,0
20383,-100,4,2,8,50,0,0
20555,-100,4,2,9,50,0,0
20726,-100,4,2,1,50,0,0
20897,-100,4,2,3,50,0,0
21069,-100,4,2,4,50,0,0
21240,-100,4,2,10,50,0,0
21412,-100,4,2,1,50,0,0
21583,-100,4,2,2,50,0,0
21755,-100,4,2,3,50,0,0
21926,-100,4,2,10,50,0,0
22097,-100,4,2,4,50,0,0
22269,-100,4,2,9,50,0,0
22440,-100,4,2,4,50,0,0
22612,-100,4,2,2,50,0,0
22783,-100,4,2,3,50,0,0
22955,-100,4,2,4,50,0,0
23126,-100,4,2,8,50,0,0
23297,-100,4,2,11,50,0,0
23469,-100,4,2,4,50,0,0
23640,-100,4,2,11,50,0,0
23812,-100,4,2,4,50,0,0
23983,-100,4,2,3,50,0,0
24155,-100,4,2,1,50,0,0
24326,-100,4,2,2,50,0,0
24497,-100,4,2,7,50,0,0
24669,-100,4,2,1,50,0,0
24840,-100,4,2,5,50,0,0
25012,-100,4,2,2,50,0,0
25183,-100,4,2,5,50,0,0
25355,-100,4,2,6,50,0,0
25526,-100,4,2,12,50,0,0
25697,-100,4,2,6,50,0,0
25869,-100,4,2,5,50,0,0
26040,-100,4,2,7,50,0,0
26212,-100,4,2,1,50,0,0
26383,-100,4,2,2,50,0,0
26555,-100,4,2,3,50,0,0
26726,-100,4,2,4,50,0,0
26897,-100,4,2,11,50,0,0
27069,-100,4,2,4,50,0,0
27240,-100,4,2,3,50,0,0
27412,-100,4,2,2,50,0,0
27583,-100,4,2,4,50,0,0
27755,-100,4,2,9,50,0,0
27926,-100,4,2,4,50,0,0
28097,-100,4,2,2,50,0,0
28269,-100,4,2,3,50,0,0
28440,-100,4,2,4,50,0,0
28612,-100,4,2,8,50,0,0
28783,-100,4,2,11,50,0,0
28955,-100,4,2,4,50,0,0
29126,-100,4,2,11,50,0,0
29297,-100,4,2,4,50,0,0
29469,-100,4,2,3,50,0,0
29640,-100,4,2,1,50,0,0
29812,-100,4,2,2,50,0,0
29983,-100,4,2,7,50,0,0
30155,-100,4,2,1,50,0,0
30326,-100,4,2,5,50,0,0
30497,-100,4,2,2,50,0,0
30669,-100,4,2,5,50,0,0
30840,-100,4,2,6,50,0,0
31012,-100,4,2,12,50,0,0
31183,-100,4,2,6,50,0,0
31355,-100,4,2,5,50,0,0
31526,-100,4,2,7,50,0,0
31697,-100,4,2,1,50,0,0
31869,-100,4,2,2,50,0,0
32040,-100,4,2,3,50,0,0
32212,-100,4,2,4,50,0,0
32383,-100,4,2,11,50,0,0
32555,-100,4,2,13,50,0,0
32726,-100,4,2,14,50,0,0
32897,-100,4,2,15,50,0,0
33069,-100,4,2,1,50,0,0
33240,-100,4,2,2,50,0,0
33412,-100,4,2,3,50,0,0
33583,-100,4,2,4,50,0,0
33755,-100,4,2,1,50,0,0
33926,-100,4,2,2,50,0,0
34097,-100,4,2,3,50,0,0
34269,-100,4,2,4,50,0,0
34440,-100,4,2,1,50,0,0
34612,-100,4,2,2,50,0,0
34783,-100,4,2,3,50,0,0
34955,-100,4,2,4,50,0,0
35126,-100,4,2,1,50,0,0
35297,-100,4,2,2,50,0,0
35469,-100,4,2,3,50,0,0
35640,-100,4,2,4,50,0,0
35812,-100,4,2,5,50,0,0
35983,-100,4,2,2,50,0,0
36155,-100,4,2,3,50,0,0
36326,-100,4,2,4,50,0,0
36497,-100,4,2,5,50,0,0
36669,-100,4,2,2,50,0,0
36840,-100,4,2,3,50,0,0
37012,-100,4,2,4,50,0,0
37183,-100,4,2,5,50,0,0
37355,-100,4,2,2,50,0,0
37526,-100,4,2,3,50,0,0
37697,-100,4,2,4,50,0,0
37869,-100,4,2,6,50,0,0
38040,-100,4,2,7,50,0,0
38212,-100,4,2,2,50,0,0
38383,-100,4,2,3,50,0,0
38555,-100,4,2,1,50,0,0
38726,-100,4,2,2,50,0,0
38897,-100,4,2,3,50,0,0
39069,-100,4,2,4,50,0,0
39240,-100,4,2,1,50,0,0
39412,-100,4,2,2,50,0,0
39583,-100,4,2,3,50,0,0
39755,-100,4,2,4,50,0,0
39926,-100,4,2,1,50,0,0
40097,-100,4,2,2,50,0,0
40269,-100,4,2,3,50,0,0
40440,-100,4,2,4,50,0,0
40612,-100,4,2,1,50,0,0
40783,-100,4,2,2,50,0,0
40955,-100,4,2,3,50,0,0
41126,-100,4,2,4,50,0,0
41297,-100,4,2,7,50,0,0
41469,-100,4,2,4,50,0,0
41640,-100,4,2,8,50,0,0
41812,-100,4,2,9,50,0,0
41983,-100,4,2,7,50,0,0
42155,-100,4,2,4,50,0,0
42326,-100,4,2,8,50,0,0
42497,-100,4,2,9,50,0,0
42669,-100,4,2,1,50,0,0
42840,-100,4,2,3,50,0,0
43012,-100,4,2,4,50,0,0
43183,-100,4,2,10,50,0,0
43355,-100,4,2,1,50,0,0
43526,-100,4,2,2,50,0,0
43697,-100,4,2,3,50,0,0
43869,-100,4,2,10,50,0,0
44040,-100,4,2,1,50,0,0
44212,-100,4,2,2,50,0,0
44383,-100,4,2,3,50,0,0
44555,-100,4,2,4,50,0,0
44726,-100,4,2,1,50,0,0
44897,-100,4,2,2,50,0,0
45069,-100,4,2,3,50,0,0
45240,-100,4,2,4,50,0,0
45412,-100,4,2,1,50,0,0
45583,-100,4,2,2,50,0,0
45755,-100,4,2,3,50,0,0
45926,-100,4,2,4,50,0,0
46097,-100,4,2,1,50,0,0
46269,-100,4,2,2,50,0,0
46440,-100,4,2,3,50,0,0
46612,-100,4,2,4,50,0,0
46783,-100,4,2,5,50,0,0
46955,-100,4,2,2,50,0,0
47126,-100,4,2,3,50,0,0
47297,-100,4,2,4,50,0,0
47469,-100,4,2,5,50,0,0
47640,-100,4,2,2,50,0,0
47812,-100,4,2,3,50,0,0
47983,-100,4,2,4,50,0,0
48155,-100,4,2,5,50,0,0
48326,-100,4,2,2,50,0,0
48497,-100,4,2,3,50,0,0
48669,-100,4,2,4,50,0,0
48840,-100,4,2,6,50,0,0
49012,-100,4,2,7,50,0,0
49183,-100,4,2,2,50,0,0
49355,-100,4,2,3,50,0,0
49526,-100,4,2,1,50,0,0
49697,-100,4,2,2,50,0,0
49869,-100,4,2,3,50,0,0
50040,-100,4,2,4,50,0,0
50212,-100,4,2,1,50,0,0
50383,-100,4,2,2,50,0,0
50555,-100,4,2,3,50,0,0
50726,-100,4,2,4,50,0,0
50897,-100,4,2,1,50,0,0
51069,-100,4,2,2,50,0,0
51240,-100,4,2,3,50,0,0
51412,-100,4,2,4,50,0,0
51583,-100,4,2,1,50,0,0
51755,-100,4,2,2,50,0,0
51926,-100,4,2,3,50,0,0
52097,-100,4,2,4,50,0,0
52269,-100,4,2,7,50,0,0
52440,-100,4,2,4,50,0,0
52612,-100,4,2,8,50,0,0
52783,-100,4,2,9,50,0,0
52955,-100,4,2,7,50,0,0
53126,-100,4,2,4,50,0,0
53297,-100,4,2,8,50,0,0
53469,-100,4,2,9,50,0,0
53640,-100,4,2,1,50,0,0
53812,-100,4,2,3,50,0,0
53983,-100,4,2,4,50,0,0
54155,-100,4,2,10,50,0,0
54326,-100,4,2,1,50,0,0
54497,-100,4,2,2,50,0,0
54669,-100,4,2,3,50,0,0
54840,-100,4,2,10,50,0,0
55012,-100,4,2,4,50,0,0
55183,-100,4,2,9,50,0,0
55355,-100,4,2,4,50,0,0
55526,-100,4,2,2,50,0,0
55697,-100,4,2,3,50,0,0
55869,-100,4,2,4,50,0,0
56040,-100,4,2,8,50,0,0
56212,-100,4,2,11,50,0,0
56383,-100,4,2,4,50,0,0
56555,-100,4,2,11,50,0,0
56726,-100,4,2,4,50,0,0
56897,-100,4,2,3,50,0,0
57069,-100,4,2,1,50,0,0
57240,-100,4,2,2,50,0,0
57412,-100,4,2,7,50,0,0
57583,-100,4,2,1,50,0,0
57755,-100,4,2,5,50,0,0
57926,-100,4,2,2,50,0,0
58097,-100,4,2,5,50,0,0
58269,-100,4,2,6,50,0,0
58440,-100,4,2,12,50,0,0
58612,-100,4,2,6,50,0,0
58783,-100,4,2,5,50,0,0
58955,-100,4,2,7,50,0,0
59126,-100,4,2,1,50,0,0
59297,-100,4,2,2,50,0,0
59469,-100,4,2,3,50,0,0
59640,-100,4,2,4,50,0,0
59812,-100,4,2,11,50,0,0
59983,-100,4,2,4,50,0,0
60155,-100,4,2,3,50,0,0
60326,-100,4,2,2,50,0,0
60497,-100,4,2,4,50,0,0
60669,-100,4,2,9,50,0,0
60840,-100,4,2,4,50,0,0
61012,-100,4,2,2,50,0,0
61183,-100,4,2,3,50,0,0
61355,-100,4,2,4,50,0,0
61526,-100,4,2,8,50,0,0
61697,-100,4,2,11,50,0,0
61869,-100,4,2,4,50,0,0
62040,-100,4,2,11,50,0,0
62212,-100,4,2,4,50,0,0
62383,-100,4,2,3,50,0,0
62555,-100,4,2,1,50,0,0
62726,-100,4,2,2,50,0,0
62897,-100,4,2,7,50,0,0
63069,-100,4,2,1,50,0,0
63240,-100,4,2,5,50,0,0
63412,-100,4,2,2,50,0,0
63583,-100,4,2,5,50,0,0
63755,-100,4,2,6,50,0,0
63926,-100,4,2,12,50,0,0
64097,-100,4,2,6,50,0,0
64269,-100,4,2,5,50,0,0
64440,-100,4,2,7,50,0,0
64612,-100,4,2,1,50,0,0
64783,-100,4,2,2,50,0,0
64955,-100,4,2,3,50,0,0
65126,-100,4,2,4,50,0,0
65297,-100,4,2,11,50,0,0
65469,-100,4,2,13,50,0,0
65640,-100,4,2,14,50,0,0
65812,-100,4,2,15,50,0,0
65983,-100,4,2,1,50,0,0
66155,-100,4,2,2,50,0,0
66326,-100,4,2,3,50,0,0
66497,-100,4,2,4,50,0,0
66669,-100,4,2,1,50,0,0
66840,-100,4,2,2,50,0,0
67012,-100,4,2,3,50,0,0
67183,-100,4,2,4,50,0,0
67355,-100,4,2,1,50,0,0
67526,-100,4,2,2,50,0,0
67697,-100,4,2,3,50,0,0
67869,-100,4,2,4,50,0,0
68040,-100,4,2,1,50,0,0
68212,-100,4,2,2,50,0,0
68383,-100,4,2,3,50,0,0
68555,-100,4,2,4,50,0,0
68726,-100,4,2,5,50,0,0
68897,-100,4,2,2,50,0,0
69069,-100,4,2,3,50,0,0
69240,-100,4,2,4,50,0,0
69412,-100,4,2,5,50,0,0
69583,-100,4,2,2,50,0,0
69755,-100,4,2,3,50,0,0
69926,-100,4,2,4,50,0,0
70097,-100,4,2,5,50,0,0
70269,-100,4,2,2,50,0,0
70440,-100,4,2,3,50,0,0
70612,-100,4,2,4,50,0,0
70783,-100,4,2,6,50,0,0
70955,-100,4,2,7,50,0,0
71126,-100,4,2,2,50,0,0
71297,-100,4,2,3,50,0,0
71469,-100,4,2,1,50,0,0
71640,-100,4,2,2,50,0,0
71812,-100,4,2,3,50,0,0
71983,-100,4,2,4,50,0,0
72155,-100,4,2,1,50,0,0
72326,-100,4,2,2,50,0,0
72497,-100,4,2,3,50,0,0
72669,-100,4,2,4,50,0,0
72840,-100,4,2,1,50,0,0
73012,-100,4,2,2,50,0,0
73183,-100,4,2,3,50,0,0
73355,-100,4,2,4,50,0,0
73526,-100,4,2,1,50,0,0
73697,-100,4,2,2,50,0,0
73869,-100,4,2,3,50,0,0
74040,-100,4,2,4,50,0,0
74212,-100,4,2,7,50,0,0
74383,-100,4,2,4,50,0,0
74555,-100,4,2,8,50,0,0
74726,-100,4,2,9,50,0,0
74897,-100,4,2,7,50,0,0
75069,-100,4,2,4,50,0,0
75240,-100,4,2,8,50,0,0
75412,-100,4,2,9,50,0,0
75583,-100,4,2,1,50,0,0
75755,-100,4,2,3,50,0,0
75926,-100,4,2,4,50,0,0
76097,-100,4,2,10,50,0,0
76269,-100,4,2,1,50,0,0
76440,-100,4,2,2,50,0,0
76612,-100,4,2,3,50,0,0
76783,-100,4,2,10,50,0,0
76955,-100,4,2,4,70,0,1
77297,-100,4,2,8,70,0,1
77469,-100,4,2,4,70,0,1
77640,-100,4,2,2,70,0,1
77983,-100,4,2,8,70,0,1
78326,-100,4,2,4,70,0,1
78669,-100,4,2,8,70,0,1
78840,-100,4,2,4,70,0,1
79012,-100,4,2,2,70,0,1
79183,-100,4,2,7,70,0,1
79355,-100,4,2,3,70,0,1
79526,-100,4,2,8,70,0,1
79697,-100,4,2,4,70,0,1
80040,-100,4,2,8,70,0,1
80212,-100,4,2,4,70,0,1
80383,-100,4,2,2,70,0,1
80726,-100,4,2,8,70,0,1
81069,-100,4,2,4,70,0,1
81412,-100,4,2,8,70,0,1
81583,-100,4,2,4,70,0,1
81755,-100,4,2,2,70,0,1
81926,-100,4,2,7,70,0,1
82097,-100,4,2,3,70,0,1
82269,-100,4,2,8,70,0,1
82440,-100,4,2,4,70,0,1
82612,-100,4,2,9,70,0,1
82783,-100,4,2,4,70,0,1
82955,-100,4,2,3,70,0,1
83126,-100,4,2,2,70,0,1
83297,-100,4,2,1,70,0,1
83469,-100,4,2,7,70,0,1
83640,-100,4,2,2,70,0,1
83812,-100,4,2,3,70,0,1
83983,-100,4,2,8,70,0,1
84155,-100,4,2,3,70,0,1
84326,-100,4,2,2,70,0,1
84497,-100,4,2,4,70,0,1
84669,-100,4,2,9,70,0,1
84840,-100,4,2,4,70,0,1
85012,-100,4,2,2,70,0,1
85183,-100,4,2,8,70,0,1
85355,-100,4,2,11,70,0,1
85526,-100,4,2,8,70,0,1
85697,-100,4,2,4,70,0,1
85869,-100,4,2,3,70,0,1
86040,-100,4,2,7,70,0,1
86212,-100,4,2,2,70,0,1
86383,-100,4,2,3,70,0,1
86555,-100,4,2,4,70,0,1
86726,-100,4,2,11,70,0,1
86897,-100,4,2,4,70,0,1
87069,-100,4,2,2,70,0,1
87240,-100,4,2,1,70,0,1
87412,-100,4,2,7,70,0,1
87583,-100,4,2,2,70,0,1
87755,-100,4,2,3,70,0,0
87926,-100,4,2,4,70,0,1
88269,-100,4,2,8,70,0,1
88440,-100,4,2,4,70,0,1
88612,-100,4,2,2,70,0,1
88955,-100,4,2,8,70,0,1
89297,-100,4,2,4,70,0,1
89640,-100,4,2,8,70,0,1
89812,-100,4,2,4,70,0,1
89983,-100,4,2,2,70,0,1
90155,-100,4,2,7,70,0,1
90326,-100,4,2,3,70,0,1
90497,-100,4,2,8,70,0,1
90669,-100,4,2,4,70,0,1
91012,-100,4,2,8,70,0,1
91183,-100,4,2,4,70,0,1
91355,-100,4,2,2,70,0,1
91697,-100,4,2,8,70,0,1
92040,-100,4,2,4,70,0,1
92383,-100,4,2,8,70,0,1
92555,-100,4,2,4,70,0,1
92726,-100,4,2,2,70,0,1
92897,-100,4,2,7,70,0,1
93069,-100,4,2,3,70,0,1
93240,-100,4,2,8,70,0,1
93412,-100,4,2,4,70,0,1
93583,-100,4,2,9,70,0,1
93755,-100,4,2,4,70,0,1
93926,-100,4,2,3,70,0,1
94097,-100,4,2,2,70,0,1
94269,-100,4,2,1,70,0,1
94440,-100,4,2,7,70,0,1
94612,-100,4,2,2,70,0,1
94783,-100,4,2,3,70,0,1
94955,-100,4,2,8,70,0,1
95126,-100,4,2,3,70,0,1
95297,-100,4,2,2,70,0,1
95469,-100,4,2,4,70,0,1
95640,-100,4,2,9,70,0,1
95812,-100,4,2,4,70,0,1
95983,-100,4,2,2,70,0,1
96155,-100,4,2,8,70,0,1
96326,-100,4,2,11,70,0,1
96497,-100,4,2,8,70,0,1
96669,-100,4,2,4,70,0,1
96840,-100,4,2,3,70,0,1
97012,-100,4,2,7,70,0,1
97183,-100,4,2,2,70,0,1
97355,-100,4,2,3,70,0,1
97526,-100,4,2,4,70,0,1
97697,-100,4,2,11,70,0,1
97869,-100,4,2,4,70,0,1
98040,-100,4,2,2,70,0,1
98212,-100,4,2,1,70,0,1
98383,-100,4,2,7,50,0,1
98555,-100,4,2,2,30,0,0
98726,-100,4,2,3,20,0,0
98897,-133.333333333333,4,2,99,20,0,0
99069,-133.333333333333,4,2,99,25,0,0
99240,-133.333333333333,4,2,99,30,0,0
101297,-133.333333333333,4,2,99,5,0,0
101640,-133.333333333333,4,2,99,30,0,0
103012,-133.333333333333,4,2,99,40,0,0
103526,-133.333333333333,4,2,99,15,0,0
103697,-105.263157894737,4,2,99,50,0,0
104212,-105.263157894737,4,2,99,15,0,0
104383,-95.2380952380952,4,2,99,50,0,0
104897,-95.2380952380952,4,2,99,5,0,0
105069,-80,4,2,99,50,0,0
105583,-80,4,2,99,5,0,0

[Colours]
Combo1 : 141,71,71
Combo2 : 72,164,255
Combo3 : 221,221,221
Combo4 : 0,174,174

[HitObjects]
68,192,155,6,0,P|108:196|148:224,1,75,2|2,0:0|0:0,0:0:0:0:
184,276,497,2,0,P|228:268|268:236,1,75,2|2,0:0|0:0,0:0:0:0:
240,172,840,2,0,P|244:132|268:88,1,75,2|2,0:0|0:0,0:0:0:0:
312,40,1183,2,0,L|404:48,1,75,2|2,0:0|0:0,0:0:0:0:
464,48,1526,6,0,P|472:104|460:152,1,75,2|2,0:0|0:0,0:0:0:0:
396,152,1869,2,0,P|392:204|412:252,1,75,2|2,0:0|0:0,0:0:0:0:
472,248,2212,2,0,P|476:296|452:340,1,75,2|2,0:0|0:0,0:0:0:0:
392,344,2555,2,0,L|296:332,1,75,2|2,0:0|0:0,0:0:0:0:
256,284,2897,6,0,L|160:292,2,75,2|2|2,0:0|0:0|0:0,0:0:0:0:
320,236,3412,1,2,0:0:0:0:
384,192,3583,2,0,L|480:200,2,75,2|2|2,0:0|0:0|0:0,0:0:0:0:
320,236,4098,1,2,0:0:0:0:
256,192,4269,6,0,L|160:200,2,75,2|2|2,0:0|0:0|0:0,0:0:0:0:
320,144,4784,1,2,0:0:0:0:
384,100,4955,2,0,L|480:108,2,75,2|2|2,0:0|0:0|0:0,0:0:0:0:
320,144,5470,1,2,0:0:0:0:
276,80,5640,6,0,B|244:80|244:80|188:96,1,75,2|2,0:0|0:0,0:0:0:0:
176,168,5983,2,0,B|136:168|136:168|100:144,1,75,2|2,0:0|0:0,0:0:0:0:
60,88,6326,2,0,B|32:116|32:116|32:164,1,75,2|2,0:0|0:0,0:0:0:0:
72,220,6669,2,0,B|88:260|88:260|88:316,1,75,2|2,0:0|0:0,0:0:0:0:
68,368,7012,6,0,P|112:368|152:336,1,75,2|2,0:0|0:0,0:0:0:0:
164,280,7355,2,0,P|208:284|240:308,1,75,2|2,0:0|0:0,0:0:0:0:
280,364,7697,2,0,P|324:360|372:324,1,75,2|2,0:0|0:0,0:0:0:0:
352,268,8040,2,0,P|348:216|364:176,1,75,2|2,0:0|0:0,0:0:0:0:
404,136,8383,5,2,0:0:0:0:
404,136,8555,1,2,0:0:0:0:
456,196,8726,2,0,P|463:232|458:269,1,75,2|2,0:0|0:0,0:0:0:0:
424,340,9069,1,2,0:0:0:0:
424,340,9240,1,2,0:0:0:0:
352,304,9412,2,0,L|252:308,1,75,2|2,0:0|0:0,0:0:0:0:
220,360,9755,5,2,0:0:0:0:
220,360,9926,1,2,0:0:0:0:
152,320,10097,2,0,P|160:268|176:236,1,75,2|2,0:0|0:0,0:0:0:0:
236,208,10440,1,2,0:0:0:0:
236,208,10612,1,2,0:0:0:0:
300,164,10783,2,0,P|300:112|288:72,1,75,2|2,0:0|0:0,0:0:0:0:
252,24,11126,6,0,B|96:24|96:24|188:60,1,225,2|2,0:0|0:0,0:0:0:0:
212,108,11812,6,0,B|240:216|240:216|204:336,1,225,2|2,0:0|0:0,0:0:0:0:
140,284,12497,6,0,P|92:260|136:332,1,225,2|2,0:0|0:0,0:0:0:0:
207,324,13183,6,0,L|312:312,1,75,2|2,0:0|0:0,0:0:0:0:
430,348,13526,2,0,L|356:340,1,75,2|2,0:0|0:0,0:0:0:0:
336,264,13869,6,0,B|356:192|356:192|336:92|336:92|316:160,1,225,2|2,0:0|0:0,0:0:0:0:
268,196,14555,6,0,B|120:196|120:196|200:224,1,225,2|2,0:0|0:0,0:0:0:0:
252,272,15240,6,0,P|280:344|208:288,1,225,2|2,0:0|0:0,0:0:0:0:
192,221,15926,6,0,L|197:146,1,75,2|2,0:0|0:0,0:0:0:0:
152,1,16269,2,0,L|160:76,1,75,2|2,0:0|0:0,0:0:0:0:
240,76,16612,6,0,B|396:64|396:64|328:112,1,225,2|2,0:0|0:0,0:0:0:0:
278,159,17297,6,0,P|227:254|276:351,1,225,2|2,0:0|0:0,0:0:0:0:
323,287,17983,6,0,P|360:218|348:295,1,225,2|2,0:0|0:0,0:0:0:0:
276,351,18669,6,0,L|192:344,1,75,2|2,0:0|0:0,0:0:0:0:
57,317,19012,2,0,L|132:308,1,75,2|2,0:0|0:0,0:0:0:0:
200,268,19355,6,0,B|188:192|188:192|216:124|216:124|200:28,1,225,2|2,0:0|0:0,0:0:0:0:
281,58,20040,6,0,B|293:134|293:134|265:202|265:202|281:298,1,225,2|2,0:0|0:0,0:0:0:0:
356,276,20726,6,0,P|292:351|198:296,1,225,2|2,0:0|0:0,0:0:0:0:
184,216,21412,6,0,P|144:156|144:248,1,225,2|2,0:0|0:0,0:0:0:0:
198,296,22097,5,2,0:0:0:0:
264,248,22269,1,2,0:0:0:0:
272,328,22440,1,2,0:0:0:0:
272,328,22612,1,2,0:0:0:0:
336,280,22783,2,0,L|428:284,1,75,2|2,0:0|0:0,0:0:0:0:
468,340,23126,2,0,P|488:300|476:240,1,75,2|2,0:0|0:0,0:0:0:0:
436,212,23469,6,0,L|432:108,1,75,2|2,0:0|0:0,0:0:0:0:
432,60,23812,1,2,0:0:0:0:
364,100,23983,1,2,0:0:0:0:
296,64,24155,2,0,P|288:96|304:152,1,75,2|2,0:0|0:0,0:0:0:0:
360,184,24497,1,2,0:0:0:0:
360,184,24669,1,2,0:0:0:0:
432,220,24840,6,0,P|440:256|428:308,1,75,2|2,0:0|0:0,0:0:0:0:
392,360,25183,2,0,L|300:352,1,75,2|2,0:0|0:0,0:0:0:0:
256,304,25526,2,0,L|256:204,2,75,2|2|2,0:0|0:0|0:0,0:0:0:0:
194,353,26040,1,2,0:0:0:0:
194,353,26212,6,0,L|119:346,1,75,2|2,0:0|0:0,0:0:0:0:
60,292,26555,2,0,P|54:255|62:218,1,75,2|2,0:0|0:0,0:0:0:0:
124,168,26897,1,2,0:0:0:0:
124,168,27069,1,2,0:0:0:0:
92,96,27240,1,2,0:0:0:0:
92,96,27412,1,2,0:0:0:0:
172,104,27583,6,0,L|264:108,1,75,2|2,0:0|0:0,0:0:0:0:
300,164,27926,2,0,L|392:160,1,75,2|2,0:0|0:0,0:0:0:0:
412,92,28269,1,2,0:0:0:0:
412,92,28440,1,2,0:0:0:0:
476,136,28612,1,2,0:0:0:0:
476,136,28783,1,2,0:0:0:0:
444,208,28955,6,0,L|436:292,1,75,2|2,0:0|0:0,0:0:0:0:
360,260,29297,2,0,L|352:344,1,75,2|2,0:0|0:0,0:0:0:0:
280,364,29640,1,2,0:0:0:0:
224,308,29812,1,2,0:0:0:0:
160,352,29983,1,2,0:0:0:0:
116,288,30155,1,2,0:0:0:0:
180,244,30326,6,0,L|176:148,1,75,2|2,0:0|0:0,0:0:0:0:
172,92,30669,1,2,0:0:0:0:
172,92,30840,1,2,0:0:0:0:
244,136,31012,2,0,L|344:128,1,75,2|2,0:0|0:0,0:0:0:0:
396,124,31355,1,2,0:0:0:0:
396,124,31526,1,2,0:0:0:0:
360,196,31697,5,2,0:0:0:0:
360,276,31869,1,2,0:0:0:0:
428,236,32040,1,2,0:0:0:0:
360,196,32212,1,2,0:0:0:0:
292,240,32383,1,2,0:0:0:0:
360,276,32555,1,2,0:0:0:0:
320,344,32726,1,2,0:0:0:0:
320,344,32897,1,2,0:0:0:0:
252,304,33069,6,0,P|184:288|92:336,1,150,2|2,0:0|0:0,0:0:0:0:
52,368,33583,1,2,0:0:0:0:
36,292,33755,2,0,L|44:128,1,150,2|2,0:0|0:0,0:0:0:0:
48,64,34269,1,2,0:0:0:0:
112,108,34440,2,0,P|192:108|284:68,1,150,2|2,0:0|0:0,0:0:0:0:
312,28,34955,1,2,0:0:0:0:
336,104,35126,6,0,P|348:148|344:192,1,75,2|2,0:0|0:0,0:0:0:0:
272,200,35469,2,0,P|260:244|264:292,1,75,2|2,0:0|0:0,0:0:0:0:
296,344,35812,6,0,P|360:336|456:368,1,150,2|2,0:0|0:0,0:0:0:0:
488,296,36326,1,2,0:0:0:0:
416,264,36497,2,0,L|432:96,1,150,2|2,0:0|0:0,0:0:0:0:
400,40,37012,1,2,0:0:0:0:
344,96,37183,2,0,L|329:245,1,150,2|2,0:0|0:0,0:0:0:0:
332,324,37697,1,2,0:0:0:0:
264,364,37869,6,0,P|216:364|184:348,1,75,2|2,0:0|0:0,0:0:0:0:
160,280,38212,2,0,L|76:284,1,75,2|2,0:0|0:0,0:0:0:0:
36,344,38555,6,0,P|8:284|52:208,1,150,2|2,0:0|0:0,0:0:0:0:
124,208,39069,1,2,0:0:0:0:
160,280,39240,2,0,P|228:288|304:244,1,150,2|2,0:0|0:0,0:0:0:0:
352,192,39755,1,2,0:0:0:0:
297,133,39926,2,0,P|233:97|160:104,1,150,2|2,0:0|0:0,0:0:0:0:
104,160,40440,1,2,0:0:0:0:
40,112,40612,6,0,L|36:16,1,75,2|2,0:0|0:0,0:0:0:0:
104,160,40955,2,0,L|96:256,1,75,2|2,0:0|0:0,0:0:0:0:
68,308,41297,6,0,P|124:352|212:348,1,150,2|2,0:0|0:0,0:0:0:0:
256,296,41812,1,2,0:0:0:0:
311,352,41983,2,0,P|385:352|444:308,1,150,2|2,0:0|0:0,0:0:0:0:
464,232,42497,1,2,0:0:0:0:
400,188,42669,6,0,B|328:204|328:204|296:128,1,150,2|2,0:0|0:0,0:0:0:0:
256,68,43183,1,2,0:0:0:0:
213,133,43355,2,0,B|184:204|184:204|112:188,1,150,2|2,0:0|0:0,0:0:0:0:
56,132,43869,1,2,0:0:0:0:
36,208,44040,6,0,B|0:276|0:276|36:368|36:368|72:304,1,225,2|2,0:0|0:0,0:0:0:0:
104,260,44726,6,0,B|184:260|184:260|232:288|232:288|336:288,1,225,2|2,0:0|0:0,0:0:0:0:
368,224,45412,6,0,P|400:176|384:252,1,225,2|2,0:0|0:0,0:0:0:0:
321,288,46097,6,0,L|236:288,1,75,2|2,0:0|0:0,0:0:0:0:
121,348,46440,2,0,L|196:348,1,75,2|2,0:0|0:0,0:0:0:0:
246,288,46783,6,0,B|248:124|248:124|204:184,1,225,2|2,0:0|0:0,0:0:0:0:
168,236,47469,6,0,B|92:320|92:320|10:226,1,225,2|2,0:0|0:0,0:0:0:0:
76,180,48155,6,0,P|76:92|32:168,1,225,2|2,0:0|0:0,0:0:0:0:
18,235,48840,6,0,L|24:340,1,75,2|2,0:0|0:0,0:0:0:0:
104,382,49183,2,0,L|100:308,1,75,2|2,0:0|0:0,0:0:0:0:
104,228,49526,6,0,B|180:228|180:228|256:264|256:264|344:264,1,225,2|2,0:0|0:0,0:0:0:0:
324,184,50212,6,0,P|380:216|330:344,1,225,2|2,0:0|0:0,0:0:0:0:
280,288,50897,6,0,P|224:256|276:320,1,225,2|2,0:0|0:0,0:0:0:0:
335,342,51583,6,0,L|444:336,1,75,2|2,0:0|0:0,0:0:0:0:
490,255,51926,2,0,L|416:260,1,75,2|2,0:0|0:0,0:0:0:0:
336,260,52269,6,0,P|216:252|160:344,1,225,2|2,0:0|0:0,0:0:0:0:
260,336,52955,6,0,B|264:256|264:256|244:200|244:200|256:100,1,225,2|2,0:0|0:0,0:0:0:0:
328,84,53640,6,0,P|368:9|291:45,1,225,2|2,0:0|0:0,0:0:0:0:
254,115,54326,6,0,P|186:159|226:79,1,225,2|2,0:0|0:0,0:0:0:0:
291,46,55012,6,0,B|328:52|328:52|396:36,1,75,2|2,0:0|0:0,0:0:0:0:
440,24,55355,2,0,B|448:64|448:64|440:112,1,75,2|2,0:0|0:0,0:0:0:0:
368,120,55697,2,0,B|360:156|360:156|376:216,1,75,2|2,0:0|0:0,0:0:0:0:
440,232,56040,2,0,B|448:272|448:272|440:320,1,75,2|2,0:0|0:0,0:0:0:0:
384,360,56383,6,0,L|288:352,1,75,2|2,0:0|0:0,0:0:0:0:
256,292,56726,2,0,L|164:300,1,75,2|2,0:0|0:0,0:0:0:0:
132,360,57069,2,0,L|44:352,1,75,2|2,0:0|0:0,0:0:0:0:
12,288,57412,2,0,P|8:240|24:192,1,75,2|2,0:0|0:0,0:0:0:0:
56,148,57755,5,2,0:0:0:0:
56,148,57926,1,2,0:0:0:0:
96,216,58097,2,0,P|156:204|180:188,1,75,2|2,0:0|0:0,0:0:0:0:
208,128,58440,1,2,0:0:0:0:
208,128,58612,1,2,0:0:0:0:
248,196,58783,2,0,P|292:204|328:228,1,75,2|2,0:0|0:0,0:0:0:0:
360,284,59126,6,0,L|456:276,2,75,2|2|2,0:0|0:0|0:0,0:0:0:0:
316,348,59640,1,2,0:0:0:0:
264,288,59812,2,0,P|216:292|176:316,1,75,2|2,0:0|0:0,0:0:0:0:
144,368,60155,2,0,P|92:364|48:336,1,75,2|2,0:0|0:0,0:0:0:0:
28,288,60497,6,0,B|24:248|24:248|32:200,1,75,2|2,0:0|0:0,0:0:0:0:
108,196,60840,2,0,B|112:160|112:160|100:108,1,75,2|2,0:0|0:0,0:0:0:0:
32,92,61183,2,0,B|28:52|28:52|36:4,1,75,2|2,0:0|0:0,0:0:0:0:
108,40,61526,2,0,B|144:32|144:32|196:44,1,75,2|2,0:0|0:0,0:0:0:0:
216,112,61869,6,0,P|264:104|304:80,1,75,2|2,0:0|0:0,0:0:0:0:
340,32,62212,2,0,P|392:40|424:60,1,75,2|2,0:0|0:0,0:0:0:0:
400,128,62555,2,0,P|392:168|400:212,1,75,2|2,0:0|0:0,0:0:0:0:
464,240,62897,2,0,P|472:284|464:336,1,75,2|2,0:0|0:0,0:0:0:0:
416,372,63240,5,2,0:0:0:0:
416,372,63412,1,2,0:0:0:0:
384,300,63583,2,0,P|340:304|300:332,1,75,2|2,0:0|0:0,0:0:0:0:
256,372,63926,1,2,0:0:0:0:
256,372,64097,1,2,0:0:0:0:
192,328,64269,2,0,P|152:320|116:288,1,75,2|2,0:0|0:0,0:0:0:0:
84,232,64612,6,0,L|0:236,2,75,2|2|2,0:0|0:0|0:0,0:0:0:0:
128,168,65126,1,2,0:0:0:0:
180,228,65297,2,0,L|254:224,1,75,2|2,0:0|0:0,0:0:0:0:
316,176,65640,2,0,P|356:184|392:208,1,75,2|2,0:0|0:0,0:0:0:0:
424,272,65983,6,0,L|416:360,2,75,2|2|2,0:0|0:0|0:0,0:0:0:0:
468,208,66497,1,2,0:0:0:0:
432,136,66669,2,0,L|438:61,2,75,2|2|2,0:0|0:0|0:0,0:0:0:0:
384,201,67183,1,2,0:0:0:0:
340,264,67355,6,0,L|332:352,2,75,2|2|2,0:0|0:0|0:0,0:0:0:0:
384,201,67869,1,2,0:0:0:0:
348,128,68041,2,0,L|354:53,2,75,2|2|2,0:0|0:0|0:0,0:0:0:0:
300,193,68555,1,2,0:0:0:0:
244,140,68726,6,0,L|152:140,1,75,2|2,0:0|0:0,0:0:0:0:
92,140,69069,1,2,0:0:0:0:
92,140,69240,1,2,0:0:0:0:
72,216,69412,2,0,L|164:216,1,75,2|2,0:0|0:0,0:0:0:0:
224,216,69755,1,2,0:0:0:0:
224,216,69926,1,2,0:0:0:0:
240,292,70097,6,0,L|148:292,1,75,2|2,0:0|0:0,0:0:0:0:
88,292,70440,1,2,0:0:0:0:
88,292,70611,1,2,0:0:0:0:
68,368,70783,2,0,L|160:368,1,75,2|2,0:0|0:0,0:0:0:0:
220,368,71126,1,2,0:0:0:0:
220,368,71297,1,2,0:0:0:0:
240,292,71469,5,2,0:0:0:0:
240,292,71640,1,2,0:0:0:0:
296,348,71812,2,0,P|340:336|368:296,1,75,2|2,0:0|0:0,0:0:0:0:
396,244,72155,1,2,0:0:0:0:
396,244,72326,1,2,0:0:0:0:
320,228,72497,2,0,P|320:184|340:140,1,75,2|2,0:0|0:0,0:0:0:0:
408,136,72840,5,2,0:0:0:0:
408,136,73012,1,2,0:0:0:0:
484,124,73183,2,0,P|480:68|460:32,1,75,2|2,0:0|0:0,0:0:0:0:
408,4,73526,1,2,0:0:0:0:
408,4,73697,1,2,0:0:0:0:
364,72,73869,2,0,P|320:72|272:48,1,75,2|2,0:0|0:0,0:0:0:0:
224,16,74212,6,0,L|136:20,1,75,2|2,0:0|0:0,0:0:0:0:
72,20,74555,2,0,P|64:68|80:108,1,75,2|2,0:0|0:0,0:0:0:0:
148,100,74897,2,0,P|156:144|144:188,1,75,2|2,0:0|0:0,0:0:0:0:
72,172,75240,2,0,P|64:220|80:260,1,75,2|2,0:0|0:0,0:0:0:0:
144,276,75583,6,0,L|136:376,2,75,2|2|2,0:0|0:0|0:0,0:0:0:0:
208,228,76097,1,2,0:0:0:0:
150,173,76269,2,0,L|155:98,2,75,2|2|2,0:0|0:0|0:0,0:0:0:0:
84,220,76783,1,2,0:0:0:0:
36,156,76955,5,2,0:0:0:0:
44,312,77297,2,0,P|80:312|132:340,1,75,2|2,0:0|0:0,0:0:0:0:
184,364,77640,2,0,P|256:372|332:304,1,150,2|2,0:0|0:0,0:0:0:0:
396,192,78326,1,2,0:0:0:0:
256,120,78669,6,0,L|264:220,1,75,2|2,0:0|0:0,0:0:0:0:
284,272,79012,2,0,L|280:352,2,75,2|2|2,0:0|0:0|0:0,0:0:0:0:
336,212,79526,1,2,0:0:0:0:
364,284,79697,5,2,0:0:0:0:
468,164,80040,2,0,P|424:160|384:128,1,75,2|2,0:0|0:0,0:0:0:0:
360,76,80383,2,0,P|296:68|204:120,1,150,2|2,0:0|0:0,0:0:0:0:
92,192,81069,1,2,0:0:0:0:
172,328,81412,6,0,L|256:320,1,75,2|2,0:0|0:0,0:0:0:0:
320,292,81755,2,0,L|404:304,2,75,2|2|2,0:0|0:0|0:0,0:0:0:0:
256,244,82269,1,2,0:0:0:0:
246,320,82440,5,2,0:0:0:0:
184,272,82612,1,2,0:0:0:0:
172,348,82783,1,2,0:0:0:0:
108,300,82955,1,2,0:0:0:0:
120,224,83126,2,0,B|128:188|128:188|117:151,1,75,2|2,0:0|0:0,0:0:0:0:
58,27,83469,2,0,B|48:64|48:64|56:100,1,75,2|2,0:0|0:0,0:0:0:0:
206,65,83812,6,0,L|132:72,1,75,2|2,0:0|0:0,0:0:0:0:
32,192,84155,2,0,L|106:185,1,75,2|2,0:0|0:0,0:0:0:0:
260,148,84497,2,0,L|185:154,1,75,2|2,0:0|0:0,0:0:0:0:
85,274,84840,2,0,L|159:267,1,75,2|2,0:0|0:0,0:0:0:0:
316,248,85183,5,2,0:0:0:0:
316,248,85355,1,2,0:0:0:0:
256,340,85526,2,0,P|240:300|236:248,1,75,2|2,0:0|0:0,0:0:0:0:
380,120,85869,2,0,P|384:157|380:194,1,75,2|2,0:0|0:0,0:0:0:0:
316,248,86212,1,2,0:0:0:0:
316,248,86383,1,2,0:0:0:0:
280,176,86555,6,0,L|184:180,1,75,2|2,0:0|0:0,0:0:0:0:
145,45,86897,2,0,L|152:120,1,75,2|2,0:0|0:0,0:0:0:0:
29,187,87240,2,0,L|104:184,1,75,10|10,0:0|0:0,0:0:0:0:
164,320,87583,2,0,L|158:246,1,75,10|10,0:0|0:0,0:0:0:0:
152,120,87926,5,6,0:0:0:0:
292,192,88269,2,0,P|328:180|376:144,1,75,2|2,0:0|0:0,0:0:0:0:
396,92,88612,2,0,L|388:260,1,150,2|2,0:0|0:0,0:0:0:0:
256,324,89297,1,6,0:0:0:0:
123,241,89640,6,0,P|128:188|144:148,1,75,2|2,0:0|0:0,0:0:0:0:
184,108,89983,2,0,L|176:16,2,75,2|2|2,0:0|0:0|0:0,0:0:0:0:
212,180,90497,1,2,0:0:0:0:
268,124,90669,5,6,0:0:0:0:
408,192,91012,2,0,L|400:280,1,75,2|2,0:0|0:0,0:0:0:0:
448,328,91355,2,0,P|392:312|292:360,1,150,2|2,0:0|0:0,0:0:0:0:
160,288,92040,1,6,0:0:0:0:
284,192,92383,6,0,L|280:100,1,75,2|2,0:0|0:0,0:0:0:0:
204,108,92726,2,0,L|207:182,1,75,2|2,0:0|0:0,0:0:0:0:
132,200,93069,2,0,L|128:125,1,75,2|2,0:0|0:0,0:0:0:0:
140,48,93412,5,2,0:0:0:0:
140,48,93583,1,2,0:0:0:0:
204,108,93755,2,0,P|256:100|296:72,1,75,2|2,0:0|0:0,0:0:0:0:
393,15,94097,2,0,P|355:17|320:28,1,75,2|2,0:0|0:0,0:0:0:0:
365,172,94440,2,0,P|363:135|352:100,1,75,2|2,0:0|0:0,0:0:0:0:
296,220,94783,5,2,0:0:0:0:
296,220,94955,1,2,0:0:0:0:
320,296,95126,1,2,0:0:0:0:
320,296,95297,1,2,0:0:0:0:
236,280,95469,6,0,L|244:364,1,75,2|2,0:0|0:0,0:0:0:0:
156,260,95812,2,0,L|164:344,1,75,2|2,0:0|0:0,0:0:0:0:
216,120,96155,6,0,L|224:204,1,75,2|2,0:0|0:0,0:0:0:0:
136,100,96498,2,0,L|144:184,1,75,2|2,0:0|0:0,0:0:0:0:
200,36,96840,5,2,0:0:0:0:
200,36,97012,1,2,0:0:0:0:
216,120,97183,1,2,0:0:0:0:
216,120,97355,1,2,0:0:0:0:
136,100,97526,6,0,L|44:104,1,75,2|2,0:0|0:0,0:0:0:0:
4,224,97869,2,0,L|78:220,1,75,2|2,0:0|0:0,0:0:0:0:
148,84,98212,6,0,L|56:88,1,75,2|2,0:0|0:0,0:0:0:0:
0,240,98555,2,0,L|74:236,1,75,2|2,0:0|0:0,0:0:0:0:
172,192,98897,6,0,B|198:182|198:182|232:196,1,56.2500021457673,2|0,0:0|0:0,0:0:0:0:
264,236,99240,2,0,B|290:246|290:246|316:235,1,56.2500021457673,2|0,0:0|0:0,0:0:0:0:
360,196,99583,2,0,B|416:184|416:184|476:200,1,112.500004291535,2|0,0:0|0:0,0:0:0:0:
492,316,100269,6,0,B|412:356|412:356|344:316|344:316|316:360|240:368|212:344|184:312,1,337.500012874604,2|0,0:0|0:0,0:0:0:0:
112,240,101640,6,0,L|56:248,2,56.2500021457673,2|0|0,0:0|0:0|0:0,0:0:0:0:
156,200,102155,1,0,0:0:0:0:
164,260,102326,1,2,0:0:0:0:
272,216,102669,1,2,0:0:0:0:
372,152,103012,6,0,P|436:144|388:188,1,168.750006437302,2|0,0:0|0:0,0:0:0:0:
316,204,103697,6,0,B|164:204|164:204|232:164,1,213.749994292259,2|0,0:0|0:0,0:0:0:0:
284,124,104383,6,0,B|338:93|338:93|154:93,1,236.249992790222,2|0,0:0|0:0,0:0:0:0:
96,168,105069,6,0,P|-5:191|70:120,1,281.25,2|0,0:0|0:0,0:0:0:0:
