osu file format v14

[General]
AudioFilename: audio.mp3
AudioLeadIn: 0
PreviewTime: 87755
Countdown: 0
SampleSet: Soft
StackLeniency: 0.3
Mode: 0
LetterboxInBreaks: 0
WidescreenStoryboard: 0

[Editor]
Bookmarks: 11126,21926,26897,27240,27583
DistanceSpacing: 0.8
BeatDivisor: 4
GridSize: 4
TimelineZoom: 1

[Metadata]
Title:Interlude
TitleUnicode:Interlude
Artist:Loki
ArtistUnicode:Loki
Creator:Chewin
Version:Drama
Source:
Tags:Tales of the Mountains featured artist symphony osu!
BeatmapID:1395942
BeatmapSetID:659093

[Difficulty]
HPDrainRate:6
CircleSize:4
OverallDifficulty:9
ApproachRate:9.3
SliderMultiplier:1.9
SliderTickRate:1

[Events]
//Background and Video events
0,0,"BG.png",0,0
//Break Periods
//Storyboard Layer 0 (Background)
//Storyboard Layer 1 (Fail)
//Storyboard Layer 2 (Pass)
//Storyboard Layer 3 (Foreground)
//Storyboard Sound Samples

[TimingPoints]
155,342.857142857143,4,2,1,50,1,0
326,-100,4,2,2,50,0,0
497,-100,4,2,3,50,0,0
669,-100,4,2,4,50,0,0
840,-100,4,2,1,50,0,0
1011,-100,4,2,2,50,0,0
1183,-100,4,2,3,50,0,0
1355,-100,4,2,4,50,0,0
1526,-100,4,2,1,50,0,0
1697,-100,4,2,2,50,0,0
1869,-100,4,2,3,50,0,0
2040,-100,4,2,4,50,0,0
2212,-100,4,2,1,50,0,0
2383,-100,4,2,2,50,0,0
2555,-100,4,2,3,50,0,0
2726,-100,4,2,4,50,0,0
2897,-100,4,2,5,50,0,0
3069,-100,4,2,2,50,0,0
3240,-100,4,2,3,50,0,0
3412,-100,4,2,4,50,0,0
3583,-100,4,2,5,50,0,0
3755,-100,4,2,2,50,0,0
3926,-100,4,2,3,50,0,0
4097,-100,4,2,4,50,0,0
4269,-100,4,2,5,50,0,0
4440,-100,4,2,2,50,0,0
4612,-100,4,2,3,50,0,0
4783,-100,4,2,4,50,0,0
4954,-100,4,2,6,50,0,0
5125,-100,4,2,7,50,0,0
5297,-100,4,2,2,50,0,0
5469,-100,4,2,3,50,0,0
5640,-100,4,2,1,50,0,0
5812,-100,4,2,2,50,0,0
5983,-100,4,2,3,50,0,0
6155,-100,4,2,4,50,0,0
6326,-100,4,2,1,50,0,0
6497,-100,4,2,2,50,0,0
6669,-100,4,2,3,50,0,0
6840,-100,4,2,4,50,0,0
7012,-100,4,2,1,50,0,0
7183,-100,4,2,2,50,0,0
7355,-100,4,2,3,50,0,0
7526,-100,4,2,4,50,0,0
7697,-100,4,2,1,50,0,0
7869,-100,4,2,2,50,0,0
8040,-100,4,2,3,50,0,0
8212,-100,4,2,4,50,0,0
8383,-100,4,2,7,50,0,0
8555,-100,4,2,4,50,0,0
8726,-100,4,2,8,50,0,0
8897,-100,4,2,9,50,0,0
9069,-100,4,2,7,50,0,0
9240,-100,4,2,4,50,0,0
9412,-100,4,2,8,50,0,0
9583,-100,4,2,9,50,0,0
9755,-100,4,2,1,50,0,0
9926,-100,4,2,3,50,0,0
10097,-100,4,2,4,50,0,0
10269,-100,4,2,10,50,0,0
10440,-100,4,2,1,50,0,0
10612,-100,4,2,2,50,0,0
10783,-100,4,2,3,50,0,0
10955,-100,4,2,10,50,0,0
11126,-100,4,2,1,50,0,0
11297,-100,4,2,2,50,0,0
11469,-100,4,2,3,50,0,0
11640,-100,4,2,4,50,0,0
11812,-100,4,2,1,50,0,0
11983,-100,4,2,2,50,0,0
12155,-100,4,2,3,50,0,0
12326,-100,4,2,4,50,0,0
12497,-100,4,2,1,50,0,0
12669,-100,4,2,2,50,0,0
12840,-100,4,2,3,50,0,0
13012,-100,4,2,4,50,0,0
13183,-100,4,2,1,50,0,0
13355,-100,4,2,2,50,0,0
13526,-100,4,2,3,50,0,0
13697,-100,4,2,4,50,0,0
13869,-100,4,2,5,50,0,0
14040,-100,4,2,2,50,0,0
14212,-100,4,2,3,50,0,0
14383,-100,4,2,4,50,0,0
14555,-100,4,2,5,50,0,0
14726,-100,4,2,2,50,0,0
14897,-100,4,2,3,50,0,0
15069,-100,4,2,4,50,0,0
15240,-100,4,2,5,50,0,0
15412,-100,4,2,2,50,0,0
15583,-100,4,2,3,50,0,0
15755,-100,4,2,4,50,0,0
15926,-100,4,2,6,50,0,0
16097,-100,4,2,7,50,0,0
16269,-100,4,2,2,50,0,0
16440,-100,4,2,3,50,0,0
16612,-100,4,2,1,50,0,0
16783,-100,4,2,2,50,0,0
16955,-100,4,2,3,50,0,0
17126,-100,4,2,4,50,0,0
17297,-100,4,2,1,50,0,0
17469,-100,4,2,2,50,0,0
17640,-100,4,2,3,50,0,0
17812,-100,4,2,4,50,0,0
17983,-100,4,2,1,50,0,0
18155,-100,4,2,2,50,0,0
18326,-100,4,2,3,50,0,0
18497,-100,4,2,4,50,0,0
18669,-100,4,2,1,50,0,0
18840,-100,4,2,2,50,0,0
19012,-100,4,2,3,50,0,0
19183,-100,4,2,4,50,0,0
19355,-100,4,2,7,50,0,0
19526,-100,4,2,4,50,0,0
19697,-100,4,2,8,50,0,0
19869,-100,4,2,9,50,0,0
20040,-100,4,2,7,50,0,0
20212,-100,4,2,4,50,0,0
20383,-100,4,2,8,50,0,0
20555,-100,4,2,9,50,0,0
20726,-100,4,2,1,50,0,0
20897,-100,4,2,3,50,0,0
21069,-100,4,2,4,50,0,0
21240,-100,4,2,10,50,0,0
21412,-100,4,2,1,50,0,0
21583,-100,4,2,2,50,0,0
21755,-100,4,2,3,50,0,0
21926,-100,4,2,10,50,0,0
22097,-100,4,2,4,50,0,0
22269,-100,4,2,9,50,0,0
22440,-100,4,2,4,50,0,0
22612,-100,4,2,2,50,0,0
22783,-100,4,2,3,50,0,0
22955,-100,4,2,4,50,0,0
23126,-100,4,2,8,50,0,0
23297,-100,4,2,11,50,0,0
23469,-100,4,2,4,50,0,0
23640,-100,4,2,11,50,0,0
23812,-100,4,2,4,50,0,0
23983,-100,4,2,3,50,0,0
24155,-100,4,2,1,50,0,0
24326,-100,4,2,2,50,0,0
24497,-100,4,2,7,50,0,0
24669,-100,4,2,1,50,0,0
24840,-100,4,2,5,50,0,0
25012,-100,4,2,2,50,0,0
25183,-100,4,2,5,50,0,0
25355,-100,4,2,6,50,0,0
25526,-100,4,2,12,50,0,0
25697,-100,4,2,6,50,0,0
25869,-100,4,2,5,50,0,0
26040,-100,4,2,7,50,0,0
26212,-100,4,2,1,50,0,0
26383,-100,4,2,2,50,0,0
26555,-100,4,2,3,50,0,0
26726,-100,4,2,4,50,0,0
26897,-100,4,2,11,50,0,0
27069,-100,4,2,4,50,0,0
27240,-100,4,2,3,50,0,0
27412,-100,4,2,2,50,0,0
27583,-100,4,2,4,50,0,0
27755,-100,4,2,9,50,0,0
27926,-100,4,2,4,50,0,0
28097,-100,4,2,2,50,0,0
28269,-100,4,2,3,50,0,0
28440,-100,4,2,4,50,0,0
28612,-100,4,2,8,50,0,0
28783,-100,4,2,11,50,0,0
28955,-100,4,2,4,50,0,0
29126,-100,4,2,11,50,0,0
29297,-100,4,2,4,50,0,0
29469,-100,4,2,3,50,0,0
29640,-100,4,2,1,50,0,0
29812,-100,4,2,2,50,0,0
29983,-100,4,2,7,50,0,0
30155,-100,4,2,1,50,0,0
30326,-100,4,2,5,50,0,0
30497,-100,4,2,2,50,0,0
30669,-100,4,2,5,50,0,0
30840,-100,4,2,6,50,0,0
31012,-100,4,2,12,50,0,0
31183,-100,4,2,6,50,0,0
31355,-100,4,2,5,50,0,0
31526,-100,4,2,7,50,0,0
31697,-100,4,2,1,50,0,0
31869,-100,4,2,2,50,0,0
32040,-100,4,2,3,50,0,0
32212,-100,4,2,4,50,0,0
32383,-100,4,2,11,50,0,0
32555,-100,4,2,13,50,0,0
32726,-100,4,2,14,50,0,0
32897,-100,4,2,15,50,0,0
33069,-100,4,2,1,50,0,0
33240,-100,4,2,2,50,0,0
33412,-100,4,2,3,50,0,0
33583,-100,4,2,4,50,0,0
33755,-100,4,2,1,50,0,0
33926,-100,4,2,2,50,0,0
34097,-100,4,2,3,50,0,0
34269,-100,4,2,4,50,0,0
34440,-100,4,2,1,50,0,0
34612,-100,4,2,2,50,0,0
34783,-100,4,2,3,50,0,0
34955,-100,4,2,4,50,0,0
35126,-100,4,2,1,50,0,0
35297,-100,4,2,2,50,0,0
35469,-100,4,2,3,50,0,0
35640,-100,4,2,4,50,0,0
35812,-100,4,2,5,50,0,0
35983,-100,4,2,2,50,0,0
36155,-100,4,2,3,50,0,0
36326,-100,4,2,4,50,0,0
36497,-100,4,2,5,50,0,0
36669,-100,4,2,2,50,0,0
36840,-100,4,2,3,50,0,0
37012,-100,4,2,4,50,0,0
37183,-100,4,2,5,50,0,0
37355,-100,4,2,2,50,0,0
37526,-100,4,2,3,50,0,0
37697,-100,4,2,4,50,0,0
37869,-100,4,2,6,50,0,0
38040,-100,4,2,7,50,0,0
38212,-100,4,2,2,50,0,0
38383,-100,4,2,3,50,0,0
38555,-100,4,2,1,50,0,0
38726,-100,4,2,2,50,0,0
38897,-100,4,2,3,50,0,0
39069,-100,4,2,4,50,0,0
39240,-100,4,2,1,50,0,0
39412,-100,4,2,2,50,0,0
39583,-100,4,2,3,50,0,0
39755,-100,4,2,4,50,0,0
39926,-100,4,2,1,50,0,0
40097,-100,4,2,2,50,0,0
40269,-100,4,2,3,50,0,0
40440,-100,4,2,4,50,0,0
40612,-100,4,2,1,50,0,0
40783,-100,4,2,2,50,0,0
40955,-100,4,2,3,50,0,0
41126,-100,4,2,4,50,0,0
41297,-100,4,2,7,50,0,0
41469,-100,4,2,4,50,0,0
41640,-100,4,2,8,50,0,0
41812,-100,4,2,9,50,0,0
41983,-100,4,2,7,50,0,0
42155,-100,4,2,4,50,0,0
42326,-100,4,2,8,50,0,0
42497,-100,4,2,9,50,0,0
42669,-100,4,2,1,50,0,0
42840,-100,4,2,3,50,0,0
43012,-100,4,2,4,50,0,0
43183,-100,4,2,10,50,0,0
43355,-100,4,2,1,50,0,0
43526,-100,4,2,2,50,0,0
43697,-100,4,2,3,50,0,0
43869,-100,4,2,10,50,0,0
44040,-100,4,2,1,50,0,0
44212,-100,4,2,2,50,0,0
44383,-100,4,2,3,50,0,0
44555,-100,4,2,4,50,0,0
44726,-100,4,2,1,50,0,0
44897,-100,4,2,2,50,0,0
45069,-100,4,2,3,50,0,0
45240,-100,4,2,4,50,0,0
45412,-100,4,2,1,50,0,0
45583,-100,4,2,2,50,0,0
45755,-100,4,2,3,50,0,0
45926,-100,4,2,4,50,0,0
46097,-100,4,2,1,50,0,0
46269,-100,4,2,2,50,0,0
46440,-100,4,2,3,50,0,0
46612,-100,4,2,4,50,0,0
46783,-100,4,2,5,50,0,0
46955,-100,4,2,2,50,0,0
47126,-100,4,2,3,50,0,0
47297,-100,4,2,4,50,0,0
47469,-100,4,2,5,50,0,0
47640,-100,4,2,2,50,0,0
47812,-100,4,2,3,50,0,0
47983,-100,4,2,4,50,0,0
48155,-100,4,2,5,50,0,0
48326,-100,4,2,2,50,0,0
48497,-100,4,2,3,50,0,0
48669,-100,4,2,4,50,0,0
48840,-100,4,2,6,50,0,0
49012,-100,4,2,7,50,0,0
49183,-100,4,2,2,50,0,0
49355,-100,4,2,3,50,0,0
49526,-100,4,2,1,50,0,0
49697,-100,4,2,2,50,0,0
49869,-100,4,2,3,50,0,0
50040,-100,4,2,4,50,0,0
50212,-100,4,2,1,50,0,0
50383,-100,4,2,2,50,0,0
50555,-100,4,2,3,50,0,0
50726,-100,4,2,4,50,0,0
50897,-100,4,2,1,50,0,0
51069,-100,4,2,2,50,0,0
51240,-100,4,2,3,50,0,0
51412,-100,4,2,4,50,0,0
51583,-100,4,2,1,50,0,0
51755,-100,4,2,2,50,0,0
51926,-100,4,2,3,50,0,0
52097,-100,4,2,4,50,0,0
52269,-100,4,2,7,50,0,0
52440,-100,4,2,4,50,0,0
52612,-100,4,2,8,50,0,0
52783,-100,4,2,9,50,0,0
52955,-100,4,2,7,50,0,0
53126,-100,4,2,4,50,0,0
53297,-100,4,2,8,50,0,0
53469,-100,4,2,9,50,0,0
53640,-100,4,2,1,50,0,0
53812,-100,4,2,3,50,0,0
53983,-100,4,2,4,50,0,0
54155,-100,4,2,10,50,0,0
54326,-100,4,2,1,50,0,0
54497,-100,4,2,2,50,0,0
54669,-100,4,2,3,50,0,0
54840,-100,4,2,10,50,0,0
55012,-100,4,2,4,50,0,0
55183,-100,4,2,9,50,0,0
55355,-100,4,2,4,50,0,0
55526,-100,4,2,2,50,0,0
55697,-100,4,2,3,50,0,0
55869,-100,4,2,4,50,0,0
56040,-100,4,2,8,50,0,0
56212,-100,4,2,11,50,0,0
56383,-100,4,2,4,50,0,0
56555,-100,4,2,11,50,0,0
56726,-100,4,2,4,50,0,0
56897,-100,4,2,3,50,0,0
57069,-100,4,2,1,50,0,0
57240,-100,4,2,2,50,0,0
57412,-100,4,2,7,50,0,0
57583,-100,4,2,1,50,0,0
57755,-100,4,2,5,50,0,0
57926,-100,4,2,2,50,0,0
58097,-100,4,2,5,50,0,0
58269,-100,4,2,6,50,0,0
58440,-100,4,2,12,50,0,0
58612,-100,4,2,6,50,0,0
58783,-100,4,2,5,50,0,0
58955,-100,4,2,7,50,0,0
59126,-100,4,2,1,50,0,0
59297,-100,4,2,2,50,0,0
59469,-100,4,2,3,50,0,0
59640,-100,4,2,4,50,0,0
59812,-100,4,2,11,50,0,0
59983,-100,4,2,4,50,0,0
60155,-100,4,2,3,50,0,0
60326,-100,4,2,2,50,0,0
60497,-100,4,2,4,50,0,0
60669,-100,4,2,9,50,0,0
60840,-100,4,2,4,50,0,0
61012,-100,4,2,2,50,0,0
61183,-100,4,2,3,50,0,0
61355,-100,4,2,4,50,0,0
61526,-100,4,2,8,50,0,0
61697,-100,4,2,11,50,0,0
61869,-100,4,2,4,50,0,0
62040,-100,4,2,11,50,0,0
62212,-100,4,2,4,50,0,0
62383,-100,4,2,3,50,0,0
62555,-100,4,2,1,50,0,0
62726,-100,4,2,2,50,0,0
62897,-100,4,2,7,50,0,0
63069,-100,4,2,1,50,0,0
63240,-100,4,2,5,50,0,0
63412,-100,4,2,2,50,0,0
63583,-100,4,2,5,50,0,0
63755,-100,4,2,6,50,0,0
63926,-100,4,2,12,50,0,0
64097,-100,4,2,6,50,0,0
64269,-100,4,2,5,50,0,0
64440,-100,4,2,7,50,0,0
64612,-100,4,2,1,50,0,0
64783,-100,4,2,2,50,0,0
64955,-100,4,2,3,50,0,0
65126,-100,4,2,4,50,0,0
65297,-100,4,2,11,50,0,0
65469,-100,4,2,13,50,0,0
65640,-100,4,2,14,50,0,0
65812,-100,4,2,15,50,0,0
65983,-100,4,2,1,50,0,0
66155,-100,4,2,2,50,0,0
66326,-100,4,2,3,50,0,0
66497,-100,4,2,4,50,0,0
66669,-100,4,2,1,50,0,0
66840,-100,4,2,2,50,0,0
67012,-100,4,2,3,50,0,0
67183,-100,4,2,4,50,0,0
67355,-100,4,2,1,50,0,0
67526,-100,4,2,2,50,0,0
67697,-100,4,2,3,50,0,0
67869,-100,4,2,4,50,0,0
68040,-100,4,2,1,50,0,0
68212,-100,4,2,2,50,0,0
68383,-100,4,2,3,50,0,0
68555,-100,4,2,4,50,0,0
68726,-100,4,2,5,50,0,0
68897,-100,4,2,2,50,0,0
69069,-100,4,2,3,50,0,0
69240,-100,4,2,4,50,0,0
69412,-100,4,2,5,50,0,0
69583,-100,4,2,2,50,0,0
69755,-100,4,2,3,50,0,0
69926,-100,4,2,4,50,0,0
70097,-100,4,2,5,50,0,0
70269,-100,4,2,2,50,0,0
70440,-100,4,2,3,50,0,0
70612,-100,4,2,4,50,0,0
70783,-100,4,2,6,50,0,0
70955,-100,4,2,7,50,0,0
71126,-100,4,2,2,50,0,0
71297,-100,4,2,3,50,0,0
71469,-100,4,2,1,50,0,0
71640,-100,4,2,2,50,0,0
71812,-100,4,2,3,50,0,0
71983,-100,4,2,4,50,0,0
72155,-100,4,2,1,50,0,0
72326,-100,4,2,2,50,0,0
72497,-100,4,2,3,50,0,0
72669,-100,4,2,4,50,0,0
72840,-100,4,2,1,50,0,0
73012,-100,4,2,2,50,0,0
73183,-100,4,2,3,50,0,0
73355,-100,4,2,4,50,0,0
73526,-100,4,2,1,50,0,0
73697,-100,4,2,2,50,0,0
73869,-100,4,2,3,50,0,0
74040,-100,4,2,4,50,0,0
74212,-100,4,2,7,50,0,0
74383,-100,4,2,4,50,0,0
74555,-100,4,2,8,50,0,0
74726,-100,4,2,9,50,0,0
74897,-100,4,2,7,50,0,0
75069,-100,4,2,4,50,0,0
75240,-100,4,2,8,50,0,0
75412,-100,4,2,9,50,0,0
75583,-100,4,2,1,50,0,0
75755,-100,4,2,3,50,0,0
75926,-100,4,2,4,50,0,0
76097,-100,4,2,10,50,0,0
76269,-100,4,2,1,50,0,0
76440,-100,4,2,2,50,0,0
76612,-100,4,2,3,50,0,0
76783,-100,4,2,10,50,0,0
76955,-100,4,2,4,70,0,1
77297,-100,4,2,8,70,0,1
77469,-100,4,2,4,70,0,1
77640,-100,4,2,2,70,0,1
77983,-100,4,2,8,70,0,1
78326,-100,4,2,4,70,0,1
78669,-100,4,2,8,70,0,1
78840,-100,4,2,4,70,0,1
79012,-100,4,2,2,70,0,1
79183,-100,4,2,7,70,0,1
79355,-100,4,2,3,70,0,1
79526,-100,4,2,8,70,0,1
79697,-100,4,2,4,70,0,1
80040,-100,4,2,8,70,0,1
80212,-100,4,2,4,70,0,1
80383,-100,4,2,2,70,0,1
80726,-100,4,2,8,70,0,1
81069,-100,4,2,4,70,0,1
81412,-100,4,2,8,70,0,1
81583,-100,4,2,4,70,0,1
81755,-100,4,2,2,70,0,1
81926,-100,4,2,7,70,0,1
82097,-100,4,2,3,70,0,1
82269,-100,4,2,8,70,0,1
82440,-100,4,2,4,70,0,1
82612,-100,4,2,9,70,0,1
82783,-100,4,2,4,70,0,1
82955,-100,4,2,3,70,0,1
83126,-100,4,2,2,70,0,1
83297,-100,4,2,1,70,0,1
83469,-100,4,2,7,70,0,1
83640,-100,4,2,2,70,0,1
83812,-100,4,2,3,70,0,1
83983,-100,4,2,8,70,0,1
84155,-100,4,2,3,70,0,1
84326,-100,4,2,2,70,0,1
84497,-100,4,2,4,70,0,1
84669,-100,4,2,9,70,0,1
84840,-100,4,2,4,70,0,1
85012,-100,4,2,2,70,0,1
85183,-100,4,2,8,70,0,1
85355,-100,4,2,11,70,0,1
85526,-100,4,2,8,70,0,1
85697,-100,4,2,4,70,0,1
85869,-100,4,2,3,70,0,1
86040,-100,4,2,7,70,0,1
86212,-100,4,2,2,70,0,1
86383,-100,4,2,3,70,0,1
86555,-100,4,2,4,70,0,1
86726,-100,4,2,11,70,0,1
86897,-100,4,2,4,70,0,1
87069,-100,4,2,2,70,0,1
87240,-100,4,2,1,70,0,1
87412,-100,4,2,7,70,0,1
87583,-100,4,2,2,70,0,1
87755,-100,4,2,3,70,0,0
87926,-100,4,2,4,70,0,1
88269,-100,4,2,8,70,0,1
88440,-100,4,2,4,70,0,1
88612,-100,4,2,2,70,0,1
88955,-100,4,2,8,70,0,1
89297,-100,4,2,4,70,0,1
89640,-100,4,2,8,70,0,1
89812,-100,4,2,4,70,0,1
89983,-100,4,2,2,70,0,1
90155,-100,4,2,7,70,0,1
90326,-100,4,2,3,70,0,1
90497,-100,4,2,8,70,0,1
90669,-100,4,2,4,70,0,1
91012,-100,4,2,8,70,0,1
91183,-100,4,2,4,70,0,1
91355,-100,4,2,2,70,0,1
91697,-100,4,2,8,70,0,1
92040,-100,4,2,4,70,0,1
92383,-100,4,2,8,70,0,1
92555,-100,4,2,4,70,0,1
92726,-100,4,2,2,70,0,1
92897,-100,4,2,7,70,0,1
93069,-100,4,2,3,70,0,1
93240,-100,4,2,8,70,0,1
93412,-100,4,2,4,70,0,1
93583,-100,4,2,9,70,0,1
93755,-100,4,2,4,70,0,1
93926,-100,4,2,3,70,0,1
94097,-100,4,2,2,70,0,1
94269,-100,4,2,1,70,0,1
94440,-100,4,2,7,70,0,1
94612,-100,4,2,2,70,0,1
94783,-100,4,2,3,70,0,1
94955,-100,4,2,8,70,0,1
95126,-100,4,2,3,70,0,1
95297,-100,4,2,2,70,0,1
95469,-100,4,2,4,70,0,1
95640,-100,4,2,9,70,0,1
95812,-100,4,2,4,70,0,1
95983,-100,4,2,2,70,0,1
96155,-100,4,2,8,70,0,1
96326,-100,4,2,11,70,0,1
96497,-100,4,2,8,70,0,1
96669,-100,4,2,4,70,0,1
96840,-100,4,2,3,70,0,1
97012,-100,4,2,7,70,0,1
97183,-100,4,2,2,70,0,1
97355,-100,4,2,3,70,0,1
97526,-100,4,2,4,70,0,1
97697,-100,4,2,11,70,0,1
97869,-100,4,2,4,70,0,1
98040,-100,4,2,2,70,0,1
98212,-100,4,2,1,70,0,1
98383,-100,4,2,7,50,0,1
98555,-100,4,2,2,30,0,0
98726,-100,4,2,3,20,0,0
98897,-100,4,2,99,20,0,0
99069,-100,4,2,99,25,0,0
99240,-100,4,2,99,30,0,0
99583,-133.333333333333,4,2,99,30,0,0
100269,-111.111111111111,4,2,99,30,0,0
101297,-100,4,2,99,5,0,0
101640,-100,4,2,99,30,0,0
103012,-133.333333333333,4,2,99,40,0,0
103526,-133.333333333333,4,2,99,15,0,0
103697,-105.263157894737,4,2,99,50,0,0
104212,-105.263157894737,4,2,99,15,0,0
104383,-95.2380952380952,4,2,99,50,0,0
104897,-95.2380952380952,4,2,99,5,0,0
105069,-80,4,2,99,50,0,0
105583,-80,4,2,99,5,0,0

[Colours]
Combo1 : 141,71,71
Combo2 : 72,164,255
Combo3 : 221,221,221
Combo4 : 0,174,174

[HitObjects]
196,208,155,5,2,0:0:0:0:
236,200,326,1,2,0:0:0:0:
276,192,497,1,2,0:0:0:0:
316,184,669,1,2,0:0:0:0:
176,197,840,5,2,0:0:0:0:
229,196,1011,1,2,0:0:0:0:
282,195,1182,1,2,0:0:0:0:
335,194,1355,1,2,0:0:0:0:
153,180,1526,5,2,0:0:0:0:
221,190,1697,1,2,0:0:0:0:
290,201,1868,1,2,0:0:0:0:
358,211,2040,1,2,0:0:0:0:
128,153,2212,5,2,0:0:0:0:
213,181,2383,1,2,0:0:0:0:
298,210,2554,1,2,0:0:0:0:
383,238,2726,1,2,0:0:0:0:
316,176,2897,5,2,0:0:0:0:
276,184,3068,1,2,0:0:0:0:
236,192,3239,1,2,0:0:0:0:
196,200,3411,1,2,0:0:0:0:
336,187,3582,5,2,0:0:0:0:
283,188,3755,1,2,0:0:0:0:
230,189,3926,1,2,0:0:0:0:
177,190,4096,1,2,0:0:0:0:
359,204,4268,5,2,0:0:0:0:
291,194,4439,1,2,0:0:0:0:
222,183,4612,1,2,0:0:0:0:
154,173,4782,1,2,0:0:0:0:
384,231,4954,5,2,0:0:0:0:
299,203,5125,1,2,0:0:0:0:
214,174,5296,1,2,0:0:0:0:
129,146,5468,1,2,0:0:0:0:
92,344,5640,5,2,0:0:0:0:
88,328,5812,1,2,0:0:0:0:
84,312,5983,1,2,0:0:0:0:
80,296,6155,1,2,0:0:0:0:
154,253,6326,5,2,0:0:0:0:
162,284,6498,1,2,0:0:0:0:
169,315,6669,1,2,0:0:0:0:
177,346,6841,1,2,0:0:0:0:
264,352,7012,5,2,0:0:0:0:
252,307,7184,1,2,0:0:0:0:
241,262,7355,1,2,0:0:0:0:
230,217,7527,1,2,0:0:0:0:
304,176,7697,5,2,0:0:0:0:
319,236,7869,1,2,0:0:0:0:
334,296,8040,1,2,0:0:0:0:
350,356,8212,1,2,0:0:0:0:
452,217,8383,5,2,0:0:0:0:
443,202,8555,1,2,0:0:0:0:
459,191,8726,1,2,0:0:0:0:
468,208,8897,1,2,0:0:0:0:
393,280,9069,5,2,0:0:0:0:
409,305,9241,1,2,0:0:0:0:
384,322,9412,1,2,0:0:0:0:
370,296,9583,1,2,0:0:0:0:
348,188,9755,5,2,0:0:0:0:
373,147,9927,1,2,0:0:0:0:
332,120,10098,1,2,0:0:0:0:
310,162,10269,1,2,0:0:0:0:
249,273,10441,5,2,0:0:0:0:
299,306,10613,1,2,0:0:0:0:
269,363,10784,1,2,0:0:0:0:
216,326,10955,1,2,0:0:0:0:
264,160,11126,5,2,0:0:0:0:
246,71,11298,1,2,0:0:0:0:
188,126,11469,1,2,0:0:0:0:
327,104,11641,1,2,0:0:0:0:
164,50,11812,5,2,0:0:0:0:
344,180,11984,1,2,0:0:0:0:
315,21,12155,1,2,0:0:0:0:
195,209,12326,1,2,0:0:0:0:
327,104,12498,5,2,0:0:0:0:
188,126,12669,1,2,0:0:0:0:
264,160,12841,1,2,0:0:0:0:
246,71,13012,1,2,0:0:0:0:
195,209,13184,5,2,0:0:0:0:
315,21,13355,1,2,0:0:0:0:
164,50,13526,1,2,0:0:0:0:
346,180,13698,1,2,0:0:0:0:
200,176,13869,5,2,0:0:0:0:
192,232,14040,1,2,0:0:0:0:
200,176,14212,1,2,0:0:0:0:
192,232,14383,1,2,0:0:0:0:
268,216,14555,5,2,0:0:0:0:
124,192,14726,1,2,0:0:0:0:
268,216,14897,1,2,0:0:0:0:
124,192,15069,1,2,0:0:0:0:
180,308,15240,5,2,0:0:0:0:
216,100,15412,1,2,0:0:0:0:
180,308,15583,1,2,0:0:0:0:
216,100,15755,1,2,0:0:0:0:
44,176,15926,5,2,0:0:0:0:
344,240,16097,1,2,0:0:0:0:
44,176,16269,1,2,0:0:0:0:
344,240,16440,1,2,0:0:0:0:
104,152,16612,5,2,0:0:0:0:
84,160,16783,1,2,0:0:0:0:
64,168,16955,1,2,0:0:0:0:
44,176,17126,1,2,0:0:0:0:
135,213,17297,5,2,0:0:0:0:
104,200,17468,1,2,0:0:0:0:
74,188,17640,1,2,0:0:0:0:
44,176,17811,1,2,0:0:0:0:
154,132,17983,5,2,0:0:0:0:
116,147,18154,1,2,0:0:0:0:
80,162,18326,1,2,0:0:0:0:
44,176,18497,1,2,0:0:0:0:
177,230,18669,5,2,0:0:0:0:
131,211,18840,1,2,0:0:0:0:
87,193,19012,1,2,0:0:0:0:
44,176,19183,1,2,0:0:0:0:
205,111,19355,5,2,0:0:0:0:
208,132,19526,1,2,0:0:0:0:
211,153,19698,1,2,0:0:0:0:
214,174,19869,1,2,0:0:0:0:
199,282,20040,5,2,0:0:0:0:
204,246,20211,1,2,0:0:0:0:
209,210,20383,1,2,0:0:0:0:
214,174,20554,1,2,0:0:0:0:
369,195,20726,5,2,0:0:0:0:
317,188,20897,1,2,0:0:0:0:
266,180,21069,1,2,0:0:0:0:
214,174,21240,1,2,0:0:0:0:
8,202,21412,5,2,0:0:0:0:
76,193,21583,1,2,0:0:0:0:
145,183,21755,1,2,0:0:0:0:
214,174,21926,1,2,0:0:0:0:
436,192,22097,5,2,0:0:0:0:
404,276,22269,1,2,0:0:0:0:
452,352,22440,1,2,0:0:0:0:
404,276,22612,1,2,0:0:0:0:
316,288,22783,5,2,0:0:0:0:
368,356,22955,1,2,0:0:0:0:
404,276,23126,1,2,0:0:0:0:
284,364,23297,1,2,0:0:0:0:
348,204,23469,5,2,0:0:0:0:
284,364,23640,1,2,0:0:0:0:
440,196,23812,1,2,0:0:0:0:
232,296,23983,1,2,0:0:0:0:
496,264,24155,5,2,0:0:0:0:
260,216,24326,1,2,0:0:0:0:
492,128,24497,1,2,0:0:0:0:
160,348,24669,1,2,0:0:0:0:
208,24,24840,5,2,0:0:0:0:
256,128,25012,1,2,0:0:0:0:
144,108,25183,1,2,0:0:0:0:
320,40,25355,1,2,0:0:0:0:
112,24,25526,5,2,0:0:0:0:
356,128,25697,1,2,0:0:0:0:
56,88,25869,1,2,0:0:0:0:
408,56,26040,1,2,0:0:0:0:
256,328,26212,5,2,0:0:0:0:
212,148,26383,1,2,0:0:0:0:
136,256,26555,1,2,0:0:0:0:
324,204,26726,1,2,0:0:0:0:
232,236,26897,5,2,0:0:0:0:
360,300,27069,1,2,0:0:0:0:
324,204,27240,1,2,0:0:0:0:
256,328,27412,1,2,0:0:0:0:
424,212,27583,5,2,0:0:0:0:
360,300,27755,1,2,0:0:0:0:
324,204,27926,1,2,0:0:0:0:
464,308,28097,1,2,0:0:0:0:
376,128,28269,5,2,0:0:0:0:
408,376,28440,1,2,0:0:0:0:
508,236,28612,1,2,0:0:0:0:
272,272,28783,1,2,0:0:0:0:
388,240,28955,5,2,0:0:0:0:
352,356,29126,1,2,0:0:0:0:
272,272,29297,1,2,0:0:0:0:
464,328,29469,1,2,0:0:0:0:
424,156,29640,5,2,0:0:0:0:
352,356,29812,1,2,0:0:0:0:
228,184,29983,1,2,0:0:0:0:
424,156,30155,1,2,0:0:0:0:
144,368,30326,5,2,0:0:0:0:
176,52,30497,1,2,0:0:0:0:
348,248,30669,1,2,0:0:0:0:
0,188,30840,1,2,0:0:0:0:
360,52,31012,5,2,0:0:0:0:
252,352,31183,1,2,0:0:0:0:
80,80,31355,1,2,0:0:0:0:
252,352,31526,1,2,0:0:0:0:
348,248,31697,5,2,0:0:0:0:
252,352,31869,1,2,0:0:0:0:
256,256,32040,1,2,0:0:0:0:
352,352,32212,1,2,0:0:0:0:
168,300,32383,5,2,0:0:0:0:
424,296,32555,1,2,0:0:0:0:
256,256,32726,1,2,0:0:0:0:
352,352,32897,1,2,0:0:0:0:
252,352,33069,5,2,0:0:0:0:
224,356,33240,1,2,0:0:0:0:
196,360,33412,1,2,0:0:0:0:
168,364,33583,1,2,0:0:0:0:
120,292,33755,5,2,0:0:0:0:
155,287,33926,1,2,0:0:0:0:
190,282,34098,1,2,0:0:0:0:
225,277,34269,1,2,0:0:0:0:
240,192,34440,5,2,0:0:0:0:
196,198,34611,1,2,0:0:0:0:
152,204,34783,1,2,0:0:0:0:
108,210,34954,1,2,0:0:0:0:
68,132,35126,5,2,0:0:0:0:
123,124,35297,1,2,0:0:0:0:
178,116,35469,1,2,0:0:0:0:
233,109,35640,1,2,0:0:0:0:
308,36,35812,5,2,0:0:0:0:
328,92,35983,1,2,0:0:0:0:
308,36,36155,1,2,0:0:0:0:
328,92,36326,1,2,0:0:0:0:
404,40,36497,5,2,0:0:0:0:
388,164,36669,1,2,0:0:0:0:
404,40,36840,1,2,0:0:0:0:
388,164,37012,1,2,0:0:0:0:
472,112,37183,5,2,0:0:0:0:
328,92,37355,1,2,0:0:0:0:
472,112,37526,1,2,0:0:0:0:
328,92,37697,1,2,0:0:0:0:
416,4,37869,5,2,0:0:0:0:
384,208,38040,1,2,0:0:0:0:
416,4,38212,1,2,0:0:0:0:
384,208,38383,1,2,0:0:0:0:
232,68,38555,5,2,0:0:0:0:
256,72,38726,1,2,0:0:0:0:
280,76,38897,1,2,0:0:0:0:
304,80,39069,1,2,0:0:0:0:
189,100,39240,5,2,0:0:0:0:
227,93,39411,1,2,0:0:0:0:
265,87,39582,1,2,0:0:0:0:
304,80,39754,1,2,0:0:0:0:
120,48,39926,5,2,0:0:0:0:
180,59,40097,1,2,0:0:0:0:
241,68,40268,1,2,0:0:0:0:
304,80,40440,1,2,0:0:0:0:
59,123,40612,5,2,0:0:0:0:
138,108,40783,1,2,0:0:0:0:
220,96,40954,1,2,0:0:0:0:
304,80,41126,1,2,0:0:0:0:
256,292,41297,5,2,0:0:0:0:
304,216,41469,1,2,0:0:0:0:
224,216,41640,1,2,0:0:0:0:
340,296,41812,1,2,0:0:0:0:
304,216,41983,5,2,0:0:0:0:
256,292,42155,1,2,0:0:0:0:
340,296,42326,1,2,0:0:0:0:
224,216,42498,1,2,0:0:0:0:
172,280,42669,5,2,0:0:0:0:
388,228,42840,1,2,0:0:0:0:
260,144,43011,1,2,0:0:0:0:
300,364,43183,1,2,0:0:0:0:
388,228,43355,5,2,0:0:0:0:
172,280,43526,1,2,0:0:0:0:
300,364,43697,1,2,0:0:0:0:
260,144,43869,1,2,0:0:0:0:
280,248,44040,5,2,0:0:0:0:
172,280,44212,1,2,0:0:0:0:
188,176,44383,1,2,0:0:0:0:
172,280,44555,1,2,0:0:0:0:
92,212,44726,5,2,0:0:0:0:
172,280,44897,1,2,0:0:0:0:
104,360,45069,1,2,0:0:0:0:
172,280,45240,1,2,0:0:0:0:
252,352,45412,5,2,0:0:0:0:
172,280,45583,1,2,0:0:0:0:
240,196,45755,1,2,0:0:0:0:
172,280,45926,1,2,0:0:0:0:
92,212,46097,5,2,0:0:0:0:
172,280,46269,1,2,0:0:0:0:
108,360,46440,1,2,0:0:0:0:
172,280,46612,1,2,0:0:0:0:
252,352,46783,5,2,0:0:0:0:
324,308,46955,1,2,0:0:0:0:
252,352,47126,1,2,0:0:0:0:
324,308,47297,1,2,0:0:0:0:
172,280,47469,5,2,0:0:0:0:
324,308,47640,1,2,0:0:0:0:
172,280,47812,1,2,0:0:0:0:
324,308,47983,1,2,0:0:0:0:
120,360,48155,5,2,0:0:0:0:
324,308,48326,1,2,0:0:0:0:
120,360,48497,1,2,0:0:0:0:
324,308,48669,1,2,0:0:0:0:
84,272,48840,5,2,0:0:0:0:
324,308,49012,1,2,0:0:0:0:
84,272,49183,1,2,0:0:0:0:
324,308,49355,1,2,0:0:0:0:
232,88,49526,5,2,0:0:0:0:
224,140,49697,1,2,0:0:0:0:
268,124,49869,1,2,0:0:0:0:
196,112,50040,1,2,0:0:0:0:
280,76,50212,5,2,0:0:0:0:
172,156,50383,1,2,0:0:0:0:
188,60,50555,1,2,0:0:0:0:
264,176,50726,1,2,0:0:0:0:
244,16,50897,5,2,0:0:0:0:
204,216,51069,1,2,0:0:0:0:
132,100,51240,1,2,0:0:0:0:
324,132,51412,1,2,0:0:0:0:
152,16,51583,5,2,0:0:0:0:
304,224,51755,1,2,0:0:0:0:
340,40,51926,1,2,0:0:0:0:
112,184,52097,1,2,0:0:0:0:
336,328,52269,5,2,0:0:0:0:
364,320,52440,1,2,0:0:0:0:
420,304,52612,1,2,0:0:0:0:
392,312,52783,1,2,0:0:0:0:
327,303,52955,5,2,0:0:0:0:
361,311,53126,1,2,0:0:0:0:
428,328,53298,1,2,0:0:0:0:
394,320,53469,1,2,0:0:0:0:
332,272,53640,5,2,0:0:0:0:
362,301,53811,1,2,0:0:0:0:
423,359,53983,1,2,0:0:0:0:
393,330,54154,1,2,0:0:0:0:
360,253,54326,5,2,0:0:0:0:
372,295,54497,1,2,0:0:0:0:
395,378,54669,1,2,0:0:0:0:
383,336,54840,1,2,0:0:0:0:
393,252,55012,5,2,0:0:0:0:
316,288,55183,1,2,0:0:0:0:
383,336,55355,1,2,0:0:0:0:
320,208,55526,1,2,0:0:0:0:
308,372,55697,5,2,0:0:0:0:
392,168,55869,1,2,0:0:0:0:
244,244,56040,1,2,0:0:0:0:
464,300,56212,1,2,0:0:0:0:
276,136,56383,5,2,0:0:0:0:
244,244,56555,1,2,0:0:0:0:
320,208,56726,1,2,0:0:0:0:
200,172,56897,1,2,0:0:0:0:
368,136,57069,5,2,0:0:0:0:
152,248,57240,1,2,0:0:0:0:
436,192,57412,1,2,0:0:0:0:
108,172,57583,1,2,0:0:0:0:
320,208,57755,5,2,0:0:0:0:
200,172,57926,1,2,0:0:0:0:
244,244,58097,1,2,0:0:0:0:
276,136,58269,1,2,0:0:0:0:
112,268,58440,5,2,0:0:0:0:
396,116,58612,1,2,0:0:0:0:
176,40,58783,1,2,0:0:0:0:
344,336,58955,1,2,0:0:0:0:
256,56,59126,5,2,0:0:0:0:
300,236,59297,1,2,0:0:0:0:
376,128,59469,1,2,0:0:0:0:
188,180,59640,1,2,0:0:0:0:
280,148,59811,5,2,0:0:0:0:
152,84,59983,1,2,0:0:0:0:
188,180,60154,1,2,0:0:0:0:
256,56,60326,1,2,0:0:0:0:
88,172,60497,5,2,0:0:0:0:
152,84,60669,1,2,0:0:0:0:
188,180,60840,1,2,0:0:0:0:
48,76,61011,1,2,0:0:0:0:
136,256,61183,5,2,0:0:0:0:
104,8,61354,1,2,0:0:0:0:
4,148,61526,1,2,0:0:0:0:
240,112,61697,1,2,0:0:0:0:
124,144,61869,5,2,0:0:0:0:
160,28,62040,1,2,0:0:0:0:
240,112,62211,1,2,0:0:0:0:
48,56,62383,1,2,0:0:0:0:
88,228,62554,5,2,0:0:0:0:
160,28,62726,1,2,0:0:0:0:
284,200,62897,1,2,0:0:0:0:
88,228,63069,1,2,0:0:0:0:
368,16,63240,5,2,0:0:0:0:
336,332,63411,1,2,0:0:0:0:
164,136,63583,1,2,0:0:0:0:
512,196,63754,1,2,0:0:0:0:
152,332,63926,5,2,0:0:0:0:
260,32,64097,1,2,0:0:0:0:
432,304,64269,1,2,0:0:0:0:
260,32,64440,1,2,0:0:0:0:
164,136,64611,5,2,0:0:0:0:
260,32,64783,1,2,0:0:0:0:
256,128,64954,1,2,0:0:0:0:
160,32,65126,1,2,0:0:0:0:
344,84,65297,5,2,0:0:0:0:
88,88,65469,1,2,0:0:0:0:
256,128,65640,1,2,0:0:0:0:
160,32,65811,1,2,0:0:0:0:
260,32,65983,5,2,0:0:0:0:
256,128,66155,1,2,0:0:0:0:
344,84,66326,1,2,0:0:0:0:
260,32,66497,1,2,0:0:0:0:
176,80,66669,5,2,0:0:0:0:
256,128,66840,1,2,0:0:0:0:
172,180,67012,1,2,0:0:0:0:
176,80,67183,1,2,0:0:0:0:
256,128,67355,5,2,0:0:0:0:
344,84,67526,1,2,0:0:0:0:
340,184,67697,1,2,0:0:0:0:
256,128,67869,1,2,0:0:0:0:
248,224,68040,5,2,0:0:0:0:
340,184,68212,1,2,0:0:0:0:
332,284,68383,1,2,0:0:0:0:
248,224,68555,1,2,0:0:0:0:
420,228,68726,5,2,0:0:0:0:
408,352,68897,1,2,0:0:0:0:
420,228,69069,1,2,0:0:0:0:
408,352,69240,1,2,0:0:0:0:
492,296,69412,5,2,0:0:0:0:
332,284,69583,1,2,0:0:0:0:
492,296,69755,1,2,0:0:0:0:
332,284,69926,1,2,0:0:0:0:
508,208,70097,5,2,0:0:0:0:
320,368,70269,1,2,0:0:0:0:
508,208,70440,1,2,0:0:0:0:
320,368,70612,1,2,0:0:0:0:
324,176,70783,5,2,0:0:0:0:
488,380,70955,1,2,0:0:0:0:
324,176,71126,1,2,0:0:0:0:
488,380,71297,1,2,0:0:0:0:
448,116,71469,5,2,0:0:0:0:
452,88,71640,1,2,0:0:0:0:
456,60,71812,1,2,0:0:0:0:
460,32,71983,1,2,0:0:0:0:
365,34,72155,5,2,0:0:0:0:
360,71,72326,1,2,0:0:0:0:
355,108,72498,1,2,0:0:0:0:
350,145,72669,1,2,0:0:0:0:
256,160,72840,5,2,0:0:0:0:
263,114,73011,1,2,0:0:0:0:
269,69,73183,1,2,0:0:0:0:
276,23,73354,1,2,0:0:0:0:
184,32,73526,5,2,0:0:0:0:
176,84,73697,1,2,0:0:0:0:
170,135,73869,1,2,0:0:0:0:
162,188,74040,1,2,0:0:0:0:
76,148,74212,5,2,0:0:0:0:
63,134,74383,1,2,0:0:0:0:
49,147,74555,1,2,0:0:0:0:
62,160,74726,1,2,0:0:0:0:
176,48,74897,5,2,0:0:0:0:
163,73,75069,1,2,0:0:0:0:
135,61,75240,1,2,0:0:0:0:
150,35,75411,1,2,0:0:0:0:
260,168,75583,5,2,0:0:0:0:
285,129,75755,1,2,0:0:0:0:
327,150,75926,1,2,0:0:0:0:
301,192,76097,1,2,0:0:0:0:
172,268,76269,5,2,0:0:0:0:
195,322,76441,1,2,0:0:0:0:
139,352,76612,1,2,0:0:0:0:
114,293,76783,1,2,0:0:0:0:
432,192,76955,5,2,0:0:0:0:
460,288,77297,5,2,0:0:0:0:
484,116,77469,1,2,0:0:0:0:
328,192,77640,1,2,0:0:0:0:
432,192,77983,5,2,0:0:0:0:
348,304,78326,1,2,0:0:0:0:
256,76,78669,5,2,0:0:0:0:
268,196,78840,1,2,0:0:0:0:
344,128,79012,5,2,0:0:0:0:
184,140,79183,1,2,0:0:0:0:
356,8,79355,5,2,0:0:0:0:
268,196,79526,1,2,0:0:0:0:
152,24,79697,5,2,0:0:0:0:
256,76,80040,5,2,0:0:0:0:
272,296,80212,1,2,0:0:0:0:
448,160,80383,1,2,0:0:0:0:
320,184,80726,5,2,0:0:0:0:
416,300,81069,1,2,0:0:0:0:
448,160,81412,5,2,0:0:0:0:
288,304,81583,1,2,0:0:0:0:
512,240,81755,5,2,0:0:0:0:
228,228,81926,1,2,0:0:0:0:
508,336,82097,5,2,0:0:0:0:
232,144,82269,1,2,0:0:0:0:
288,304,82440,5,2,0:0:0:0:
324,208,82612,1,2,0:0:0:0:
228,228,82783,1,2,0:0:0:0:
384,280,82955,1,2,0:0:0:0:
192,320,83126,5,2,0:0:0:0:
420,192,83297,1,2,0:0:0:0:
128,244,83469,1,2,0:0:0:0:
480,268,83640,1,2,0:0:0:0:
160,152,83812,5,2,0:0:0:0:
192,320,83983,1,2,0:0:0:0:
252,56,84155,1,2,0:0:0:0:
240,228,84326,1,2,0:0:0:0:
368,0,84497,5,2,0:0:0:0:
328,160,84669,1,2,0:0:0:0:
252,56,84840,1,2,0:0:0:0:
440,92,85012,1,2,0:0:0:0:
312,248,85183,5,2,0:0:0:0:
348,76,85355,1,2,0:0:0:0:
432,184,85526,1,2,0:0:0:0:
228,136,85697,1,2,0:0:0:0:
296,344,85869,5,2,0:0:0:0:
328,160,86040,1,2,0:0:0:0:
200,240,86212,1,2,0:0:0:0:
424,272,86383,1,2,0:0:0:0:
180,328,86555,5,2,0:0:0:0:
312,248,86726,1,2,0:0:0:0:
112,260,86897,1,2,0:0:0:0:
356,336,87069,1,2,0:0:0:0:
132,172,87240,5,10,0:0:0:0:
256,368,87412,1,10,0:0:0:0:
344,188,87583,1,10,0:0:0:0:
48,336,87755,1,10,0:0:0:0:
84,8,87926,5,6,0:0:0:0:
256,368,88269,5,2,0:0:0:0:
440,248,88440,1,2,0:0:0:0:
256,32,88612,1,2,0:0:0:0:
40,236,88955,5,2,0:0:0:0:
472,148,89297,1,6,0:0:0:0:
256,368,89640,5,2,0:0:0:0:
256,32,89812,1,2,0:0:0:0:
40,236,89983,5,2,0:0:0:0:
472,148,90155,1,2,0:0:0:0:
4,144,90326,5,2,0:0:0:0:
508,240,90497,1,2,0:0:0:0:
256,32,90669,5,6,0:0:0:0:
256,368,91012,5,2,0:0:0:0:
72,248,91183,1,2,0:0:0:0:
256,32,91355,1,2,0:0:0:0:
472,236,91698,5,2,0:0:0:0:
40,148,92040,1,6,0:0:0:0:
256,368,92383,5,2,0:0:0:0:
256,32,92555,1,2,0:0:0:0:
472,236,92726,5,2,0:0:0:0:
40,148,92898,1,2,0:0:0:0:
508,144,93069,5,2,0:0:0:0:
4,240,93240,1,2,0:0:0:0:
304,148,93412,5,2,0:0:0:0:
272,272,93583,1,2,0:0:0:0:
212,188,93755,1,2,0:0:0:0:
368,232,93926,1,2,0:0:0:0:
176,272,94097,5,2,0:0:0:0:
396,152,94269,1,2,0:0:0:0:
228,104,94440,1,2,0:0:0:0:
348,320,94612,1,2,0:0:0:0:
332,56,94783,5,2,0:0:0:0:
240,372,94955,1,2,0:0:0:0:
108,152,95126,1,2,0:0:0:0:
472,256,95297,1,2,0:0:0:0:
52,312,95469,5,2,0:0:0:0:
176,272,95640,1,2,0:0:0:0:
0,240,95812,1,2,0:0:0:0:
216,352,95983,1,2,0:0:0:0:
192,120,96155,5,2,0:0:0:0:
176,272,96326,1,2,0:0:0:0:
100,188,96497,1,2,0:0:0:0:
272,200,96669,1,2,0:0:0:0:
68,284,96840,5,2,0:0:0:0:
296,108,97012,1,2,0:0:0:0:
8,212,97183,1,2,0:0:0:0:
364,172,97355,1,2,0:0:0:0:
40,128,97526,5,2,0:0:0:0:
180,372,97697,1,2,0:0:0:0:
256,0,97869,5,2,0:0:0:0:
256,304,98040,1,2,0:0:0:0:
472,128,98212,5,10,0:0:0:0:
332,372,98383,1,10,0:0:0:0:
256,0,98555,5,10,0:0:0:0:
256,384,98726,1,10,0:0:0:0:
176,296,98897,5,2,0:0:0:0:
168,268,99069,1,2,0:0:0:0:
144,184,99240,1,2,0:0:0:0:
152,212,99412,1,2,0:0:0:0:
160,240,99583,6,0,P|158:185|128:236,1,142.500005435944,2|2,0:0|0:0,0:0:0:0:
100,300,100269,6,0,B|194:346|241:258|241:258|268:344|268:344|315:277|355:257|397:264|430:269|457:288|486:338,1,512.999984344483,2|0,0:0|0:0,0:0:0:0:
384,376,101640,5,2,0:0:0:0:
376,324,101812,1,2,0:0:0:0:
368,272,101983,1,2,0:0:0:0:
360,216,102155,1,2,0:0:0:0:
348,132,102326,5,2,0:0:0:0:
233,343,102669,1,2,0:0:0:0:
52,192,103012,6,0,B|168:192|168:192|272:156,1,213.750008153916,2|0,0:0|0:0,0:0:0:0:
344,72,103697,6,0,P|396:28|356:120,1,270.749992770195,2|0,0:0|0:0,0:0:0:0:
164,116,104383,6,0,B|103:152|103:152|36:192|36:192|176:276,1,299.249990867615,2|0,0:0|0:0,0:0:0:0:
424,192,105069,6,0,B|488:276|440:328|404:360|404:360|360:296|360:296|328:352|248:344,1,356.25,2|0,0:0|0:0,0:0:0:0:
