osu file format v14

[General]
AudioFilename: audio.mp3
AudioLeadIn: 0
PreviewTime: 87755
Countdown: 0
SampleSet: Soft
StackLeniency: 0.6
Mode: 0
LetterboxInBreaks: 0
WidescreenStoryboard: 0

[Editor]
DistanceSpacing: 1
BeatDivisor: 4
GridSize: 4
TimelineZoom: 1

[Metadata]
Title:Interlude
TitleUnicode:Interlude
Artist:Loki
ArtistUnicode:Loki
Creator:Chewin
Version:Insane
Source:
Tags:Tales of the Mountains featured artist symphony osu!
BeatmapID:1396072
BeatmapSetID:659093

[Difficulty]
HPDrainRate:6
CircleSize:4
OverallDifficulty:7
ApproachRate:9
SliderMultiplier:1.7
SliderTickRate:1

[Events]
//Background and Video events
0,0,"BG.png",0,0
//Break Periods
//Storyboard Layer 0 (Background)
//Storyboard Layer 1 (Fail)
//Storyboard Layer 2 (Pass)
//Storyboard Layer 3 (Foreground)
//Storyboard Sound Samples

[TimingPoints]
155,342.857142857143,4,2,1,50,1,0
326,-100,4,2,2,50,0,0
497,-100,4,2,3,50,0,0
669,-100,4,2,4,50,0,0
840,-100,4,2,1,50,0,0
1011,-100,4,2,2,50,0,0
1183,-100,4,2,3,50,0,0
1355,-100,4,2,4,50,0,0
1526,-100,4,2,1,50,0,0
1697,-100,4,2,2,50,0,0
1869,-100,4,2,3,50,0,0
2040,-100,4,2,4,50,0,0
2212,-100,4,2,1,50,0,0
2383,-100,4,2,2,50,0,0
2555,-100,4,2,3,50,0,0
2726,-100,4,2,4,50,0,0
2897,-100,4,2,5,50,0,0
3069,-100,4,2,2,50,0,0
3240,-100,4,2,3,50,0,0
3412,-100,4,2,4,50,0,0
3583,-100,4,2,5,50,0,0
3755,-100,4,2,2,50,0,0
3926,-100,4,2,3,50,0,0
4097,-100,4,2,4,50,0,0
4269,-100,4,2,5,50,0,0
4440,-100,4,2,2,50,0,0
4612,-100,4,2,3,50,0,0
4783,-100,4,2,4,50,0,0
4954,-100,4,2,6,50,0,0
5125,-100,4,2,7,50,0,0
5297,-100,4,2,2,50,0,0
5469,-100,4,2,3,50,0,0
5640,-100,4,2,1,50,0,0
5812,-100,4,2,2,50,0,0
5983,-100,4,2,3,50,0,0
6155,-100,4,2,4,50,0,0
6326,-100,4,2,1,50,0,0
6497,-100,4,2,2,50,0,0
6669,-100,4,2,3,50,0,0
6840,-100,4,2,4,50,0,0
7012,-100,4,2,1,50,0,0
7183,-100,4,2,2,50,0,0
7355,-100,4,2,3,50,0,0
7526,-100,4,2,4,50,0,0
7697,-100,4,2,1,50,0,0
7869,-100,4,2,2,50,0,0
8040,-100,4,2,3,50,0,0
8212,-100,4,2,4,50,0,0
8383,-100,4,2,7,50,0,0
8555,-100,4,2,4,50,0,0
8726,-100,4,2,8,50,0,0
8897,-100,4,2,9,50,0,0
9069,-100,4,2,7,50,0,0
9240,-100,4,2,4,50,0,0
9412,-100,4,2,8,50,0,0
9583,-100,4,2,9,50,0,0
9755,-100,4,2,1,50,0,0
9926,-100,4,2,3,50,0,0
10097,-100,4,2,4,50,0,0
10269,-100,4,2,10,50,0,0
10440,-100,4,2,1,50,0,0
10612,-100,4,2,2,50,0,0
10783,-100,4,2,3,50,0,0
10955,-100,4,2,10,50,0,0
11126,-100,4,2,1,50,0,0
11297,-100,4,2,2,50,0,0
11469,-100,4,2,3,50,0,0
11640,-100,4,2,4,50,0,0
11812,-100,4,2,1,50,0,0
11983,-100,4,2,2,50,0,0
12155,-100,4,2,3,50,0,0
12326,-100,4,2,4,50,0,0
12497,-100,4,2,1,50,0,0
12669,-100,4,2,2,50,0,0
12840,-100,4,2,3,50,0,0
13012,-100,4,2,4,50,0,0
13183,-100,4,2,1,50,0,0
13355,-100,4,2,2,50,0,0
13526,-100,4,2,3,50,0,0
13697,-100,4,2,4,50,0,0
13869,-100,4,2,5,50,0,0
14040,-100,4,2,2,50,0,0
14212,-100,4,2,3,50,0,0
14383,-100,4,2,4,50,0,0
14555,-100,4,2,5,50,0,0
14726,-100,4,2,2,50,0,0
14897,-100,4,2,3,50,0,0
15069,-100,4,2,4,50,0,0
15240,-100,4,2,5,50,0,0
15412,-100,4,2,2,50,0,0
15583,-100,4,2,3,50,0,0
15755,-100,4,2,4,50,0,0
15926,-100,4,2,6,50,0,0
16097,-100,4,2,7,50,0,0
16269,-100,4,2,2,50,0,0
16440,-100,4,2,3,50,0,0
16612,-100,4,2,1,50,0,0
16783,-100,4,2,2,50,0,0
16955,-100,4,2,3,50,0,0
17126,-100,4,2,4,50,0,0
17297,-100,4,2,1,50,0,0
17469,-100,4,2,2,50,0,0
17640,-100,4,2,3,50,0,0
17812,-100,4,2,4,50,0,0
17983,-100,4,2,1,50,0,0
18155,-100,4,2,2,50,0,0
18326,-100,4,2,3,50,0,0
18497,-100,4,2,4,50,0,0
18669,-100,4,2,1,50,0,0
18840,-100,4,2,2,50,0,0
19012,-100,4,2,3,50,0,0
19183,-100,4,2,4,50,0,0
19355,-100,4,2,7,50,0,0
19526,-100,4,2,4,50,0,0
19697,-100,4,2,8,50,0,0
19869,-100,4,2,9,50,0,0
20040,-100,4,2,7,50,0,0
20212,-100,4,2,4,50,0,0
20383,-100,4,2,8,50,0,0
20555,-100,4,2,9,50,0,0
20726,-100,4,2,1,50,0,0
20897,-100,4,2,3,50,0,0
21069,-100,4,2,4,50,0,0
21240,-100,4,2,10,50,0,0
21412,-100,4,2,1,50,0,0
21583,-100,4,2,2,50,0,0
21755,-100,4,2,3,50,0,0
21926,-100,4,2,10,50,0,0
22097,-100,4,2,4,50,0,0
22269,-100,4,2,9,50,0,0
22440,-100,4,2,4,50,0,0
22612,-100,4,2,2,50,0,0
22783,-100,4,2,3,50,0,0
22955,-100,4,2,4,50,0,0
23126,-100,4,2,8,50,0,0
23297,-100,4,2,11,50,0,0
23469,-100,4,2,4,50,0,0
23640,-100,4,2,11,50,0,0
23812,-100,4,2,4,50,0,0
23983,-100,4,2,3,50,0,0
24155,-100,4,2,1,50,0,0
24326,-100,4,2,2,50,0,0
24497,-100,4,2,7,50,0,0
24669,-100,4,2,1,50,0,0
24840,-100,4,2,5,50,0,0
25012,-100,4,2,2,50,0,0
25183,-100,4,2,5,50,0,0
25355,-100,4,2,6,50,0,0
25526,-100,4,2,12,50,0,0
25697,-100,4,2,6,50,0,0
25869,-100,4,2,5,50,0,0
26040,-100,4,2,7,50,0,0
26212,-100,4,2,1,50,0,0
26383,-100,4,2,2,50,0,0
26555,-100,4,2,3,50,0,0
26726,-100,4,2,4,50,0,0
26897,-100,4,2,11,50,0,0
27069,-100,4,2,4,50,0,0
27240,-100,4,2,3,50,0,0
27412,-100,4,2,2,50,0,0
27583,-100,4,2,4,50,0,0
27755,-100,4,2,9,50,0,0
27926,-100,4,2,4,50,0,0
28097,-100,4,2,2,50,0,0
28269,-100,4,2,3,50,0,0
28440,-100,4,2,4,50,0,0
28612,-100,4,2,8,50,0,0
28783,-100,4,2,11,50,0,0
28955,-100,4,2,4,50,0,0
29126,-100,4,2,11,50,0,0
29297,-100,4,2,4,50,0,0
29469,-100,4,2,3,50,0,0
29640,-100,4,2,1,50,0,0
29812,-100,4,2,2,50,0,0
29983,-100,4,2,7,50,0,0
30155,-100,4,2,1,50,0,0
30326,-100,4,2,5,50,0,0
30497,-100,4,2,2,50,0,0
30669,-100,4,2,5,50,0,0
30840,-100,4,2,6,50,0,0
31012,-100,4,2,12,50,0,0
31183,-100,4,2,6,50,0,0
31355,-100,4,2,5,50,0,0
31526,-100,4,2,7,50,0,0
31697,-100,4,2,1,50,0,0
31869,-100,4,2,2,50,0,0
32040,-100,4,2,3,50,0,0
32212,-100,4,2,4,50,0,0
32383,-100,4,2,11,50,0,0
32555,-100,4,2,13,50,0,0
32726,-100,4,2,14,50,0,0
32897,-100,4,2,15,50,0,0
33069,-100,4,2,1,50,0,0
33240,-100,4,2,2,50,0,0
33412,-100,4,2,3,50,0,0
33583,-100,4,2,4,50,0,0
33755,-100,4,2,1,50,0,0
33926,-100,4,2,2,50,0,0
34097,-100,4,2,3,50,0,0
34269,-100,4,2,4,50,0,0
34440,-100,4,2,1,50,0,0
34612,-100,4,2,2,50,0,0
34783,-100,4,2,3,50,0,0
34955,-100,4,2,4,50,0,0
35126,-100,4,2,1,50,0,0
35297,-100,4,2,2,50,0,0
35469,-100,4,2,3,50,0,0
35640,-100,4,2,4,50,0,0
35812,-100,4,2,5,50,0,0
35983,-100,4,2,2,50,0,0
36155,-100,4,2,3,50,0,0
36326,-100,4,2,4,50,0,0
36497,-100,4,2,5,50,0,0
36669,-100,4,2,2,50,0,0
36840,-100,4,2,3,50,0,0
37012,-100,4,2,4,50,0,0
37183,-100,4,2,5,50,0,0
37355,-100,4,2,2,50,0,0
37526,-100,4,2,3,50,0,0
37697,-100,4,2,4,50,0,0
37869,-100,4,2,6,50,0,0
38040,-100,4,2,7,50,0,0
38212,-100,4,2,2,50,0,0
38383,-100,4,2,3,50,0,0
38555,-100,4,2,1,50,0,0
38726,-100,4,2,2,50,0,0
38897,-100,4,2,3,50,0,0
39069,-100,4,2,4,50,0,0
39240,-100,4,2,1,50,0,0
39412,-100,4,2,2,50,0,0
39583,-100,4,2,3,50,0,0
39755,-100,4,2,4,50,0,0
39926,-100,4,2,1,50,0,0
40097,-100,4,2,2,50,0,0
40269,-100,4,2,3,50,0,0
40440,-100,4,2,4,50,0,0
40612,-100,4,2,1,50,0,0
40783,-100,4,2,2,50,0,0
40955,-100,4,2,3,50,0,0
41126,-100,4,2,4,50,0,0
41297,-100,4,2,7,50,0,0
41469,-100,4,2,4,50,0,0
41640,-100,4,2,8,50,0,0
41812,-100,4,2,9,50,0,0
41983,-100,4,2,7,50,0,0
42155,-100,4,2,4,50,0,0
42326,-100,4,2,8,50,0,0
42497,-100,4,2,9,50,0,0
42669,-100,4,2,1,50,0,0
42840,-100,4,2,3,50,0,0
43012,-100,4,2,4,50,0,0
43183,-100,4,2,10,50,0,0
43355,-100,4,2,1,50,0,0
43526,-100,4,2,2,50,0,0
43697,-100,4,2,3,50,0,0
43869,-100,4,2,10,50,0,0
44040,-100,4,2,1,50,0,0
44212,-100,4,2,2,50,0,0
44383,-100,4,2,3,50,0,0
44555,-100,4,2,4,50,0,0
44726,-100,4,2,1,50,0,0
44897,-100,4,2,2,50,0,0
45069,-100,4,2,3,50,0,0
45240,-100,4,2,4,50,0,0
45412,-100,4,2,1,50,0,0
45583,-100,4,2,2,50,0,0
45755,-100,4,2,3,50,0,0
45926,-100,4,2,4,50,0,0
46097,-100,4,2,1,50,0,0
46269,-100,4,2,2,50,0,0
46440,-100,4,2,3,50,0,0
46612,-100,4,2,4,50,0,0
46783,-100,4,2,5,50,0,0
46955,-100,4,2,2,50,0,0
47126,-100,4,2,3,50,0,0
47297,-100,4,2,4,50,0,0
47469,-100,4,2,5,50,0,0
47640,-100,4,2,2,50,0,0
47812,-100,4,2,3,50,0,0
47983,-100,4,2,4,50,0,0
48155,-100,4,2,5,50,0,0
48326,-100,4,2,2,50,0,0
48497,-100,4,2,3,50,0,0
48669,-100,4,2,4,50,0,0
48840,-100,4,2,6,50,0,0
49012,-100,4,2,7,50,0,0
49183,-100,4,2,2,50,0,0
49355,-100,4,2,3,50,0,0
49526,-100,4,2,1,50,0,0
49697,-100,4,2,2,50,0,0
49869,-100,4,2,3,50,0,0
50040,-100,4,2,4,50,0,0
50212,-100,4,2,1,50,0,0
50383,-100,4,2,2,50,0,0
50555,-100,4,2,3,50,0,0
50726,-100,4,2,4,50,0,0
50897,-100,4,2,1,50,0,0
51069,-100,4,2,2,50,0,0
51240,-100,4,2,3,50,0,0
51412,-100,4,2,4,50,0,0
51583,-100,4,2,1,50,0,0
51755,-100,4,2,2,50,0,0
51926,-100,4,2,3,50,0,0
52097,-100,4,2,4,50,0,0
52269,-100,4,2,7,50,0,0
52440,-100,4,2,4,50,0,0
52612,-100,4,2,8,50,0,0
52783,-100,4,2,9,50,0,0
52955,-100,4,2,7,50,0,0
53126,-100,4,2,4,50,0,0
53297,-100,4,2,8,50,0,0
53469,-100,4,2,9,50,0,0
53640,-100,4,2,1,50,0,0
53812,-100,4,2,3,50,0,0
53983,-100,4,2,4,50,0,0
54155,-100,4,2,10,50,0,0
54326,-100,4,2,1,50,0,0
54497,-100,4,2,2,50,0,0
54669,-100,4,2,3,50,0,0
54840,-100,4,2,10,50,0,0
55012,-100,4,2,4,50,0,0
55183,-100,4,2,9,50,0,0
55355,-100,4,2,4,50,0,0
55526,-100,4,2,2,50,0,0
55697,-100,4,2,3,50,0,0
55869,-100,4,2,4,50,0,0
56040,-100,4,2,8,50,0,0
56212,-100,4,2,11,50,0,0
56383,-100,4,2,4,50,0,0
56555,-100,4,2,11,50,0,0
56726,-100,4,2,4,50,0,0
56897,-100,4,2,3,50,0,0
57069,-100,4,2,1,50,0,0
57240,-100,4,2,2,50,0,0
57412,-100,4,2,7,50,0,0
57583,-100,4,2,1,50,0,0
57755,-100,4,2,5,50,0,0
57926,-100,4,2,2,50,0,0
58097,-100,4,2,5,50,0,0
58269,-100,4,2,6,50,0,0
58440,-100,4,2,12,50,0,0
58612,-100,4,2,6,50,0,0
58783,-100,4,2,5,50,0,0
58955,-100,4,2,7,50,0,0
59126,-100,4,2,1,50,0,0
59297,-100,4,2,2,50,0,0
59469,-100,4,2,3,50,0,0
59640,-100,4,2,4,50,0,0
59812,-100,4,2,11,50,0,0
59983,-100,4,2,4,50,0,0
60155,-100,4,2,3,50,0,0
60326,-100,4,2,2,50,0,0
60497,-100,4,2,4,50,0,0
60669,-100,4,2,9,50,0,0
60840,-100,4,2,4,50,0,0
61012,-100,4,2,2,50,0,0
61183,-100,4,2,3,50,0,0
61355,-100,4,2,4,50,0,0
61526,-100,4,2,8,50,0,0
61697,-100,4,2,11,50,0,0
61869,-100,4,2,4,50,0,0
62040,-100,4,2,11,50,0,0
62212,-100,4,2,4,50,0,0
62383,-100,4,2,3,50,0,0
62555,-100,4,2,1,50,0,0
62726,-100,4,2,2,50,0,0
62897,-100,4,2,7,50,0,0
63069,-100,4,2,1,50,0,0
63240,-100,4,2,5,50,0,0
63412,-100,4,2,2,50,0,0
63583,-100,4,2,5,50,0,0
63755,-100,4,2,6,50,0,0
63926,-100,4,2,12,50,0,0
64097,-100,4,2,6,50,0,0
64269,-100,4,2,5,50,0,0
64440,-100,4,2,7,50,0,0
64612,-100,4,2,1,50,0,0
64783,-100,4,2,2,50,0,0
64955,-100,4,2,3,50,0,0
65126,-100,4,2,4,50,0,0
65297,-100,4,2,11,50,0,0
65469,-100,4,2,13,50,0,0
65640,-100,4,2,14,50,0,0
65812,-100,4,2,15,50,0,0
65983,-100,4,2,1,50,0,0
66155,-100,4,2,2,50,0,0
66326,-100,4,2,3,50,0,0
66497,-100,4,2,4,50,0,0
66669,-100,4,2,1,50,0,0
66840,-100,4,2,2,50,0,0
67012,-100,4,2,3,50,0,0
67183,-100,4,2,4,50,0,0
67355,-100,4,2,1,50,0,0
67526,-100,4,2,2,50,0,0
67697,-100,4,2,3,50,0,0
67869,-100,4,2,4,50,0,0
68040,-100,4,2,1,50,0,0
68212,-100,4,2,2,50,0,0
68383,-100,4,2,3,50,0,0
68555,-100,4,2,4,50,0,0
68726,-100,4,2,5,50,0,0
68897,-100,4,2,2,50,0,0
69069,-100,4,2,3,50,0,0
69240,-100,4,2,4,50,0,0
69412,-100,4,2,5,50,0,0
69583,-100,4,2,2,50,0,0
69755,-100,4,2,3,50,0,0
69926,-100,4,2,4,50,0,0
70097,-100,4,2,5,50,0,0
70269,-100,4,2,2,50,0,0
70440,-100,4,2,3,50,0,0
70612,-100,4,2,4,50,0,0
70783,-100,4,2,6,50,0,0
70955,-100,4,2,7,50,0,0
71126,-100,4,2,2,50,0,0
71297,-100,4,2,3,50,0,0
71469,-100,4,2,1,50,0,0
71640,-100,4,2,2,50,0,0
71812,-100,4,2,3,50,0,0
71983,-100,4,2,4,50,0,0
72155,-100,4,2,1,50,0,0
72326,-100,4,2,2,50,0,0
72497,-100,4,2,3,50,0,0
72669,-100,4,2,4,50,0,0
72840,-100,4,2,1,50,0,0
73012,-100,4,2,2,50,0,0
73183,-100,4,2,3,50,0,0
73355,-100,4,2,4,50,0,0
73526,-100,4,2,1,50,0,0
73697,-100,4,2,2,50,0,0
73869,-100,4,2,3,50,0,0
74040,-100,4,2,4,50,0,0
74212,-100,4,2,7,50,0,0
74383,-100,4,2,4,50,0,0
74555,-100,4,2,8,50,0,0
74726,-100,4,2,9,50,0,0
74897,-100,4,2,7,50,0,0
75069,-100,4,2,4,50,0,0
75240,-100,4,2,8,50,0,0
75412,-100,4,2,9,50,0,0
75583,-100,4,2,1,50,0,0
75755,-100,4,2,3,50,0,0
75926,-100,4,2,4,50,0,0
76097,-100,4,2,10,50,0,0
76269,-100,4,2,1,50,0,0
76440,-100,4,2,2,50,0,0
76612,-100,4,2,3,50,0,0
76783,-100,4,2,10,50,0,0
76955,-100,4,2,4,70,0,1
77297,-100,4,2,8,70,0,1
77469,-100,4,2,4,70,0,1
77640,-100,4,2,2,70,0,1
77983,-100,4,2,8,70,0,1
78326,-100,4,2,4,70,0,1
78669,-100,4,2,8,70,0,1
78840,-100,4,2,4,70,0,1
79012,-100,4,2,2,70,0,1
79183,-100,4,2,7,70,0,1
79355,-100,4,2,3,70,0,1
79526,-100,4,2,8,70,0,1
79697,-100,4,2,4,70,0,1
80040,-100,4,2,8,70,0,1
80212,-100,4,2,4,70,0,1
80383,-100,4,2,2,70,0,1
80726,-100,4,2,8,70,0,1
81069,-100,4,2,4,70,0,1
81412,-100,4,2,8,70,0,1
81583,-100,4,2,4,70,0,1
81755,-100,4,2,2,70,0,1
81926,-100,4,2,7,70,0,1
82097,-100,4,2,3,70,0,1
82269,-100,4,2,8,70,0,1
82440,-100,4,2,4,70,0,1
82612,-100,4,2,9,70,0,1
82783,-100,4,2,4,70,0,1
82955,-100,4,2,3,70,0,1
83126,-100,4,2,2,70,0,1
83297,-100,4,2,1,70,0,1
83469,-100,4,2,7,70,0,1
83640,-100,4,2,2,70,0,1
83812,-100,4,2,3,70,0,1
83983,-100,4,2,8,70,0,1
84155,-100,4,2,3,70,0,1
84326,-100,4,2,2,70,0,1
84497,-100,4,2,4,70,0,1
84669,-100,4,2,9,70,0,1
84840,-100,4,2,4,70,0,1
85012,-100,4,2,2,70,0,1
85183,-100,4,2,8,70,0,1
85355,-100,4,2,11,70,0,1
85526,-100,4,2,8,70,0,1
85697,-100,4,2,4,70,0,1
85869,-100,4,2,3,70,0,1
86040,-100,4,2,7,70,0,1
86212,-100,4,2,2,70,0,1
86383,-100,4,2,3,70,0,1
86555,-100,4,2,4,70,0,1
86726,-100,4,2,11,70,0,1
86897,-100,4,2,4,70,0,1
87069,-100,4,2,2,70,0,1
87240,-100,4,2,1,70,0,1
87412,-100,4,2,7,70,0,1
87583,-100,4,2,2,70,0,1
87755,-100,4,2,3,70,0,0
87926,-100,4,2,4,70,0,1
88269,-100,4,2,8,70,0,1
88440,-100,4,2,4,70,0,1
88612,-100,4,2,2,70,0,1
88955,-100,4,2,8,70,0,1
89297,-100,4,2,4,70,0,1
89640,-100,4,2,8,70,0,1
89812,-100,4,2,4,70,0,1
89983,-100,4,2,2,70,0,1
90155,-100,4,2,7,70,0,1
90326,-100,4,2,3,70,0,1
90497,-100,4,2,8,70,0,1
90669,-100,4,2,4,70,0,1
91012,-100,4,2,8,70,0,1
91183,-100,4,2,4,70,0,1
91355,-100,4,2,2,70,0,1
91697,-100,4,2,8,70,0,1
92040,-100,4,2,4,70,0,1
92383,-100,4,2,8,70,0,1
92555,-100,4,2,4,70,0,1
92726,-100,4,2,2,70,0,1
92897,-100,4,2,7,70,0,1
93069,-100,4,2,3,70,0,1
93240,-100,4,2,8,70,0,1
93412,-100,4,2,4,70,0,1
93583,-100,4,2,9,70,0,1
93755,-100,4,2,4,70,0,1
93926,-100,4,2,3,70,0,1
94097,-100,4,2,2,70,0,1
94269,-100,4,2,1,70,0,1
94440,-100,4,2,7,70,0,1
94612,-100,4,2,2,70,0,1
94783,-100,4,2,3,70,0,1
94955,-100,4,2,8,70,0,1
95126,-100,4,2,3,70,0,1
95297,-100,4,2,2,70,0,1
95469,-100,4,2,4,70,0,1
95640,-100,4,2,9,70,0,1
95812,-100,4,2,4,70,0,1
95983,-100,4,2,2,70,0,1
96155,-100,4,2,8,70,0,1
96326,-100,4,2,11,70,0,1
96497,-100,4,2,8,70,0,1
96669,-100,4,2,4,70,0,1
96840,-100,4,2,3,70,0,1
97012,-100,4,2,7,70,0,1
97183,-100,4,2,2,70,0,1
97355,-100,4,2,3,70,0,1
97526,-100,4,2,4,70,0,1
97697,-100,4,2,11,70,0,1
97869,-100,4,2,4,70,0,1
98040,-100,4,2,2,70,0,1
98212,-100,4,2,1,70,0,1
98383,-100,4,2,7,50,0,1
98555,-100,4,2,2,30,0,0
98726,-100,4,2,3,20,0,0
98897,-133.333333333333,4,2,99,20,0,0
99069,-133.333333333333,4,2,99,25,0,0
99240,-133.333333333333,4,2,99,30,0,0
101297,-133.333333333333,4,2,99,5,0,0
101640,-133.333333333333,4,2,99,30,0,0
103012,-133.333333333333,4,2,99,40,0,0
103526,-133.333333333333,4,2,99,15,0,0
103697,-105.263157894737,4,2,99,50,0,0
104212,-105.263157894737,4,2,99,15,0,0
104383,-95.2380952380952,4,2,99,50,0,0
104897,-95.2380952380952,4,2,99,5,0,0
105069,-80,4,2,99,50,0,0
105583,-80,4,2,99,5,0,0

[Colours]
Combo1 : 141,71,71
Combo2 : 72,164,255
Combo3 : 221,221,221
Combo4 : 0,174,174

[HitObjects]
84,192,155,6,0,L|200:184,1,85,2|2,0:0|0:0,0:0:0:0:
156,102,497,2,0,L|168:186,1,85,2|2,0:0|0:0,0:0:0:0:
158,270,840,6,0,L|168:185,1,85,2|2,0:0|0:0,0:0:0:0:
253,193,1183,2,0,L|168:185,1,85,2|2,0:0|0:0,0:0:0:0:
72,304,1526,6,0,P|96:340|172:356,1,85,2|2,0:0|0:0,0:0:0:0:
78,223,1869,2,0,P|63:262|72:304,1,85,2|2,0:0|0:0,0:0:0:0:
242,264,2212,6,0,L|158:270,1,85,2|2,0:0|0:0,0:0:0:0:
326,273,2555,2,0,L|242:264,1,85,2|2,0:0|0:0,0:0:0:0:
456,136,2897,5,2,0:0:0:0:
456,136,3069,1,2,0:0:0:0:
404,224,3240,2,0,L|416:336,1,85,2|2,0:0|0:0,0:0:0:0:
360,144,3583,5,2,0:0:0:0:
360,144,3755,1,2,0:0:0:0:
308,232,3926,2,0,L|320:344,1,85,2|2,0:0|0:0,0:0:0:0:
260,152,4269,5,2,0:0:0:0:
260,152,4441,1,2,0:0:0:0:
208,240,4612,2,0,L|220:352,1,85,2|2,0:0|0:0,0:0:0:0:
128,80,4955,5,2,0:0:0:0:
84,168,5126,1,2,0:0:0:0:
44,92,5297,1,2,0:0:0:0:
172,156,5469,1,2,0:0:0:0:
74,252,5640,6,0,L|84:168,1,85,2|2,0:0|0:0,0:0:0:0:
120,328,5983,1,2,0:0:0:0:
120,328,6155,1,2,0:0:0:0:
184,192,6326,6,0,L|193:107,1,85,2|2,0:0|0:0,0:0:0:0:
229,267,6669,1,2,0:0:0:0:
229,267,6841,1,2,0:0:0:0:
300,136,7012,6,0,L|309:51,1,85,2|2,0:0|0:0,0:0:0:0:
345,211,7355,1,2,0:0:0:0:
345,211,7527,1,2,0:0:0:0:
420,84,7697,6,0,L|429:0,1,85,2|2,0:0|0:0,0:0:0:0:
465,159,8040,1,2,0:0:0:0:
465,159,8212,1,2,0:0:0:0:
345,211,8383,6,0,P|352:248|400:304,1,85,2|2,0:0|0:0,0:0:0:0:
447,245,8726,2,0,P|407:257|377:287,1,85,2|2,0:0|0:0,0:0:0:0:
297,305,9069,6,0,P|340:306|377:287,1,85,2|2,0:0|0:0,0:0:0:0:
412,358,9412,2,0,P|406:317|377:287,1,85,2|2,0:0|0:0,0:0:0:0:
238,361,9755,6,0,P|275:340|297:305,1,85,2|2,0:0|0:0,0:0:0:0:
245,147,10097,2,0,P|229:186|236:228,1,85,2|2,0:0|0:0,0:0:0:0:
408,216,10440,6,0,L|323:224,1,85,2|2,0:0|0:0,0:0:0:0:
128,320,10783,2,0,L|212:307,1,85,2|2,0:0|0:0,0:0:0:0:
440,204,11126,6,0,B|268:224|268:224|352:160,1,255,2|2,0:0|0:0,0:0:0:0:
336,92,11812,6,0,P|380:108|284:240,1,255,2|2,0:0|0:0,0:0:0:0:
283,347,12497,6,0,B|324:176|324:176|327:254,1,255,2|2,0:0|0:0,0:0:0:0:
400,289,13183,6,0,P|358:283|327:254,1,85,2|2,0:0|0:0,0:0:0:0:
301,98,13526,2,0,P|324:134|324:176,1,85,2|2,0:0|0:0,0:0:0:0:
64,220,13869,6,0,B|140:219|252:220|252:220|164:260,1,255,2|2,0:0|0:0,0:0:0:0:
156,332,14555,6,0,P|108:284|208:156,1,255,2|2,0:0|0:0,0:0:0:0:
191,247,15240,6,0,B|252:220|252:220|140:219|64:220,1,255,2|2,0:0|0:0,0:0:0:0:
75,301,15926,6,0,P|78:259|64:220,1,85,2|2,0:0|0:0,0:0:0:0:
24,64,16269,2,0,P|6:102|12:144,1,85,2|2,0:0|0:0,0:0:0:0:
276,100,16612,6,0,B|89:118|89:118|164:144,1,255,2|2,0:0|0:0,0:0:0:0:
220,184,17297,6,0,B|304:176|304:176|360:144|368:96|352:48|316:28|316:28,1,255,2|2,0:0|0:0,0:0:0:0:
276,100,17983,6,0,B|89:118|89:118|164:144,1,255,2|2,0:0|0:0,0:0:0:0:
167,222,18669,6,0,P|166:180|152:139,1,85,2|2,0:0|0:0,0:0:0:0:
48,240,19012,2,0,P|56:288|100:340,1,85,2|2,0:0|0:0,0:0:0:0:
328,300,19355,6,0,B|172:316|172:316|268:348,1,255,2|2,0:0|0:0,0:0:0:0:
344,376,20040,6,0,P|404:312|284:236,1,255,2|2,0:0|0:0,0:0:0:0:
328,300,20726,6,0,B|248:308|248:308|208:256|212:228|208:200|232:160|280:156,1,255,2|2,0:0|0:0,0:0:0:0:
299,227,21412,6,0,P|336:164|200:112,1,255,2|2,0:0|0:0,0:0:0:0:
188,192,22097,5,2,0:0:0:0:
208,104,22269,1,2,0:0:0:0:
228,288,22440,1,2,0:0:0:0:
124,136,22612,1,2,0:0:0:0:
160,360,22783,1,2,0:0:0:0:
276,164,22955,1,2,0:0:0:0:
128,272,23126,1,2,0:0:0:0:
256,368,23297,1,2,0:0:0:0:
221,203,23469,6,0,L|228:288,1,85,2|2,0:0|0:0,0:0:0:0:
403,280,23812,2,0,P|360:283|324:304,1,85,2|2,0:0|0:0,0:0:0:0:
109,368,24155,2,0,P|150:376|192:368,1,85,2|2,0:0|0:0,0:0:0:0:
221,203,24497,2,0,L|228:288,1,85,2|2,0:0|0:0,0:0:0:0:
276,120,24840,5,2,0:0:0:0:
228,288,25012,1,2,0:0:0:0:
212,48,25183,1,2,0:0:0:0:
221,203,25355,1,2,0:0:0:0:
304,32,25526,5,2,0:0:0:0:
228,288,25697,1,2,0:0:0:0:
136,120,25869,1,2,0:0:0:0:
392,172,26040,1,2,0:0:0:0:
212,180,26212,6,0,L|296:176,1,85,2|2,0:0|0:0,0:0:0:0:
476,128,26555,2,0,B|484:172|484:172|476:248,1,85,2|2,0:0|0:0,0:0:0:0:
344,344,26897,2,0,B|336:300|336:300|348:228,1,85,2|2,0:0|0:0,0:0:0:0:
388,87,27240,2,0,B|396:131|396:131|392:172,1,85,2|2,0:0|0:0,0:0:0:0:
296,176,27583,5,2,0:0:0:0:
392,172,27755,1,2,0:0:0:0:
264,92,27926,1,2,0:0:0:0:
342,260,28097,1,2,0:0:0:0:
328,28,28269,1,2,0:0:0:0:
280,328,28440,1,2,0:0:0:0:
408,76,28612,1,2,0:0:0:0:
208,280,28783,1,2,0:0:0:0:
392,172,28955,6,0,L|388:268,1,85,2|2,0:0|0:0,0:0:0:0:
280,328,29297,2,0,L|283:243,1,85,2|2,0:0|0:0,0:0:0:0:
496,185,29640,2,0,L|492:281,1,85,2|2,0:0|0:0,0:0:0:0:
384,340,29983,2,0,L|388:256,1,85,2|2,0:0|0:0,0:0:0:0:
468,88,30326,5,2,0:0:0:0:
392,172,30497,1,2,0:0:0:0:
360,72,30669,1,2,0:0:0:0:
496,184,30840,1,2,0:0:0:0:
424,8,31012,5,2,0:0:0:0:
432,264,31183,1,2,0:0:0:0:
240,136,31355,1,2,0:0:0:0:
424,8,31526,1,2,0:0:0:0:
409,180,31697,6,0,L|416:96,1,85,2|2,0:0|0:0,0:0:0:0:
344,256,32040,2,0,L|350:340,1,85,2|2,0:0|0:0,0:0:0:0:
320,172,32383,2,0,L|326:87,1,85,2|2,0:0|0:0,0:0:0:0:
254,247,32726,2,0,L|260:331,1,85,2|2,0:0|0:0,0:0:0:0:
228,152,33069,5,2,0:0:0:0:
254,247,33240,1,2,0:0:0:0:
320,172,33412,1,2,0:0:0:0:
228,152,33583,1,2,0:0:0:0:
254,247,33755,6,0,L|260:331,1,85,2|2,0:0|0:0,0:0:0:0:
160,280,34097,2,0,L|166:364,1,85,2|2,0:0|0:0,0:0:0:0:
176,184,34440,5,2,0:0:0:0:
160,280,34612,1,2,0:0:0:0:
254,247,34783,1,2,0:0:0:0:
176,184,34955,1,2,0:0:0:0:
160,280,35126,6,0,L|166:364,1,85,2|2,0:0|0:0,0:0:0:0:
254,247,35469,2,0,L|260:331,1,85,2|2,0:0|0:0,0:0:0:0:
296,152,35812,5,2,0:0:0:0:
254,247,35983,1,2,0:0:0:0:
212,168,36155,1,2,0:0:0:0:
344,232,36326,1,2,0:0:0:0:
240,88,36497,5,2,0:0:0:0:
254,247,36669,1,2,0:0:0:0:
380,152,36840,1,2,0:0:0:0:
240,88,37012,1,2,0:0:0:0:
254,247,37183,6,0,L|264:344,1,85,2|2,0:0|0:0,0:0:0:0:
176,276,37526,2,0,L|184:360,1,85,2|2,0:0|0:0,0:0:0:0:
240,88,37869,5,2,0:0:0:0:
262,331,38040,1,2,0:0:0:0:
468,196,38212,2,0,L|360:204,1,85,2|2,0:0|0:0,0:0:0:0:
262,331,38555,6,0,L|346:324,1,85,2|2,0:0|0:0,0:0:0:0:
200,256,38897,1,2,0:0:0:0:
200,256,39069,1,2,0:0:0:0:
88,332,39240,6,0,L|172:338,1,85,2|2,0:0|0:0,0:0:0:0:
26,257,39582,1,2,0:0:0:0:
26,257,39754,1,2,0:0:0:0:
116,160,39926,6,0,L|111:244,1,85,2|2,0:0|0:0,0:0:0:0:
64,84,40269,1,2,0:0:0:0:
64,84,40440,1,2,0:0:0:0:
241,98,40612,6,0,P|202:82|160:80,1,85,2|2,0:0|0:0,0:0:0:0:
33,168,40955,2,0,P|75:171|116:160,1,85,2|2,0:0|0:0,0:0:0:0:
296,28,41297,6,0,P|324:72|320:132,1,85,2|2,0:0|0:0,0:0:0:0:
228,252,41640,2,0,P|233:211|254:174,1,85,2|2,0:0|0:0,0:0:0:0:
425,194,41983,6,0,P|384:204|344:192,1,85,2|2,0:0|0:0,0:0:0:0:
162,66,42326,2,0,P|204:69|240:92,1,85,2|2,0:0|0:0,0:0:0:0:
259,258,42669,6,0,L|254:173,1,85,2|2,0:0|0:0,0:0:0:0:
84,140,43012,2,0,L|88:224,1,85,2|2,0:0|0:0,0:0:0:0:
348,336,43355,6,0,L|343:251,1,85,2|2,0:0|0:0,0:0:0:0:
172,217,43698,2,0,L|176:301,1,85,2|2,0:0|0:0,0:0:0:0:
442,306,44040,6,0,P|350:251|252:352,1,255,2|2,0:0|0:0,0:0:0:0:
348,336,44726,6,0,B|336:140|336:140|284:192,1,255,2|2,0:0|0:0,0:0:0:0:
257,106,45412,6,0,B|220:120|200:184|212:212|248:256|248:256|252:336,1,255,2|2,0:0|0:0,0:0:0:0:
167,332,46097,6,0,L|252:335,1,85,2|2,0:0|0:0,0:0:0:0:
378,177,46440,2,0,L|294:181,1,85,2|2,0:0|0:0,0:0:0:0:
364,280,46783,6,0,P|424:264|424:92,1,255,2|2,0:0|0:0,0:0:0:0:
378,177,47469,6,0,B|216:184|216:184|304:144,1,255,2|2,0:0|0:0,0:0:0:0:
369,99,48155,6,0,P|256:74|216:184,1,255,2|2,0:0|0:0,0:0:0:0:
234,265,48840,6,0,P|234:222|216:184,1,85,2|2,0:0|0:0,0:0:0:0:
112,56,49183,2,0,P|92:96|93:138,1,85,2|2,0:0|0:0,0:0:0:0:
156,296,49526,6,0,P|72:308|152:256,1,255,2|2,0:0|0:0,0:0:0:0:
234,265,50212,6,0,B|400:276|400:276|304:228,1,255,2|2,0:0|0:0,0:0:0:0:
248,176,50897,6,0,B|82:196|82:196|186:225,1,255,2|2,0:0|0:0,0:0:0:0:
173,304,51583,6,0,L|166:219,1,85,2|2,0:0|0:0,0:0:0:0:
87,111,51926,2,0,L|84:196,1,85,2|2,0:0|0:0,0:0:0:0:
184,116,52269,6,0,B|304:60|312:176|465:102,1,255,2|2,0:0|0:0,0:0:0:0:
380,48,52955,6,0,B|328:112|368:168|384:180|384:180|384:328,1,255,2|2,0:0|0:0,0:0:0:0:
468,312,53640,6,0,P|379:371|298:265,1,255,2|2,0:0|0:0,0:0:0:0:
324,192,54326,6,0,B|160:212|160:212|252:224,1,255,2|2,0:0|0:0,0:0:0:0:
324,192,55012,5,2,0:0:0:0:
304,104,55184,1,2,0:0:0:0:
284,288,55355,1,2,0:0:0:0:
388,136,55527,1,2,0:0:0:0:
352,360,55698,1,2,0:0:0:0:
236,164,55870,1,2,0:0:0:0:
384,272,56041,1,2,0:0:0:0:
256,368,56212,1,2,0:0:0:0:
291,203,56384,6,0,L|284:288,1,85,2|2,0:0|0:0,0:0:0:0:
109,280,56727,2,0,P|152:283|188:304,1,85,2|2,0:0|0:0,0:0:0:0:
403,368,57070,2,0,P|362:376|320:368,1,85,2|2,0:0|0:0,0:0:0:0:
291,203,57412,2,0,L|284:288,1,85,2|2,0:0|0:0,0:0:0:0:
236,120,57755,5,2,0:0:0:0:
284,288,57927,1,2,0:0:0:0:
300,48,58098,1,2,0:0:0:0:
291,203,58270,1,2,0:0:0:0:
208,32,58441,5,2,0:0:0:0:
284,288,58612,1,2,0:0:0:0:
376,120,58784,1,2,0:0:0:0:
120,172,58955,1,2,0:0:0:0:
300,180,59127,6,0,L|216:176,1,85,2|2,0:0|0:0,0:0:0:0:
36,128,59470,2,0,B|28:172|28:172|36:248,1,85,2|2,0:0|0:0,0:0:0:0:
168,344,59812,2,0,B|176:300|176:300|164:228,1,85,2|2,0:0|0:0,0:0:0:0:
124,87,60155,2,0,B|116:131|116:131|120:172,1,85,2|2,0:0|0:0,0:0:0:0:
216,176,60498,5,2,0:0:0:0:
120,172,60670,1,2,0:0:0:0:
248,92,60841,1,2,0:0:0:0:
170,260,61012,1,2,0:0:0:0:
184,28,61184,1,2,0:0:0:0:
232,328,61355,1,2,0:0:0:0:
104,76,61527,1,2,0:0:0:0:
304,280,61698,1,2,0:0:0:0:
120,172,61870,6,0,L|124:268,1,85,2|2,0:0|0:0,0:0:0:0:
232,328,62212,2,0,L|229:243,1,85,2|2,0:0|0:0,0:0:0:0:
16,185,62555,2,0,L|20:281,1,85,2|2,0:0|0:0,0:0:0:0:
128,340,62898,2,0,L|124:256,1,85,2|2,0:0|0:0,0:0:0:0:
44,88,63241,5,2,0:0:0:0:
120,172,63412,1,2,0:0:0:0:
152,72,63584,1,2,0:0:0:0:
16,184,63755,1,2,0:0:0:0:
88,8,63927,5,2,0:0:0:0:
80,264,64098,1,2,0:0:0:0:
272,136,64270,1,2,0:0:0:0:
88,8,64441,1,2,0:0:0:0:
103,180,64612,6,0,L|96:96,1,85,2|2,0:0|0:0,0:0:0:0:
168,256,64955,2,0,L|162:340,1,85,2|2,0:0|0:0,0:0:0:0:
192,172,65298,2,0,L|186:87,1,85,2|2,0:0|0:0,0:0:0:0:
258,247,65641,2,0,L|252:331,1,85,2|2,0:0|0:0,0:0:0:0:
280,160,65983,5,2,0:0:0:0:
192,172,66155,1,2,0:0:0:0:
280,160,66326,1,2,0:0:0:0:
192,172,66497,1,2,0:0:0:0:
258,247,66669,5,2,0:0:0:0:
280,160,66840,1,2,0:0:0:0:
258,247,67012,1,2,0:0:0:0:
280,160,67183,1,2,0:0:0:0:
192,172,67355,5,2,0:0:0:0:
258,247,67526,1,2,0:0:0:0:
192,172,67697,1,2,0:0:0:0:
258,247,67869,1,2,0:0:0:0:
280,160,68040,5,2,0:0:0:0:
258,247,68212,1,2,0:0:0:0:
280,160,68383,1,2,0:0:0:0:
258,247,68555,1,2,0:0:0:0:
192,172,68726,6,0,L|88:168,1,85,2|2,0:0|0:0,0:0:0:0:
56,252,69069,2,0,L|140:255,1,85,2|2,0:0|0:0,0:0:0:0:
200,160,69412,6,0,L|96:156,1,85,2|2,0:0|0:0,0:0:0:0:
48,264,69755,2,0,L|132:267,1,85,2|2,0:0|0:0,0:0:0:0:
208,148,70097,6,0,L|104:144,1,85,2|2,0:0|0:0,0:0:0:0:
40,276,70440,2,0,L|124:279,1,85,2|2,0:0|0:0,0:0:0:0:
256,72,70783,6,0,L|152:68,1,85,2|2,0:0|0:0,0:0:0:0:
0,352,71126,2,0,L|84:355,1,85,2|2,0:0|0:0,0:0:0:0:
256,192,71469,5,2,0:0:0:0:
248,284,71640,1,2,0:0:0:0:
176,228,71812,1,2,0:0:0:0:
168,320,71983,1,2,0:0:0:0:
260,284,72155,5,2,0:0:0:0:
176,216,72326,1,2,0:0:0:0:
168,332,72497,1,2,0:0:0:0:
260,284,72669,1,2,0:0:0:0:
256,192,72840,5,2,0:0:0:0:
264,284,73011,1,2,0:0:0:0:
336,228,73183,1,2,0:0:0:0:
344,320,73354,1,2,0:0:0:0:
252,284,73526,5,2,0:0:0:0:
336,216,73697,1,2,0:0:0:0:
344,332,73868,1,2,0:0:0:0:
252,284,74040,1,2,0:0:0:0:
256,192,74212,6,0,L|264:72,1,85,2|2,0:0|0:0,0:0:0:0:
112,32,74555,2,0,L|106:116,1,85,2|2,0:0|0:0,0:0:0:0:
172,232,74897,6,0,L|180:112,1,85,2|2,0:0|0:0,0:0:0:0:
28,72,75240,2,0,L|22:156,1,85,2|2,0:0|0:0,0:0:0:0:
88,272,75583,6,0,L|94:188,1,85,2|2,0:0|0:0,0:0:0:0:
243,263,75926,2,0,L|237:347,1,85,2|2,0:0|0:0,0:0:0:0:
172,232,76268,6,0,L|178:148,1,85,2|2,0:0|0:0,0:0:0:0:
327,223,76611,2,0,L|321:307,1,85,2|2,0:0|0:0,0:0:0:0:
256,93,76955,5,2,0:0:0:0:
256,93,77297,1,2,0:0:0:0:
256,240,77469,1,2,0:0:0:0:
144,168,77640,1,2,0:0:0:0:
144,168,77983,1,2,0:0:0:0:
144,168,78326,1,2,0:0:0:0:
256,336,78669,5,2,0:0:0:0:
292,256,78840,1,2,0:0:0:0:
208,268,79012,1,2,0:0:0:0:
340,328,79183,1,2,0:0:0:0:
172,340,79355,1,2,0:0:0:0:
372,252,79526,1,2,0:0:0:0:
196,120,79697,5,2,0:0:0:0:
196,120,80040,1,2,0:0:0:0:
252,256,80212,1,2,0:0:0:0:
336,136,80383,1,2,0:0:0:0:
336,136,80726,1,2,0:0:0:0:
336,136,81069,1,2,0:0:0:0:
256,336,81412,5,2,0:0:0:0:
220,256,81583,1,2,0:0:0:0:
304,268,81755,1,2,0:0:0:0:
172,328,81926,1,2,0:0:0:0:
340,340,82098,1,2,0:0:0:0:
140,252,82269,1,2,0:0:0:0:
316,120,82440,6,0,B|324:80|324:80|308:16,1,85,2|2,0:0|0:0,0:0:0:0:
198,37,82783,2,0,B|188:80|188:80|196:120,1,85,2|2,0:0|0:0,0:0:0:0:
316,288,83126,2,0,B|324:248|324:248|308:184,1,85,2|2,0:0|0:0,0:0:0:0:
198,205,83469,2,0,B|187:247|187:247|195:287,1,85,2|2,0:0|0:0,0:0:0:0:
256,104,83812,5,2,0:0:0:0:
256,104,83983,1,2,0:0:0:0:
195,287,84155,1,2,0:0:0:0:
195,287,84326,1,2,0:0:0:0:
64,144,84497,6,0,P|76:84|108:48,1,85,2|2,0:0|0:0,0:0:0:0:
254,260,84840,2,0,P|262:312|242:372,1,85,2|2,0:0|0:0,0:0:0:0:
152,136,85183,1,2,0:0:0:0:
152,136,85355,1,2,0:0:0:0:
176,304,85526,1,2,0:0:0:0:
176,304,85697,1,2,0:0:0:0:
304,192,85869,5,2,0:0:0:0:
256,272,86040,1,2,0:0:0:0:
220,192,86212,1,2,0:0:0:0:
344,272,86383,1,2,0:0:0:0:
252,112,86555,5,2,0:0:0:0:
256,272,86726,1,2,0:0:0:0:
340,188,86897,1,2,0:0:0:0:
172,196,87069,1,2,0:0:0:0:
384,196,87240,6,0,B|304:192|304:192|208:220|208:220|124:208,1,255,10|10,0:0|0:0,0:0:0:0:
48,28,87926,5,6,0:0:0:0:
112,328,88269,1,2,0:0:0:0:
133,209,88440,1,2,0:0:0:0:
228,288,88612,5,2,0:0:0:0:
52,192,88955,1,2,0:0:0:0:
316,96,89297,1,6,0:0:0:0:
256,368,89640,5,2,0:0:0:0:
236,248,89812,1,2,0:0:0:0:
328,296,89983,5,2,0:0:0:0:
160,320,90155,1,2,0:0:0:0:
344,384,90326,5,2,0:0:0:0:
136,240,90497,1,2,0:0:0:0:
336,40,90669,5,6,0:0:0:0:
256,276,91012,1,2,0:0:0:0:
228,156,91183,1,2,0:0:0:0:
136,240,91355,5,2,0:0:0:0:
384,192,91697,1,2,0:0:0:0:
80,64,92040,1,6,0:0:0:0:
256,368,92383,5,2,0:0:0:0:
296,248,92555,1,2,0:0:0:0:
180,276,92726,5,2,0:0:0:0:
368,336,92898,1,2,0:0:0:0:
148,372,93069,5,2,0:0:0:0:
404,240,93240,1,2,0:0:0:0:
176,40,93412,5,2,0:0:0:0:
196,144,93583,1,2,0:0:0:0:
260,80,93755,1,2,0:0:0:0:
116,104,93926,1,2,0:0:0:0:
220,224,94097,6,0,L|216:328,1,85,2|2,0:0|0:0,0:0:0:0:
120,352,94440,2,0,L|123:267,1,85,2|2,0:0|0:0,0:0:0:0:
300,148,94783,5,2,0:0:0:0:
220,224,94955,1,2,0:0:0:0:
180,76,95126,1,2,0:0:0:0:
220,224,95297,1,2,0:0:0:0:
276,48,95469,5,2,0:0:0:0:
276,48,95640,1,2,0:0:0:0:
300,148,95812,2,0,L|296:260,1,85,2|2,0:0|0:0,0:0:0:0:
180,76,96155,5,2,0:0:0:0:
180,76,96326,1,2,0:0:0:0:
204,176,96498,2,0,L|200:288,1,85,2|2,0:0|0:0,0:0:0:0:
112,144,96840,5,2,0:0:0:0:
196,344,97012,1,2,0:0:0:0:
256,96,97183,1,2,0:0:0:0:
196,344,97355,1,2,0:0:0:0:
204,176,97526,5,2,0:0:0:0:
204,176,97697,1,2,0:0:0:0:
260,264,97869,2,0,P|304:252|352:208,1,85,2|2,0:0|0:0,0:0:0:0:
432,28,98212,5,10,0:0:0:0:
335,229,98383,1,10,0:0:0:0:
272,76,98555,1,10,0:0:0:0:
496,176,98726,1,10,0:0:0:0:
436,264,98897,6,0,L|432:356,1,63.7500024318696,2|2,0:0|0:0,0:0:0:0:
352,372,99240,2,0,L|354:308,1,63.7500024318696,2|2,0:0|0:0,0:0:0:0:
336,228,99583,6,0,P|320:188|320:236,1,127.500004863739,2|2,0:0|0:0,0:0:0:0:
420,216,100269,6,0,P|392:144|232:272,1,382.500014591218,2|0,0:0|0:0,0:0:0:0:
230,269,101640,6,0,L|152:280,2,63.7500024318696,2|2|2,0:0|0:0|0:0,0:0:0:0:
320,208,102155,1,0,0:0:0:0:
320,316,102326,2,0,B|384:316|384:316|464:288,1,127.500004863739,2|2,0:0|0:0,0:0:0:0:
424,80,103012,6,0,B|292:80|292:80|216:116,1,191.250007295609,2|0,0:0|0:0,0:0:0:0:
248,200,103697,6,0,P|256:116|192:193,1,242.249993531227,2|0,0:0|0:0,0:0:0:0:
228,280,104383,6,0,P|163:361|165:257,1,267.749991828919,2|0,0:0|0:0,0:0:0:0:
256,180,105069,6,0,P|264:68|200:173,1,318.75,2|0,0:0|0:0,0:0:0:0:
