osu file format v14

[General]
AudioFilename: audio.mp3
AudioLeadIn: 0
PreviewTime: 87755
Countdown: 0
SampleSet: Soft
StackLeniency: 0.6
Mode: 0
LetterboxInBreaks: 0
WidescreenStoryboard: 1

[Editor]
DistanceSpacing: 0.8
BeatDivisor: 2
GridSize: 4
TimelineZoom: 1

[Metadata]
Title:Interlude
TitleUnicode:Interlude
Artist:Loki
ArtistUnicode:Loki
Creator:Chewin
Version:Easy
Source:
Tags:Tales of the Mountains featured artist symphony osu!
BeatmapID:1398812
BeatmapSetID:659093

[Difficulty]
HPDrainRate:2
CircleSize:3
OverallDifficulty:2
ApproachRate:3
SliderMultiplier:1
SliderTickRate:1

[Events]
//Background and Video events
0,0,"BG.png",0,0
//Break Periods
//Storyboard Layer 0 (Background)
//Storyboard Layer 1 (Fail)
//Storyboard Layer 2 (Pass)
//Storyboard Layer 3 (Foreground)
//Storyboard Sound Samples

[TimingPoints]
155,342.857142857143,4,2,1,50,1,0
326,-100,4,2,2,50,0,0
497,-100,4,2,3,50,0,0
669,-100,4,2,4,50,0,0
840,-100,4,2,1,50,0,0
1011,-100,4,2,2,50,0,0
1183,-100,4,2,3,50,0,0
1355,-100,4,2,4,50,0,0
1526,-100,4,2,1,50,0,0
1697,-100,4,2,2,50,0,0
1869,-100,4,2,3,50,0,0
2040,-100,4,2,4,50,0,0
2212,-100,4,2,1,50,0,0
2383,-100,4,2,2,50,0,0
2555,-100,4,2,3,50,0,0
2726,-100,4,2,4,50,0,0
2897,-100,4,2,5,50,0,0
3069,-100,4,2,2,50,0,0
3240,-100,4,2,3,50,0,0
3412,-100,4,2,4,50,0,0
3583,-100,4,2,5,50,0,0
3755,-100,4,2,2,50,0,0
3926,-100,4,2,3,50,0,0
4097,-100,4,2,4,50,0,0
4269,-100,4,2,5,50,0,0
4440,-100,4,2,2,50,0,0
4612,-100,4,2,3,50,0,0
4783,-100,4,2,4,50,0,0
4954,-100,4,2,6,50,0,0
5125,-100,4,2,7,50,0,0
5297,-100,4,2,2,50,0,0
5469,-100,4,2,3,50,0,0
5640,-100,4,2,1,50,0,0
5812,-100,4,2,2,50,0,0
5983,-100,4,2,3,50,0,0
6155,-100,4,2,4,50,0,0
6326,-100,4,2,1,50,0,0
6497,-100,4,2,2,50,0,0
6669,-100,4,2,3,50,0,0
6840,-100,4,2,4,50,0,0
7012,-100,4,2,1,50,0,0
7183,-100,4,2,2,50,0,0
7355,-100,4,2,3,50,0,0
7526,-100,4,2,4,50,0,0
7697,-100,4,2,1,50,0,0
7869,-100,4,2,2,50,0,0
8040,-100,4,2,3,50,0,0
8212,-100,4,2,4,50,0,0
8383,-100,4,2,7,50,0,0
8555,-100,4,2,4,50,0,0
8726,-100,4,2,8,50,0,0
8897,-100,4,2,9,50,0,0
9069,-100,4,2,7,50,0,0
9240,-100,4,2,4,50,0,0
9412,-100,4,2,8,50,0,0
9583,-100,4,2,9,50,0,0
9755,-100,4,2,1,50,0,0
9926,-100,4,2,3,50,0,0
10097,-100,4,2,4,50,0,0
10269,-100,4,2,10,50,0,0
10440,-100,4,2,1,50,0,0
10612,-100,4,2,2,50,0,0
10783,-100,4,2,3,50,0,0
10955,-100,4,2,10,50,0,0
11126,-100,4,2,1,50,0,0
11297,-100,4,2,2,50,0,0
11469,-100,4,2,3,50,0,0
11640,-100,4,2,4,50,0,0
11812,-100,4,2,1,50,0,0
11983,-100,4,2,2,50,0,0
12155,-100,4,2,3,50,0,0
12326,-100,4,2,4,50,0,0
12497,-100,4,2,1,50,0,0
12669,-100,4,2,2,50,0,0
12840,-100,4,2,3,50,0,0
13012,-100,4,2,4,50,0,0
13183,-100,4,2,1,50,0,0
13355,-100,4,2,2,50,0,0
13526,-100,4,2,3,50,0,0
13697,-100,4,2,4,50,0,0
13869,-100,4,2,5,50,0,0
14040,-100,4,2,2,50,0,0
14212,-100,4,2,3,50,0,0
14383,-100,4,2,4,50,0,0
14555,-100,4,2,5,50,0,0
14726,-100,4,2,2,50,0,0
14897,-100,4,2,3,50,0,0
15069,-100,4,2,4,50,0,0
15240,-100,4,2,5,50,0,0
15412,-100,4,2,2,50,0,0
15583,-100,4,2,3,50,0,0
15755,-100,4,2,4,50,0,0
15926,-100,4,2,6,50,0,0
16097,-100,4,2,7,50,0,0
16269,-100,4,2,2,50,0,0
16440,-100,4,2,3,50,0,0
16612,-100,4,2,1,50,0,0
16783,-100,4,2,2,50,0,0
16955,-100,4,2,3,50,0,0
17126,-100,4,2,4,50,0,0
17297,-100,4,2,1,50,0,0
17469,-100,4,2,2,50,0,0
17640,-100,4,2,3,50,0,0
17812,-100,4,2,4,50,0,0
17983,-100,4,2,1,50,0,0
18155,-100,4,2,2,50,0,0
18326,-100,4,2,3,50,0,0
18497,-100,4,2,4,50,0,0
18669,-100,4,2,1,50,0,0
18840,-100,4,2,2,50,0,0
19012,-100,4,2,3,50,0,0
19183,-100,4,2,4,50,0,0
19355,-100,4,2,7,50,0,0
19526,-100,4,2,4,50,0,0
19697,-100,4,2,8,50,0,0
19869,-100,4,2,9,50,0,0
20040,-100,4,2,7,50,0,0
20212,-100,4,2,4,50,0,0
20383,-100,4,2,8,50,0,0
20555,-100,4,2,9,50,0,0
20726,-100,4,2,1,50,0,0
20897,-100,4,2,3,50,0,0
21069,-100,4,2,4,50,0,0
21240,-100,4,2,10,50,0,0
21412,-100,4,2,1,50,0,0
21583,-100,4,2,2,50,0,0
21755,-100,4,2,3,50,0,0
21926,-100,4,2,10,50,0,0
22097,-100,4,2,4,50,0,0
22269,-100,4,2,9,50,0,0
22440,-100,4,2,4,50,0,0
22612,-100,4,2,2,50,0,0
22783,-100,4,2,3,50,0,0
22955,-100,4,2,4,50,0,0
23126,-100,4,2,8,50,0,0
23297,-100,4,2,11,50,0,0
23469,-100,4,2,4,50,0,0
23640,-100,4,2,11,50,0,0
23812,-100,4,2,4,50,0,0
23983,-100,4,2,3,50,0,0
24155,-100,4,2,1,50,0,0
24326,-100,4,2,2,50,0,0
24497,-100,4,2,7,50,0,0
24669,-100,4,2,1,50,0,0
24840,-100,4,2,5,50,0,0
25012,-100,4,2,2,50,0,0
25183,-100,4,2,5,50,0,0
25355,-100,4,2,6,50,0,0
25526,-100,4,2,12,50,0,0
25697,-100,4,2,6,50,0,0
25869,-100,4,2,5,50,0,0
26040,-100,4,2,7,50,0,0
26212,-100,4,2,1,50,0,0
26383,-100,4,2,2,50,0,0
26555,-100,4,2,3,50,0,0
26726,-100,4,2,4,50,0,0
26897,-100,4,2,11,50,0,0
27069,-100,4,2,4,50,0,0
27240,-100,4,2,3,50,0,0
27412,-100,4,2,2,50,0,0
27583,-100,4,2,4,50,0,0
27755,-100,4,2,9,50,0,0
27926,-100,4,2,4,50,0,0
28097,-100,4,2,2,50,0,0
28269,-100,4,2,3,50,0,0
28440,-100,4,2,4,50,0,0
28612,-100,4,2,8,50,0,0
28783,-100,4,2,11,50,0,0
28955,-100,4,2,4,50,0,0
29126,-100,4,2,11,50,0,0
29297,-100,4,2,4,50,0,0
29469,-100,4,2,3,50,0,0
29640,-100,4,2,1,50,0,0
29812,-100,4,2,2,50,0,0
29983,-100,4,2,7,50,0,0
30155,-100,4,2,1,50,0,0
30326,-100,4,2,5,50,0,0
30497,-100,4,2,2,50,0,0
30669,-100,4,2,5,50,0,0
30840,-100,4,2,6,50,0,0
31012,-100,4,2,12,50,0,0
31183,-100,4,2,6,50,0,0
31355,-100,4,2,5,50,0,0
31526,-100,4,2,7,50,0,0
31697,-100,4,2,1,50,0,0
31869,-100,4,2,2,50,0,0
32040,-100,4,2,3,50,0,0
32212,-100,4,2,4,50,0,0
32383,-100,4,2,11,50,0,0
32555,-100,4,2,13,50,0,0
32726,-100,4,2,14,50,0,0
32897,-100,4,2,15,50,0,0
33069,-100,4,2,1,50,0,0
33240,-100,4,2,2,50,0,0
33412,-100,4,2,3,50,0,0
33583,-100,4,2,4,50,0,0
33755,-100,4,2,1,50,0,0
33926,-100,4,2,2,50,0,0
34097,-100,4,2,3,50,0,0
34269,-100,4,2,4,50,0,0
34440,-100,4,2,1,50,0,0
34612,-100,4,2,2,50,0,0
34783,-100,4,2,3,50,0,0
34955,-100,4,2,4,50,0,0
35126,-100,4,2,1,50,0,0
35297,-100,4,2,2,50,0,0
35469,-100,4,2,3,50,0,0
35640,-100,4,2,4,50,0,0
35812,-100,4,2,5,50,0,0
35983,-100,4,2,2,50,0,0
36155,-100,4,2,3,50,0,0
36326,-100,4,2,4,50,0,0
36497,-100,4,2,5,50,0,0
36669,-100,4,2,2,50,0,0
36840,-100,4,2,3,50,0,0
37012,-100,4,2,4,50,0,0
37183,-100,4,2,5,50,0,0
37355,-100,4,2,2,50,0,0
37526,-100,4,2,3,50,0,0
37697,-100,4,2,4,50,0,0
37869,-100,4,2,6,50,0,0
38040,-100,4,2,7,50,0,0
38212,-100,4,2,2,50,0,0
38383,-100,4,2,3,50,0,0
38555,-100,4,2,1,50,0,0
38726,-100,4,2,2,50,0,0
38897,-100,4,2,3,50,0,0
39069,-100,4,2,4,50,0,0
39240,-100,4,2,1,50,0,0
39412,-100,4,2,2,50,0,0
39583,-100,4,2,3,50,0,0
39755,-100,4,2,4,50,0,0
39926,-100,4,2,1,50,0,0
40097,-100,4,2,2,50,0,0
40269,-100,4,2,3,50,0,0
40440,-100,4,2,4,50,0,0
40612,-100,4,2,1,50,0,0
40783,-100,4,2,2,50,0,0
40955,-100,4,2,3,50,0,0
41126,-100,4,2,4,50,0,0
41297,-100,4,2,7,50,0,0
41469,-100,4,2,4,50,0,0
41640,-100,4,2,8,50,0,0
41812,-100,4,2,9,50,0,0
41983,-100,4,2,7,50,0,0
42155,-100,4,2,4,50,0,0
42326,-100,4,2,8,50,0,0
42497,-100,4,2,9,50,0,0
42669,-100,4,2,1,50,0,0
42840,-100,4,2,3,50,0,0
43012,-100,4,2,4,50,0,0
43183,-100,4,2,10,50,0,0
43355,-100,4,2,1,50,0,0
43526,-100,4,2,2,50,0,0
43697,-100,4,2,3,50,0,0
43869,-100,4,2,10,50,0,0
44040,-100,4,2,1,50,0,0
44212,-100,4,2,2,50,0,0
44383,-100,4,2,3,50,0,0
44555,-100,4,2,4,50,0,0
44726,-100,4,2,1,50,0,0
44897,-100,4,2,2,50,0,0
45069,-100,4,2,3,50,0,0
45240,-100,4,2,4,50,0,0
45412,-100,4,2,1,50,0,0
45583,-100,4,2,2,50,0,0
45755,-100,4,2,3,50,0,0
45926,-100,4,2,4,50,0,0
46097,-100,4,2,1,50,0,0
46269,-100,4,2,2,50,0,0
46440,-100,4,2,3,50,0,0
46612,-100,4,2,4,50,0,0
46783,-100,4,2,5,50,0,0
46955,-100,4,2,2,50,0,0
47126,-100,4,2,3,50,0,0
47297,-100,4,2,4,50,0,0
47469,-100,4,2,5,50,0,0
47640,-100,4,2,2,50,0,0
47812,-100,4,2,3,50,0,0
47983,-100,4,2,4,50,0,0
48155,-100,4,2,5,50,0,0
48326,-100,4,2,2,50,0,0
48497,-100,4,2,3,50,0,0
48669,-100,4,2,4,50,0,0
48840,-100,4,2,6,50,0,0
49012,-100,4,2,7,50,0,0
49183,-100,4,2,2,50,0,0
49355,-100,4,2,3,50,0,0
49526,-100,4,2,1,50,0,0
49697,-100,4,2,2,50,0,0
49869,-100,4,2,3,50,0,0
50040,-100,4,2,4,50,0,0
50212,-100,4,2,1,50,0,0
50383,-100,4,2,2,50,0,0
50555,-100,4,2,3,50,0,0
50726,-100,4,2,4,50,0,0
50897,-100,4,2,1,50,0,0
51069,-100,4,2,2,50,0,0
51240,-100,4,2,3,50,0,0
51412,-100,4,2,4,50,0,0
51583,-100,4,2,1,50,0,0
51755,-100,4,2,2,50,0,0
51926,-100,4,2,3,50,0,0
52097,-100,4,2,4,50,0,0
52269,-100,4,2,7,50,0,0
52440,-100,4,2,4,50,0,0
52612,-100,4,2,8,50,0,0
52783,-100,4,2,9,50,0,0
52955,-100,4,2,7,50,0,0
53126,-100,4,2,4,50,0,0
53297,-100,4,2,8,50,0,0
53469,-100,4,2,9,50,0,0
53640,-100,4,2,1,50,0,0
53812,-100,4,2,3,50,0,0
53983,-100,4,2,4,50,0,0
54155,-100,4,2,10,50,0,0
54326,-100,4,2,1,50,0,0
54497,-100,4,2,2,50,0,0
54669,-100,4,2,3,50,0,0
54840,-100,4,2,10,50,0,0
55012,-100,4,2,4,50,0,0
55183,-100,4,2,9,50,0,0
55355,-100,4,2,4,50,0,0
55526,-100,4,2,2,50,0,0
55697,-100,4,2,3,50,0,0
55869,-100,4,2,4,50,0,0
56040,-100,4,2,8,50,0,0
56212,-100,4,2,11,50,0,0
56383,-100,4,2,4,50,0,0
56555,-100,4,2,11,50,0,0
56726,-100,4,2,4,50,0,0
56897,-100,4,2,3,50,0,0
57069,-100,4,2,1,50,0,0
57240,-100,4,2,2,50,0,0
57412,-100,4,2,7,50,0,0
57583,-100,4,2,1,50,0,0
57755,-100,4,2,5,50,0,0
57926,-100,4,2,2,50,0,0
58097,-100,4,2,5,50,0,0
58269,-100,4,2,6,50,0,0
58440,-100,4,2,12,50,0,0
58612,-100,4,2,6,50,0,0
58783,-100,4,2,5,50,0,0
58955,-100,4,2,7,50,0,0
59126,-100,4,2,1,50,0,0
59297,-100,4,2,2,50,0,0
59469,-100,4,2,3,50,0,0
59640,-100,4,2,4,50,0,0
59812,-100,4,2,11,50,0,0
59983,-100,4,2,4,50,0,0
60155,-100,4,2,3,50,0,0
60326,-100,4,2,2,50,0,0
60497,-100,4,2,4,50,0,0
60669,-100,4,2,9,50,0,0
60840,-100,4,2,4,50,0,0
61012,-100,4,2,2,50,0,0
61183,-100,4,2,3,50,0,0
61355,-100,4,2,4,50,0,0
61526,-100,4,2,8,50,0,0
61697,-100,4,2,11,50,0,0
61869,-100,4,2,4,50,0,0
62040,-100,4,2,11,50,0,0
62212,-100,4,2,4,50,0,0
62383,-100,4,2,3,50,0,0
62555,-100,4,2,1,50,0,0
62726,-100,4,2,2,50,0,0
62897,-100,4,2,7,50,0,0
63069,-100,4,2,1,50,0,0
63240,-100,4,2,5,50,0,0
63412,-100,4,2,2,50,0,0
63583,-100,4,2,5,50,0,0
63755,-100,4,2,6,50,0,0
63926,-100,4,2,12,50,0,0
64097,-100,4,2,6,50,0,0
64269,-100,4,2,5,50,0,0
64440,-100,4,2,7,50,0,0
64612,-100,4,2,1,50,0,0
64783,-100,4,2,2,50,0,0
64955,-100,4,2,3,50,0,0
65126,-100,4,2,4,50,0,0
65297,-100,4,2,11,50,0,0
65469,-100,4,2,13,50,0,0
65640,-100,4,2,14,50,0,0
65812,-100,4,2,15,50,0,0
65983,-100,4,2,1,50,0,0
66155,-100,4,2,2,50,0,0
66326,-100,4,2,3,50,0,0
66497,-100,4,2,4,50,0,0
66669,-100,4,2,1,50,0,0
66840,-100,4,2,2,50,0,0
67012,-100,4,2,3,50,0,0
67183,-100,4,2,4,50,0,0
67355,-100,4,2,1,50,0,0
67526,-100,4,2,2,50,0,0
67697,-100,4,2,3,50,0,0
67869,-100,4,2,4,50,0,0
68040,-100,4,2,1,50,0,0
68212,-100,4,2,2,50,0,0
68383,-100,4,2,3,50,0,0
68555,-100,4,2,4,50,0,0
68726,-100,4,2,5,50,0,0
68897,-100,4,2,2,50,0,0
69069,-100,4,2,3,50,0,0
69240,-100,4,2,4,50,0,0
69412,-100,4,2,5,50,0,0
69583,-100,4,2,2,50,0,0
69755,-100,4,2,3,50,0,0
69926,-100,4,2,4,50,0,0
70097,-100,4,2,5,50,0,0
70269,-100,4,2,2,50,0,0
70440,-100,4,2,3,50,0,0
70612,-100,4,2,4,50,0,0
70783,-100,4,2,6,50,0,0
70955,-100,4,2,7,50,0,0
71126,-100,4,2,2,50,0,0
71297,-100,4,2,3,50,0,0
71469,-100,4,2,1,50,0,0
71640,-100,4,2,2,50,0,0
71812,-100,4,2,3,50,0,0
71983,-100,4,2,4,50,0,0
72155,-100,4,2,1,50,0,0
72326,-100,4,2,2,50,0,0
72497,-100,4,2,3,50,0,0
72669,-100,4,2,4,50,0,0
72840,-100,4,2,1,50,0,0
73012,-100,4,2,2,50,0,0
73183,-100,4,2,3,50,0,0
73355,-100,4,2,4,50,0,0
73526,-100,4,2,1,50,0,0
73697,-100,4,2,2,50,0,0
73869,-100,4,2,3,50,0,0
74040,-100,4,2,4,50,0,0
74212,-100,4,2,7,50,0,0
74383,-100,4,2,4,50,0,0
74555,-100,4,2,8,50,0,0
74726,-100,4,2,9,50,0,0
74897,-100,4,2,7,50,0,0
75069,-100,4,2,4,50,0,0
75240,-100,4,2,8,50,0,0
75412,-100,4,2,9,50,0,0
75583,-100,4,2,1,50,0,0
75755,-100,4,2,3,50,0,0
75926,-100,4,2,4,50,0,0
76097,-100,4,2,10,50,0,0
76269,-100,4,2,1,50,0,0
76440,-100,4,2,2,50,0,0
76612,-100,4,2,3,50,0,0
76783,-100,4,2,10,50,0,0
76955,-100,4,2,4,70,0,1
77297,-100,4,2,8,70,0,1
77469,-100,4,2,4,70,0,1
77640,-100,4,2,2,70,0,1
77983,-100,4,2,8,70,0,1
78326,-100,4,2,4,70,0,1
78669,-100,4,2,8,70,0,1
78840,-100,4,2,4,70,0,1
79012,-100,4,2,2,70,0,1
79183,-100,4,2,7,70,0,1
79355,-100,4,2,3,70,0,1
79526,-100,4,2,8,70,0,1
79697,-100,4,2,4,70,0,1
80040,-100,4,2,8,70,0,1
80212,-100,4,2,4,70,0,1
80383,-100,4,2,2,70,0,1
80726,-100,4,2,8,70,0,1
81069,-100,4,2,4,70,0,1
81412,-100,4,2,8,70,0,1
81583,-100,4,2,4,70,0,1
81755,-100,4,2,2,70,0,1
81926,-100,4,2,7,70,0,1
82097,-100,4,2,3,70,0,1
82269,-100,4,2,8,70,0,1
82440,-100,4,2,4,70,0,1
82612,-100,4,2,9,70,0,1
82783,-100,4,2,4,70,0,1
82955,-100,4,2,3,70,0,1
83126,-100,4,2,2,70,0,1
83297,-100,4,2,1,70,0,1
83469,-100,4,2,7,70,0,1
83640,-100,4,2,2,70,0,1
83812,-100,4,2,3,70,0,1
83983,-100,4,2,8,70,0,1
84155,-100,4,2,3,70,0,1
84326,-100,4,2,2,70,0,1
84497,-100,4,2,4,70,0,1
84669,-100,4,2,9,70,0,1
84840,-100,4,2,4,70,0,1
85012,-100,4,2,2,70,0,1
85183,-100,4,2,8,70,0,1
85355,-100,4,2,11,70,0,1
85526,-100,4,2,8,70,0,1
85697,-100,4,2,4,70,0,1
85869,-100,4,2,3,70,0,1
86040,-100,4,2,7,70,0,1
86212,-100,4,2,2,70,0,1
86383,-100,4,2,3,70,0,1
86555,-100,4,2,4,70,0,1
86726,-100,4,2,11,70,0,1
86897,-100,4,2,4,70,0,1
87069,-100,4,2,2,70,0,1
87240,-100,4,2,1,70,0,1
87412,-100,4,2,7,70,0,1
87583,-100,4,2,2,70,0,1
87755,-100,4,2,3,70,0,0
87926,-100,4,2,4,70,0,1
88269,-100,4,2,8,70,0,1
88440,-100,4,2,4,70,0,1
88612,-100,4,2,2,70,0,1
88955,-100,4,2,8,70,0,1
89297,-100,4,2,4,70,0,1
89640,-100,4,2,8,70,0,1
89812,-100,4,2,4,70,0,1
89983,-100,4,2,2,70,0,1
90155,-100,4,2,7,70,0,1
90326,-100,4,2,3,70,0,1
90497,-100,4,2,8,70,0,1
90669,-100,4,2,4,70,0,1
91012,-100,4,2,8,70,0,1
91183,-100,4,2,4,70,0,1
91355,-100,4,2,2,70,0,1
91697,-100,4,2,8,70,0,1
92040,-100,4,2,4,70,0,1
92383,-100,4,2,8,70,0,1
92555,-100,4,2,4,70,0,1
92726,-100,4,2,2,70,0,1
92897,-100,4,2,7,70,0,1
93069,-100,4,2,3,70,0,1
93240,-100,4,2,8,70,0,1
93412,-100,4,2,4,70,0,1
93583,-100,4,2,9,70,0,1
93755,-100,4,2,4,70,0,1
93926,-100,4,2,3,70,0,1
94097,-100,4,2,2,70,0,1
94269,-100,4,2,1,70,0,1
94440,-100,4,2,7,70,0,1
94612,-100,4,2,2,70,0,1
94783,-100,4,2,3,70,0,1
94955,-100,4,2,8,70,0,1
95126,-100,4,2,3,70,0,1
95297,-100,4,2,2,70,0,1
95469,-100,4,2,4,70,0,1
95640,-100,4,2,9,70,0,1
95812,-100,4,2,4,70,0,1
95983,-100,4,2,2,70,0,1
96155,-100,4,2,8,70,0,1
96326,-100,4,2,11,70,0,1
96497,-100,4,2,8,70,0,1
96669,-100,4,2,4,70,0,1
96840,-100,4,2,3,70,0,1
97012,-100,4,2,7,70,0,1
97183,-100,4,2,2,70,0,1
97355,-100,4,2,3,70,0,1
97526,-100,4,2,4,70,0,1
97697,-100,4,2,11,70,0,1
97869,-100,4,2,4,70,0,1
98040,-100,4,2,2,70,0,1
98212,-100,4,2,1,70,0,1
98383,-100,4,2,7,50,0,1
98555,-100,4,2,2,30,0,0
98726,-100,4,2,3,20,0,0
98897,-133.333333333333,4,2,99,35,0,0
99069,-133.333333333333,4,2,99,40,0,0
99240,-133.333333333333,4,2,99,30,0,0
101297,-133.333333333333,4,2,99,15,0,0
101640,-133.333333333333,4,2,99,30,0,0
103012,-133.333333333333,4,2,99,40,0,0
103526,-133.333333333333,4,2,99,15,0,0
103697,-105.263157894737,4,2,99,50,0,0
104212,-105.263157894737,4,2,99,15,0,0
104383,-95.2380952380952,4,2,99,50,0,0
104897,-95.2380952380952,4,2,99,5,0,0
105069,-80,4,2,99,50,0,0
105583,-80,4,2,99,5,0,0

[Colours]
Combo1 : 141,71,71
Combo2 : 72,164,255
Combo3 : 221,221,221
Combo4 : 0,174,174

[HitObjects]
256,288,155,6,0,B|384:288|384:288|488:252,1,200,2|2,0:0|0:0,0:0:0:0:
484,192,1183,1,2,0:0:0:0:
452,119,1526,2,0,B|384:96|384:96|256:96,1,200,2|2,0:0|0:0,0:0:0:0:
128,192,2897,6,0,L|120:60,2,100,2|2|2,0:0|0:0|0:0,0:0:0:0:
176,256,3926,1,2,0:0:0:0:
148,332,4269,2,0,P|96:340|32:304,2,100,2|2|2,0:0|0:0|0:0,0:0:0:0:
256,212,5640,6,0,B|408:212|408:212|352:180,1,200,2|2,0:0|0:0,0:0:0:0:
356,108,6669,1,2,0:0:0:0:
276,124,7012,2,0,B|124:124|124:124|165:147,1,200,2|2,0:0|0:0,0:0:0:0:
256,280,8383,6,0,P|312:280|376:320,2,100,2|2|2,0:0|0:0|0:0,0:0:0:0:
212,348,9412,1,2,0:0:0:0:
140,316,9755,2,0,P|88:328|24:312,2,100,2|2|2,0:0|0:0|0:0,0:0:0:0:
204,168,11126,6,0,B|232:32|232:32|288:120,1,200,2|2,0:0|0:0,0:0:0:0:
380,192,12497,1,2,0:0:0:0:
304,332,13183,2,0,B|256:320|256:320|200:332,1,100,2|2,0:0|0:0,0:0:0:0:
132,360,13869,6,0,B|32:364|32:364|48:244,1,200,2|2,0:0|0:0,0:0:0:0:
84,108,15240,1,2,0:0:0:0:
220,192,15926,2,0,P|264:168|304:112,1,100,2|2,0:0|0:0,0:0:0:0:
320,52,16612,6,0,L|328:280,1,200,2|2,0:0|0:0,0:0:0:0:
208,360,17983,1,2,0:0:0:0:
76,268,18669,2,0,B|64:220|64:220|80:144,1,100,2|2,0:0|0:0,0:0:0:0:
108,96,19355,6,0,P|164:56|128:132,1,200,2|2,0:0|0:0,0:0:0:0:
160,300,20726,2,0,B|256:320|256:320|396:292,1,200,2|2,0:0|0:0,0:0:0:0:
432,160,22097,6,0,L|448:52,2,100,2|2|2,0:0|0:0|0:0,0:0:0:0:
312,268,23469,2,0,L|320:372,2,100,2|2|2,0:0|0:0|0:0,0:0:0:0:
256,116,24840,5,2,0:0:0:0:
128,20,25526,1,2,0:0:0:0:
28,144,26212,1,2,0:0:0:0:
100,288,26897,1,2,0:0:0:0:
248,228,27583,6,0,P|300:224|368:276,1,100,2|2,0:0|0:0,0:0:0:0:
400,300,28269,1,2,0:0:0:0:
252,360,28955,2,0,P|192:360|140:328,1,100,2|2,0:0|0:0,0:0:0:0:
112,276,29640,1,2,0:0:0:0:
92,116,30326,5,2,0:0:0:0:
232,36,31012,1,2,0:0:0:0:
268,192,31697,1,2,0:0:0:0:
416,132,32383,1,2,0:0:0:0:
480,280,33069,6,0,B|376:280|376:280|296:348,1,200,2|2,0:0|0:0,0:0:0:0:
256,276,34097,1,2,0:0:0:0:
209,342,34440,2,0,B|136:280|136:280|32:280,1,200,2|2,0:0|0:0,0:0:0:0:
88,132,35812,6,0,L|80:24,2,100,2|2|2,0:0|0:0|0:0,0:0:0:0:
140,192,36840,1,2,0:0:0:0:
88,252,37183,2,0,L|80:360,2,100,2|2|2,0:0|0:0|0:0,0:0:0:0:
248,236,38555,6,0,B|324:236|324:236|372:260|372:260|476:260,1,200,2|2,0:0|0:0,0:0:0:0:
488,192,39583,1,2,0:0:0:0:
444,124,39926,2,0,B|368:124|368:124|320:148|320:148|216:148,1,200,2|2,0:0|0:0,0:0:0:0:
144,268,41297,6,0,P|92:268|44:248,2,100,2|2|2,0:0|0:0|0:0,0:0:0:0:
200,212,42326,1,2,0:0:0:0:
256,272,42669,2,0,P|312:268|376:300,2,100,2|2|2,0:0|0:0|0:0,0:0:0:0:
120,356,44040,6,0,B|96:260|96:260|128:136,1,200,2|2,0:0|0:0,0:0:0:0:
256,76,45412,1,2,0:0:0:0:
372,184,46097,2,0,L|376:300,1,100,2|2,0:0|0:0,0:0:0:0:
444,324,46783,6,0,P|360:308|248:368,1,200,2|2,0:0|0:0,0:0:0:0:
112,288,48155,1,2,0:0:0:0:
236,188,48840,2,0,L|232:72,1,100,2|2,0:0|0:0,0:0:0:0:
160,60,49526,6,0,P|232:72|344:20,1,200,2|2,0:0|0:0,0:0:0:0:
476,112,50897,1,2,0:0:0:0:
336,188,51583,2,0,L|344:296,1,100,2|2,0:0|0:0,0:0:0:0:
404,340,52269,6,0,P|336:328|208:376,1,200,2|2,0:0|0:0,0:0:0:0:
88,272,53640,2,0,P|44:220|116:252,1,200,2|2,0:0|0:0,0:0:0:0:
256,328,55012,6,0,L|388:324,1,100,2|2,0:0|0:0,0:0:0:0:
436,320,55697,1,2,0:0:0:0:
468,164,56383,2,0,L|336:168,1,100,2|2,0:0|0:0,0:0:0:0:
288,172,57068,1,2,0:0:0:0:
256,328,57755,5,2,0:0:0:0:
136,224,58440,1,2,0:0:0:0:
52,360,59126,1,2,0:0:0:0:
136,224,59812,1,2,0:0:0:0:
256,328,60497,6,0,P|320:332|368:364,2,100,2|2|2,0:0|0:0|0:0,0:0:0:0:
136,224,61869,2,0,P|72:220|24:188,2,100,2|2|2,0:0|0:0|0:0,0:0:0:0:
256,116,63240,5,2,0:0:0:0:
396,192,63926,1,2,0:0:0:0:
388,32,64612,1,2,0:0:0:0:
256,116,65297,1,2,0:0:0:0:
396,192,65983,6,0,B|396:292|396:292|296:348,1,200,2|2,0:0|0:0,0:0:0:0:
256,280,67012,1,2,0:0:0:0:
203,340,67355,2,0,B|116:292|116:292|116:192,1,200,2|2,0:0|0:0,0:0:0:0:
256,116,68726,6,0,L|256:12,2,100,2|2|2,0:0|0:0|0:0,0:0:0:0:
348,248,70097,2,0,L|448:248,2,100,2|2|2,0:0|0:0|0:0,0:0:0:0:
204,320,71469,6,0,P|136:328|32:232,1,200,2|2,0:0|0:0,0:0:0:0:
96,192,72497,1,2,0:0:0:0:
37,133,72840,2,0,P|106:64|204:64,1,200,2|2,0:0|0:0,0:0:0:0:
304,192,74212,6,0,P|360:196|412:168,1,100,2|2,0:0|0:0,0:0:0:0:
456,120,74897,1,2,0:0:0:0:
476,280,75583,2,0,P|420:276|368:312,1,100,2|2,0:0|0:0,0:0:0:0:
332,360,76269,1,2,0:0:0:0:
256,220,76955,5,2,0:0:0:0:
244,300,77297,2,0,B|192:308|192:308|140:296,1,100,2|2,0:0|0:0,0:0:0:0:
84,244,77983,2,0,B|76:196|76:196|88:128,1,100,2|2,0:0|0:0,0:0:0:0:
188,24,79012,1,2,0:0:0:0:
256,168,79697,5,2,0:0:0:0:
284,244,80040,2,0,B|332:256|332:256|408:240,1,100,2|2,0:0|0:0,0:0:0:0:
444,192,80726,2,0,B|452:144|452:144|436:80,1,100,2|2,0:0|0:0,0:0:0:0:
300,12,81755,1,2,0:0:0:0:
256,164,82440,6,0,L|124:160,1,100,2|2,0:0|0:0,0:0:0:0:
76,160,83126,2,0,P|60:216|76:292,1,100,2|2,0:0|0:0,0:0:0:0:
96,332,83812,2,0,P|156:332|216:300,1,100,2|2,0:0|0:0,0:0:0:0:
260,272,84497,6,0,P|300:276|360:324,1,100,2|2,0:0|0:0,0:0:0:0:
408,364,85183,2,0,P|456:332|480:284,1,100,2|2,0:0|0:0,0:0:0:0:
428,232,85869,2,0,P|420:176|428:128,1,100,2|2,0:0|0:0,0:0:0:0:
452,56,86555,6,0,P|412:40|352:48,1,100,2|2,0:0|0:0,0:0:0:0:
312,112,87240,2,0,P|272:128|200:120,1,100,10|10,0:0|0:0,0:0:0:0:
160,68,87926,5,6,0:0:0:0:
124,140,88269,2,0,L|128:256,1,100,2|2,0:0|0:0,0:0:0:0:
132,320,88955,1,2,0:0:0:0:
200,276,89297,1,6,0:0:0:0:
336,364,89983,1,2,0:0:0:0:
452,256,90669,5,6,0:0:0:0:
408,188,91012,2,0,P|364:192|300:232,1,100,2|2,0:0|0:0,0:0:0:0:
280,292,91697,1,2,0:0:0:0:
236,224,92040,1,6,0:0:0:0:
148,360,92726,1,2,0:0:0:0:
48,236,93412,6,0,L|56:120,1,100,2|2,0:0|0:0,0:0:0:0:
136,140,94097,2,0,L|129:239,1,100,2|2,0:0|0:0,0:0:0:0:
208,248,94783,2,0,L|216:132,1,100,2|2,0:0|0:0,0:0:0:0:
296,148,95469,6,0,L|289:247,1,100,2|2,0:0|0:0,0:0:0:0:
288,328,96155,2,0,P|340:336|404:280,1,100,2|2,0:0|0:0,0:0:0:0:
436,256,96840,2,0,P|424:200|432:148,1,100,2|2,0:0|0:0,0:0:0:0:
448,80,97526,6,0,P|408:60|348:64,1,100,2|2,0:0|0:0,0:0:0:0:
320,136,98212,2,0,P|268:148|216:132,1,100,10|10,0:0|0:0,0:0:0:0:
172,72,98897,5,2,0:0:0:0:
132,184,99583,1,2,0:0:0:0:
52,92,100269,6,0,P|16:172|80:308,1,225.000008583069,2|0,0:0|0:0,0:0:0:0:
212,192,102326,2,0,L|328:192,1,75.0000028610231,2|0,0:0|0:0,0:0:0:0:
348,192,103012,6,0,P|364:132|336:44,1,150.000005722046,2|2,0:0|0:0,0:0:0:0:
180,104,104383,6,0,P|148:200|212:328,1,209.999993591309,2|2,0:0|0:0,0:0:0:0:
