osu file format v14

[General]
AudioFilename: audio.mp3
AudioLeadIn: 0
PreviewTime: 52188
Countdown: 0
SampleSet: Soft
StackLeniency: 0.7
Mode: 3
LetterboxInBreaks: 0
SpecialStyle: 0
WidescreenStoryboard: 0

[Editor]
DistanceSpacing: 0.8
BeatDivisor: 2
GridSize: 4
TimelineZoom: 2.3

[Metadata]
Title:Birth of a Hero
TitleUnicode:Birth of a Hero
Artist:Loki
ArtistUnicode:Loki
Creator:maciek0421
Version:7K EZ
Source:
Tags:thaehan featured artist
BeatmapID:1455535
BeatmapSetID:680626

[Difficulty]
HPDrainRate:2
CircleSize:7
OverallDifficulty:3
ApproachRate:5
SliderMultiplier:1.4
SliderTickRate:1

[Events]
//Background and Video events
0,0,"Hero_background.jpg",0,0
//Break Periods
//Storyboard Layer 0 (Background)
//Storyboard Layer 1 (Fail)
//Storyboard Layer 2 (Pass)
//Storyboard Layer 3 (Foreground)
//Storyboard Sound Samples

[TimingPoints]
74,545.702592087312,4,2,0,100,1,0
52461,-100,4,2,0,100,0,1
87386,-100,4,2,0,100,0,0

[HitObjects]
256,192,74,5,0,0:0:0:0:
109,192,619,1,0,0:0:0:0:
402,192,1165,1,0,0:0:0:0:
182,192,1438,1,0,0:0:0:0:
36,192,1711,1,0,0:0:0:0:
475,192,1983,1,0,0:0:0:0:
329,192,2256,1,0,0:0:0:0:
256,192,3348,1,0,0:0:0:0:
109,192,4439,1,0,0:0:0:0:
329,192,4985,1,0,0:0:0:0:
182,192,5531,1,0,0:0:0:0:
402,192,6076,1,0,0:0:0:0:
256,192,6622,1,0,0:0:0:0:
36,192,7440,1,0,0:0:0:0:
182,192,7713,1,0,0:0:0:0:
256,192,8805,128,0,9896:0:0:0:0:
329,192,9896,128,0,10988:0:0:0:0:
182,192,10988,128,0,12488:0:0:0:0:
402,192,12625,128,0,13170:0:0:0:0:
109,192,13170,128,0,14262:0:0:0:0:
475,192,14262,128,0,15353:0:0:0:0:
329,192,15353,128,0,17536:0:0:0:0:
256,192,17536,128,0,18900:0:0:0:0:
182,192,18900,128,0,19173:0:0:0:0:
329,192,19173,128,0,19446:0:0:0:0:
109,192,19446,128,0,19719:0:0:0:0:
402,192,19719,128,0,21902:0:0:0:0:
256,192,21902,128,0,23266:0:0:0:0:
36,192,23266,128,0,23539:0:0:0:0:
475,192,23539,128,0,23812:0:0:0:0:
109,192,23812,128,0,24084:0:0:0:0:
402,192,24084,128,0,24903:0:0:0:0:
329,192,24903,128,0,25176:0:0:0:0:
182,192,25176,128,0,26267:0:0:0:0:
256,192,26267,128,0,27359:0:0:0:0:
109,192,27359,128,0,28450:0:0:0:0:
402,192,28450,128,0,29541:0:0:0:0:
329,192,29541,128,0,30087:0:0:0:0:
36,192,30087,128,0,30633:0:0:0:0:
475,192,30633,128,0,32270:0:0:0:0:
329,192,32270,128,0,32543:0:0:0:0:
182,192,32543,128,0,32816:0:0:0:0:
36,192,32816,128,0,33771:0:0:0:0:
402,192,33907,128,0,34862:0:0:0:0:
256,192,34998,128,0,36363:0:0:0:0:
109,192,36363,128,0,36636:0:0:0:0:
329,192,36636,128,0,36908:0:0:0:0:
182,192,36908,128,0,37181:0:0:0:0:
402,192,37181,128,0,39228:0:0:0:0:
182,192,39364,128,0,40728:0:0:0:0:
256,192,40728,128,0,41001:0:0:0:0:
329,192,41001,128,0,41274:0:0:0:0:
109,192,41274,128,0,41547:0:0:0:0:
402,192,41547,128,0,42365:0:0:0:0:
36,192,42365,128,0,42638:0:0:0:0:
182,192,42638,128,0,43730:0:0:0:0:
329,192,43730,128,0,44821:0:0:0:0:
475,192,44821,128,0,45913:0:0:0:0:
36,192,45913,128,0,47004:0:0:0:0:
256,192,47004,128,0,47550:0:0:0:0:
109,192,47550,128,0,48095:0:0:0:0:
402,192,48095,128,0,49732:0:0:0:0:
329,192,49732,128,0,50005:0:0:0:0:
182,192,50005,128,0,50278:0:0:0:0:
256,192,50278,128,0,51370:0:0:0:0:
256,192,52461,128,0,53825:0:0:0:0:
36,192,53825,128,0,54098:0:0:0:0:
475,192,54098,128,0,54371:0:0:0:0:
109,192,54371,128,0,54644:0:0:0:0:
402,192,54644,128,0,56690:0:0:0:0:
256,192,56827,128,0,58191:0:0:0:0:
182,192,58191,128,0,58464:0:0:0:0:
402,192,58464,128,0,58737:0:0:0:0:
109,192,58737,128,0,59009:0:0:0:0:
329,192,59009,128,0,59828:0:0:0:0:
36,192,59828,128,0,60101:0:0:0:0:
475,192,60101,128,0,61192:0:0:0:0:
329,192,61192,128,0,62284:0:0:0:0:
182,192,62284,128,0,63375:0:0:0:0:
402,192,63375,128,0,64466:0:0:0:0:
109,192,64466,128,0,65012:0:0:0:0:
256,192,65012,128,0,65558:0:0:0:0:
475,192,65558,128,0,67195:0:0:0:0:
109,192,67195,128,0,67468:0:0:0:0:
402,192,67468,128,0,67741:0:0:0:0:
182,192,67741,128,0,68832:0:0:0:0:
329,192,68832,1,0,0:0:0:0:
109,192,69105,1,0,0:0:0:0:
402,192,69378,1,0,0:0:0:0:
36,192,69651,1,0,0:0:0:0:
475,192,69923,128,0,71288:0:0:0:0:
402,192,71288,128,0,71561:0:0:0:0:
109,192,71561,128,0,71833:0:0:0:0:
329,192,71833,128,0,72106:0:0:0:0:
36,192,72106,128,0,74153:0:0:0:0:
256,192,74289,128,0,75653:0:0:0:0:
329,192,75653,128,0,75926:0:0:0:0:
109,192,75926,128,0,76199:0:0:0:0:
402,192,76199,128,0,76472:0:0:0:0:
182,192,76472,128,0,77290:0:0:0:0:
475,192,77290,128,0,77563:0:0:0:0:
109,192,77563,128,0,78655:0:0:0:0:
329,192,78655,128,0,79746:0:0:0:0:
182,192,79746,128,0,80837:0:0:0:0:
402,192,80837,128,0,81929:0:0:0:0:
109,192,81929,128,0,82475:0:0:0:0:
256,192,82475,128,0,83020:0:0:0:0:
36,192,83020,128,0,84657:0:0:0:0:
475,192,84657,128,0,84930:0:0:0:0:
109,192,84930,128,0,85203:0:0:0:0:
402,192,85203,128,0,86295:0:0:0:0:
256,192,86295,128,0,87386:0:0:0:0:
109,192,89296,128,0,89569:0:0:0:0:
402,192,89296,128,0,89569:0:0:0:0:
