osu file format v14

[General]
AudioFilename: audio.mp3
AudioLeadIn: 0
PreviewTime: 52188
Countdown: 0
SampleSet: Soft
StackLeniency: 0.7
Mode: 3
LetterboxInBreaks: 0
SpecialStyle: 0
WidescreenStoryboard: 0

[Editor]
DistanceSpacing: 0.8
BeatDivisor: 4
GridSize: 4
TimelineZoom: 2.3

[Metadata]
Title:Birth of a Hero
TitleUnicode:Birth of a Hero
Artist:Loki
ArtistUnicode:Loki
Creator:maciek0421
Version:4K NM
Source:
Tags:thaehan featured artist
BeatmapID:1439113
BeatmapSetID:680626

[Difficulty]
HPDrainRate:4
CircleSize:4
OverallDifficulty:5
ApproachRate:5
SliderMultiplier:1.4
SliderTickRate:1

[Events]
//Background and Video events
0,0,"Hero_background.jpg",0,0
//Break Periods
//Storyboard Layer 0 (Background)
//Storyboard Layer 1 (Fail)
//Storyboard Layer 2 (Pass)
//Storyboard Layer 3 (Foreground)
//Storyboard Sound Samples

[TimingPoints]
74,545.702592087312,4,2,0,100,1,0
52461,-100,4,2,0,100,0,1
87386,-100,4,2,0,100,0,0

[HitObjects]
448,192,74,5,0,0:0:0:0:
192,192,346,1,0,0:0:0:0:
448,192,619,1,0,0:0:0:0:
64,192,892,1,0,0:0:0:0:
320,192,1165,1,0,0:0:0:0:
192,192,1438,1,0,0:0:0:0:
64,192,1711,1,0,0:0:0:0:
448,192,1983,1,0,0:0:0:0:
192,192,2256,128,0,2802:0:0:0:0:
320,192,3348,128,0,3893:0:0:0:0:
64,192,4439,1,0,0:0:0:0:
320,192,4712,1,0,0:0:0:0:
192,192,4985,1,0,0:0:0:0:
448,192,5258,1,0,0:0:0:0:
64,192,5531,1,0,0:0:0:0:
192,192,5803,1,0,0:0:0:0:
320,192,6076,1,0,0:0:0:0:
64,192,6349,1,0,0:0:0:0:
448,192,6622,128,0,7168:0:0:0:0:
192,192,7440,1,0,0:0:0:0:
320,192,7713,1,0,0:0:0:0:
448,192,8805,128,0,9896:0:0:0:0:
64,192,8805,1,0,0:0:0:0:
320,192,9078,1,0,0:0:0:0:
192,192,9350,1,0,0:0:0:0:
64,192,9623,1,0,0:0:0:0:
320,192,9896,1,0,0:0:0:0:
192,192,9896,128,0,10988:0:0:0:0:
64,192,10169,1,0,0:0:0:0:
448,192,10442,1,0,0:0:0:0:
64,192,10715,1,0,0:0:0:0:
320,192,10988,128,0,12488:0:0:0:0:
448,192,10988,1,0,0:0:0:0:
64,192,12079,1,0,0:0:0:0:
448,192,12761,128,0,13170:0:0:0:0:
64,192,13170,128,0,14262:0:0:0:0:
192,192,13170,1,0,0:0:0:0:
448,192,13716,1,0,0:0:0:0:
192,192,13989,1,0,0:0:0:0:
320,192,14262,128,0,15353:0:0:0:0:
448,192,14262,1,0,0:0:0:0:
192,192,14535,1,0,0:0:0:0:
64,192,14807,1,0,0:0:0:0:
448,192,15080,1,0,0:0:0:0:
192,192,15353,128,0,17536:0:0:0:0:
64,192,15353,1,0,0:0:0:0:
320,192,17536,128,0,18900:0:0:0:0:
448,192,17536,1,0,0:0:0:0:
64,192,17809,1,0,0:0:0:0:
192,192,18082,1,0,0:0:0:0:
64,192,18355,1,0,0:0:0:0:
448,192,18627,1,0,0:0:0:0:
64,192,18900,128,0,19173:0:0:0:0:
192,192,18900,1,0,0:0:0:0:
448,192,19173,128,0,19446:0:0:0:0:
320,192,19173,1,0,0:0:0:0:
192,192,19446,128,0,19719:0:0:0:0:
64,192,19446,1,0,0:0:0:0:
320,192,19719,128,0,21765:0:0:0:0:
448,192,19719,1,0,0:0:0:0:
64,192,20810,1,0,0:0:0:0:
64,192,21902,128,0,23266:0:0:0:0:
192,192,21902,1,0,0:0:0:0:
448,192,22174,1,0,0:0:0:0:
192,192,22447,1,0,0:0:0:0:
320,192,22720,1,0,0:0:0:0:
448,192,22993,1,0,0:0:0:0:
320,192,23266,128,0,23539:0:0:0:0:
192,192,23266,1,0,0:0:0:0:
448,192,23539,128,0,23812:0:0:0:0:
64,192,23539,1,0,0:0:0:0:
192,192,23812,128,0,24084:0:0:0:0:
320,192,23812,1,0,0:0:0:0:
64,192,24084,128,0,24903:0:0:0:0:
448,192,24084,1,0,0:0:0:0:
320,192,24903,128,0,25176:0:0:0:0:
448,192,24903,1,0,0:0:0:0:
192,192,25176,128,0,26267:0:0:0:0:
64,192,25176,1,0,0:0:0:0:
448,192,26267,128,0,27359:0:0:0:0:
64,192,26267,1,0,0:0:0:0:
320,192,26540,1,0,0:0:0:0:
192,192,26813,1,0,0:0:0:0:
64,192,27086,1,0,0:0:0:0:
320,192,27359,128,0,28450:0:0:0:0:
192,192,27359,1,0,0:0:0:0:
64,192,27631,1,0,0:0:0:0:
448,192,27904,1,0,0:0:0:0:
192,192,28177,1,0,0:0:0:0:
64,192,28450,128,0,29541:0:0:0:0:
448,192,28450,1,0,0:0:0:0:
320,192,29541,128,0,30087:0:0:0:0:
448,192,29541,1,0,0:0:0:0:
192,192,30087,128,0,30633:0:0:0:0:
448,192,30633,128,0,32270:0:0:0:0:
320,192,30633,1,0,0:0:0:0:
320,192,31179,1,0,0:0:0:0:
64,192,31451,1,0,0:0:0:0:
320,192,31724,1,0,0:0:0:0:
192,192,31997,1,0,0:0:0:0:
320,192,32270,128,0,32543:0:0:0:0:
64,192,32270,1,0,0:0:0:0:
64,192,32543,128,0,32816:0:0:0:0:
448,192,32543,1,0,0:0:0:0:
192,192,32816,128,0,33771:0:0:0:0:
320,192,32816,1,0,0:0:0:0:
448,192,34043,128,0,34998:0:0:0:0:
64,192,34998,128,0,36363:0:0:0:0:
320,192,34998,1,0,0:0:0:0:
192,192,35271,1,0,0:0:0:0:
448,192,35544,1,0,0:0:0:0:
320,192,35817,1,0,0:0:0:0:
192,192,36090,1,0,0:0:0:0:
448,192,36363,128,0,36636:0:0:0:0:
320,192,36363,1,0,0:0:0:0:
192,192,36636,128,0,36908:0:0:0:0:
64,192,36636,1,0,0:0:0:0:
320,192,36908,128,0,37181:0:0:0:0:
448,192,36908,1,0,0:0:0:0:
64,192,37181,128,0,39364:0:0:0:0:
192,192,37181,1,0,0:0:0:0:
320,192,38273,1,0,0:0:0:0:
320,192,39364,128,0,40728:0:0:0:0:
192,192,39364,1,0,0:0:0:0:
448,192,39637,1,0,0:0:0:0:
192,192,39910,1,0,0:0:0:0:
64,192,40183,1,0,0:0:0:0:
448,192,40455,1,0,0:0:0:0:
192,192,40728,128,0,41001:0:0:0:0:
64,192,40728,1,0,0:0:0:0:
448,192,41001,128,0,41274:0:0:0:0:
320,192,41001,1,0,0:0:0:0:
64,192,41274,128,0,41547:0:0:0:0:
192,192,41274,1,0,0:0:0:0:
320,192,41547,128,0,42365:0:0:0:0:
448,192,41547,1,0,0:0:0:0:
192,192,42365,128,0,42638:0:0:0:0:
64,192,42365,1,0,0:0:0:0:
448,192,42638,128,0,43730:0:0:0:0:
320,192,42638,1,0,0:0:0:0:
64,192,43730,128,0,44821:0:0:0:0:
192,192,43730,1,0,0:0:0:0:
320,192,44003,1,0,0:0:0:0:
448,192,44275,1,0,0:0:0:0:
192,192,44548,1,0,0:0:0:0:
320,192,44821,128,0,45913:0:0:0:0:
448,192,44821,1,0,0:0:0:0:
192,192,45094,1,0,0:0:0:0:
64,192,45367,1,0,0:0:0:0:
448,192,45640,1,0,0:0:0:0:
192,192,45913,128,0,47004:0:0:0:0:
64,192,45913,1,0,0:0:0:0:
64,192,47004,128,0,47550:0:0:0:0:
448,192,47004,1,0,0:0:0:0:
320,192,47550,128,0,48095:0:0:0:0:
448,192,48095,128,0,49732:0:0:0:0:
64,192,48095,1,0,0:0:0:0:
192,192,48368,1,0,0:0:0:0:
64,192,48641,1,0,0:0:0:0:
320,192,48914,1,0,0:0:0:0:
192,192,49187,1,0,0:0:0:0:
320,192,49460,1,0,0:0:0:0:
192,192,49732,128,0,50005:0:0:0:0:
64,192,49732,1,0,0:0:0:0:
320,192,50005,128,0,50278:0:0:0:0:
448,192,50005,1,0,0:0:0:0:
64,192,50278,128,0,51370:0:0:0:0:
192,192,50278,1,0,0:0:0:0:
192,192,51370,1,0,0:0:0:0:
320,192,51370,128,0,52461:0:0:0:0:
64,192,52461,128,0,53825:0:0:0:0:
192,192,52461,1,0,0:0:0:0:
448,192,52734,1,0,0:0:0:0:
192,192,53007,1,0,0:0:0:0:
320,192,53280,1,0,0:0:0:0:
448,192,53552,1,0,0:0:0:0:
320,192,53825,1,0,0:0:0:0:
192,192,53825,128,0,54098:0:0:0:0:
320,192,54098,128,0,54371:0:0:0:0:
448,192,54098,1,0,0:0:0:0:
64,192,54371,128,0,54644:0:0:0:0:
192,192,54371,1,0,0:0:0:0:
448,192,54644,128,0,56827:0:0:0:0:
320,192,54644,1,0,0:0:0:0:
64,192,55735,1,0,0:0:0:0:
320,192,56827,1,0,0:0:0:0:
64,192,56827,128,0,58191:0:0:0:0:
192,192,57099,1,0,0:0:0:0:
320,192,57372,1,0,0:0:0:0:
448,192,57645,1,0,0:0:0:0:
320,192,57918,1,0,0:0:0:0:
448,192,58191,128,0,58464:0:0:0:0:
192,192,58191,1,0,0:0:0:0:
192,192,58464,128,0,58737:0:0:0:0:
320,192,58464,1,0,0:0:0:0:
320,192,58737,128,0,59009:0:0:0:0:
64,192,58737,1,0,0:0:0:0:
64,192,59009,128,0,59828:0:0:0:0:
448,192,59009,1,0,0:0:0:0:
448,192,59828,128,0,60101:0:0:0:0:
320,192,59828,1,0,0:0:0:0:
192,192,60101,128,0,61192:0:0:0:0:
64,192,60101,1,0,0:0:0:0:
320,192,61192,128,0,62284:0:0:0:0:
448,192,61192,1,0,0:0:0:0:
64,192,61465,1,0,0:0:0:0:
448,192,61738,1,0,0:0:0:0:
192,192,62011,1,0,0:0:0:0:
64,192,62284,128,0,63375:0:0:0:0:
448,192,62284,1,0,0:0:0:0:
192,192,62556,1,0,0:0:0:0:
320,192,62829,1,0,0:0:0:0:
448,192,63102,1,0,0:0:0:0:
192,192,63375,128,0,64466:0:0:0:0:
320,192,63375,1,0,0:0:0:0:
448,192,64466,128,0,65012:0:0:0:0:
64,192,64466,1,0,0:0:0:0:
320,192,65012,128,0,65558:0:0:0:0:
192,192,65012,1,0,0:0:0:0:
64,192,65558,128,0,67195:0:0:0:0:
448,192,65558,1,0,0:0:0:0:
192,192,65831,1,0,0:0:0:0:
320,192,66104,1,0,0:0:0:0:
448,192,66376,1,0,0:0:0:0:
192,192,66649,1,0,0:0:0:0:
320,192,66922,1,0,0:0:0:0:
448,192,67195,1,0,0:0:0:0:
192,192,67195,128,0,67468:0:0:0:0:
320,192,67468,128,0,67741:0:0:0:0:
64,192,67468,1,0,0:0:0:0:
448,192,67741,128,0,68832:0:0:0:0:
192,192,67741,1,0,0:0:0:0:
64,192,68832,128,0,68968:0:0:0:0:
192,192,68968,128,0,69105:0:0:0:0:
448,192,69105,128,0,69241:0:0:0:0:
320,192,69241,128,0,69378:0:0:0:0:
64,192,69378,128,0,69514:0:0:0:0:
192,192,69514,128,0,69651:0:0:0:0:
448,192,69651,128,0,69787:0:0:0:0:
320,192,69787,128,0,69923:0:0:0:0:
448,192,69923,128,0,71288:0:0:0:0:
64,192,69923,128,0,71288:0:0:0:0:
192,192,71288,128,0,71561:0:0:0:0:
320,192,71288,1,0,0:0:0:0:
320,192,71561,128,0,71833:0:0:0:0:
448,192,71561,1,0,0:0:0:0:
64,192,71833,128,0,72106:0:0:0:0:
192,192,71833,1,0,0:0:0:0:
448,192,72106,128,0,74289:0:0:0:0:
320,192,72106,1,0,0:0:0:0:
64,192,73198,1,0,0:0:0:0:
192,192,74289,128,0,75653:0:0:0:0:
320,192,74289,1,0,0:0:0:0:
64,192,74835,1,0,0:0:0:0:
320,192,75108,1,0,0:0:0:0:
448,192,75380,1,0,0:0:0:0:
320,192,75653,128,0,75926:0:0:0:0:
64,192,75653,1,0,0:0:0:0:
448,192,75926,128,0,76199:0:0:0:0:
192,192,75926,1,0,0:0:0:0:
64,192,76199,128,0,76472:0:0:0:0:
320,192,76199,1,0,0:0:0:0:
320,192,76472,128,0,77290:0:0:0:0:
448,192,76472,1,0,0:0:0:0:
192,192,77290,128,0,77563:0:0:0:0:
64,192,77290,1,0,0:0:0:0:
448,192,77563,128,0,78655:0:0:0:0:
320,192,77563,1,0,0:0:0:0:
64,192,78655,128,0,79746:0:0:0:0:
192,192,78655,1,0,0:0:0:0:
320,192,78928,1,0,0:0:0:0:
448,192,79200,1,0,0:0:0:0:
192,192,79473,1,0,0:0:0:0:
320,192,79746,128,0,80837:0:0:0:0:
448,192,79746,1,0,0:0:0:0:
192,192,80019,1,0,0:0:0:0:
64,192,80292,1,0,0:0:0:0:
448,192,80565,1,0,0:0:0:0:
64,192,80837,1,0,0:0:0:0:
192,192,80837,128,0,81929:0:0:0:0:
448,192,81929,128,0,82475:0:0:0:0:
64,192,81929,1,0,0:0:0:0:
320,192,82475,128,0,83020:0:0:0:0:
192,192,82475,1,0,0:0:0:0:
64,192,83020,128,0,84657:0:0:0:0:
448,192,83020,1,0,0:0:0:0:
448,192,83566,1,0,0:0:0:0:
320,192,83839,1,0,0:0:0:0:
192,192,84112,1,0,0:0:0:0:
448,192,84385,1,0,0:0:0:0:
320,192,84657,1,0,0:0:0:0:
192,192,84657,128,0,84930:0:0:0:0:
448,192,84930,128,0,85203:0:0:0:0:
64,192,84930,1,0,0:0:0:0:
320,192,85203,128,0,86295:0:0:0:0:
192,192,85203,1,0,0:0:0:0:
64,192,86295,128,0,87386:0:0:0:0:
448,192,86295,128,0,87386:0:0:0:0:
192,192,86295,1,0,0:0:0:0:
448,192,89296,1,0,0:0:0:0:
320,192,89364,1,0,0:0:0:0:
192,192,89432,1,0,0:0:0:0:
64,192,89501,1,0,0:0:0:0:
