osu file format v14

[General]
AudioFilename: audio.mp3
AudioLeadIn: 0
PreviewTime: 51370
Countdown: 0
SampleSet: Soft
StackLeniency: 0.7
Mode: 0
LetterboxInBreaks: 0
WidescreenStoryboard: 1

[Editor]
Bookmarks: 17536,34998,52461,69923,87386
DistanceSpacing: 1.1
BeatDivisor: 4
GridSize: 4
TimelineZoom: 1

[Metadata]
Title:Birth of a Hero
TitleUnicode:Birth of a Hero
Artist:Loki
ArtistUnicode:Loki
Creator:Shmiklak
Version:Basic
Source:
Tags:featured artist Thaehan The Fall of a Hero marvollo m_a_r_v_o_l_l_o symphonic
BeatmapID:1261661
BeatmapSetID:580802

[Difficulty]
HPDrainRate:2
CircleSize:3
OverallDifficulty:3
ApproachRate:4
SliderMultiplier:1
SliderTickRate:1

[Events]
//Background and Video events
0,0,"2.jpg",0,0
//Break Periods
//Storyboard Layer 0 (Background)
//Storyboard Layer 1 (Fail)
//Storyboard Layer 2 (Pass)
//Storyboard Layer 3 (Foreground)
//Storyboard Sound Samples

[TimingPoints]
74,545.702592087312,4,2,1,30,1,0
2802,-100,4,2,1,30,0,0
2870,-100,4,2,1,30,0,0
7168,-100,4,2,1,30,0,0
7236,-100,4,2,1,30,0,0
11533,-100,4,2,1,5,0,0
11601,-100,4,2,1,5,0,0
12079,-100,4,2,1,30,0,0
17536,-100,4,2,1,40,0,0
20264,-100,4,2,1,5,0,0
20810,-100,4,2,1,40,0,0
24630,-100,4,2,1,5,0,0
24903,-100,4,2,1,40,0,0
25722,-100,4,2,1,5,0,0
25994,-100,4,2,1,40,0,0
28996,-100,4,2,1,5,0,0
29541,-100,4,2,1,40,0,0
33361,-100,4,2,1,5,0,0
33907,-100,4,2,1,40,0,0
34453,-100,4,2,1,5,0,0
34998,-100,4,2,1,50,0,0
37727,-100,4,2,1,5,0,0
38273,-100,4,2,1,50,0,0
42093,-100,4,2,1,5,0,0
42365,-100,4,2,1,50,0,0
43184,-100,4,2,1,5,0,0
43730,-100,4,2,1,50,0,0
46458,-100,4,2,1,5,0,0
47004,-100,4,2,1,50,0,0
50278,-100,4,2,0,50,0,0
50824,-100,4,2,0,5,0,0
50892,-100,4,2,0,50,0,0
52461,-100,4,2,2,60,0,0
53552,-100,4,2,2,20,0,0
53825,-100,4,2,2,60,0,0
55189,-100,4,2,2,5,0,0
55258,-100,4,2,2,60,0,0
55735,-100,4,2,2,5,0,0
55803,-100,4,2,2,60,0,0
56281,-100,4,2,2,5,0,0
56349,-100,4,2,2,60,0,0
56554,-100,4,2,2,20,0,0
56827,-100,4,2,2,60,0,0
57918,-100,4,2,2,20,0,0
58191,-100,4,2,2,60,0,0
59555,-100,4,2,2,20,0,0
59828,-100,4,2,2,60,0,0
60646,-100,4,2,2,5,0,0
60715,-100,4,2,2,60,0,0
60919,-100,4,2,2,20,0,0
61192,-100,4,2,2,60,0,0
63921,-100,4,2,2,5,0,0
63989,-100,4,2,2,60,0,0
67741,-100,4,2,2,60,0,0
68286,-100,4,2,2,5,0,0
68355,-100,4,2,2,60,0,0
69923,-100,4,2,2,60,0,0
71015,-100,4,2,2,20,0,0
71288,-100,4,2,2,60,0,0
72652,-100,4,2,2,5,0,0
72720,-100,4,2,2,60,0,0
73198,-100,4,2,2,5,0,0
73266,-100,4,2,2,60,0,0
73743,-100,4,2,2,5,0,0
73812,-100,4,2,2,60,0,0
74016,-100,4,2,2,20,0,0
74289,-100,4,2,2,60,0,0
75380,-100,4,2,2,20,0,0
75653,-100,4,2,2,60,0,0
77018,-100,4,2,2,5,0,0
77086,-100,4,2,2,60,0,0
78109,-100,4,2,2,5,0,0
78177,-100,4,2,2,60,0,0
78382,-100,4,2,2,20,0,0
78655,-100,4,2,2,60,0,0
79473,-100,4,2,2,20,0,0
79746,-100,4,2,2,60,0,0
80292,-100,4,2,2,20,0,0
80837,-100,4,2,2,60,0,0
81383,-100,4,2,2,5,0,0
81451,-100,4,2,2,60,0,0
81656,-100,4,2,2,20,0,0
81929,-100,4,2,2,60,0,0
83839,-100,4,2,2,20,0,0
84112,-100,4,2,2,60,0,0
85749,-100,4,2,2,5,0,0
85817,-100,4,2,2,60,0,0
86022,-100,4,2,2,20,0,0
86295,-100,4,2,2,60,0,0
86840,-100,4,2,2,5,0,0
86908,-100,4,2,2,60,0,0
87113,-100,4,2,2,20,0,0
88477,-100,4,2,2,15,0,0
89023,-100,4,2,2,10,0,0
89569,-100,4,2,2,5,0,0

[Colours]
Combo1 : 255,192,0
Combo2 : 0,128,192
Combo3 : 176,88,0
Combo4 : 55,183,210

[HitObjects]
112,40,74,6,0,P|168:33|224:28,1,100,2|0,0:0|0:0,0:0:0:0:
252,132,1165,2,0,P|195:125|140:120,1,100,2|0,0:0|0:0,0:0:0:0:
68,192,2256,2,0,P|38:246|130:346,1,200,2|2,0:0|0:0,0:0:0:0:
304,236,4439,6,0,P|356:224|408:240,1,100,2|0,0:0|0:0,0:0:0:0:
352,336,5531,2,0,P|303:347|255:335,1,100,2|0,0:0|0:0,0:0:0:0:
176,260,6622,2,0,P|164:220|192:104,2,150,2|0|0,0:0|0:0|0:0,0:0:0:0:
255,335,8805,6,0,P|303:347|352:336,1,100,2|0,0:0|0:0,0:0:0:0:
429,258,9896,2,0,P|441:209|429:161,1,100,2|0,0:0|0:0,0:0:0:0:
368,68,10988,2,0,B|332:96|276:64|276:64|228:36|176:68,1,200,2|2,0:0|0:0,0:0:0:0:
48,244,13170,5,2,0:0:0:0:
132,316,13716,2,0,P|176:324|232:304,1,100,0|2,0:0|0:0,0:0:0:0:
305,229,14807,1,0,0:0:0:0:
382,306,15353,1,2,0:0:0:0:
382,306,17536,6,0,P|386:248|388:200,1,100,2|0,0:0|0:0,0:0:0:0:
288,156,18627,2,0,P|292:213|294:262,1,100,2|0,0:0|0:0,0:0:0:0:
215,333,19719,2,0,P|148:348|88:236,1,200,2|2,0:0|0:0,0:0:0:0:
181,53,21902,6,0,P|234:48|289:45,1,100,2|0,0:0|0:0,0:0:0:0:
340,140,22993,2,0,P|286:135|232:132,1,100,2|0,0:0|0:0,0:0:0:0:
212,240,24084,2,0,P|293:232|378:227,2,150,2|0|0,0:0|0:0|0:0,0:0:0:0:
124,304,26267,6,0,P|74:320|29:302,1,100,2|0,0:0|0:0,0:0:0:0:
31,193,27359,2,0,P|77:176|123:192,1,100,2|0,0:0|0:0,0:0:0:0:
222,143,28450,2,0,B|270:113|318:141|318:141|374:173|410:145,1,200,2|2,0:0|0:0,0:0:0:0:
480,60,30087,1,0,0:0:0:0:
500,168,30633,6,0,P|508:216|496:284,1,100,2|0,0:0|0:0,0:0:0:0:
421,345,31724,2,0,P|368:356|308:333,1,100,2|0,0:0|0:0,0:0:0:0:
219,311,32816,2,0,P|191:283|232:137,1,200,0|2,0:0|0:0,0:0:0:0:
428,216,34998,6,0,P|373:217|320:220,1,100,2|0,0:0|0:0,0:0:0:0:
233,275,36090,2,0,P|178:273|125:271,1,100,2|0,0:0|0:0,0:0:0:0:
55,193,37181,2,0,P|43:149|171:89,1,200,2|2,0:0|0:0,0:0:0:0:
364,144,39364,6,0,P|404:141|472:136,1,100,2|0,0:0|0:0,0:0:0:0:
396,52,40455,2,0,P|355:49|288:44,1,100,2|0,0:0|0:0,0:0:0:0:
208,108,41547,2,0,P|180:167|212:248,2,150,0|0|0,0:0|0:0|0:0,0:0:0:0:
296,44,43730,6,0,P|346:48|396:52,1,100,2|0,0:0|0:0,0:0:0:0:
463,136,44821,2,0,P|472:188|452:240,1,100,2|0,0:0|0:0,0:0:0:0:
376,308,45913,2,0,P|289:333|252:232,1,200,0|2,0:0|0:0,0:0:0:0:
344,200,47550,1,0,0:0:0:0:
266,122,48095,6,0,P|218:126|162:130,1,100,2|0,0:0|0:0,0:0:0:0:
112,32,49187,2,0,P|160:36|216:40,1,100,2|0,0:0|0:0,0:0:0:0:
320,32,50278,2,0,B|356:60|412:28|412:28|460:0|508:29,1,200,0|0,0:0|0:0,0:0:0:0:
508,29,52461,6,0,P|506:135|384:188,1,250,6|0,0:0|0:0,0:0:0:0:
336,164,54098,2,0,P|315:167|276:172,1,50,0|0,0:0|0:0,0:0:0:0:
236,192,54644,2,0,P|192:256|96:120,1,300,2|0,0:0|0:0,0:0:0:0:
168,68,56827,6,0,B|213:32|285:73|285:73|346:108|408:71,1,250,2|0,0:0|0:0,0:0:0:0:
452,100,58464,2,0,P|465:123|468:152,1,50
444,196,59009,2,0,P|432:248|452:300,1,100,2|0,0:0|0:0,0:0:0:0:
484,332,59828,1,0,0:0:0:0:
440,368,60101,2,0,P|396:376|340:348,1,100,2|0,0:0|0:0,0:0:0:0:
280,264,61192,6,0,P|229:196|115:235,1,200,0|0,0:0|0:0,0:0:0:0:
84,252,62556,1,0,0:0:0:0:
48,212,62829,2,0,P|46:175|48:144,1,50,0|0,0:0|0:0,0:0:0:0:
64,112,63375,2,0,P|140:52|240:80,1,200,2|2,0:0|0:0,0:0:0:0:
316,148,65012,1,0,0:0:0:0:
416,104,65558,6,0,P|406:208|239:223,1,300,2|0,0:0|0:0,0:0:0:0:
200,184,67468,1,0,0:0:0:0:
161,145,67741,2,0,P|112:144|36:272,1,200,2|2,0:0|0:0,0:0:0:0:
33,257,69923,6,0,P|96:322|200:314,1,200,6|2,0:0|0:0,0:0:0:0:
237,275,71288,1,0,0:0:0:0:
275,236,71561,2,0,P|276:206|279:172,1,50
316,147,72106,2,0,P|364:147|420:359,1,300,2|0,0:0|0:0,0:0:0:0:
328,364,74289,6,0,P|253:347|253:196,1,250,2|0,0:0|0:0,0:0:0:0:
289,160,75926,2,0,P|288:114|287:90,1,50
272,58,76472,2,0,P|224:22|168:34,1,100,2|0,0:0|0:0,0:0:0:0:
136,48,77290,1,0,0:0:0:0:
100,92,77563,2,0,P|106:147|114:195,1,100,2|0,0:0|0:0,0:0:0:0:
156,292,78655,6,0,P|228:276|296:336,1,150,2|2,0:0|0:0,0:0:0:0:
328,356,79746,2,0,P|384:348|432:328,1,100
476,236,80837,2,0,P|441:177|320:208,1,200,2|2,0:0|0:0,0:0:0:0:
248,276,82475,1,0,0:0:0:0:
136,260,83020,6,0,P|85:231|116:64,1,250,2|0,0:0|0:0,0:0:0:0:
160,52,84657,2,0,P|200:52|232:56,1,50
256,84,85203,2,0,P|312:152|381:160,1,150,2|0,0:0|0:0,0:0:0:0:
420,180,86295,2,0,P|440:220|408:328,1,150,2|0,0:0|0:0,0:0:0:0:
256,192,87386,12,0,89569,0:0:0:0:
