osu file format v14

[General]
AudioFilename: audio.mp3
AudioLeadIn: 0
PreviewTime: 112463
Countdown: 0
SampleSet: Soft
StackLeniency: 0.7
Mode: 3
LetterboxInBreaks: 0
SpecialStyle: 0
WidescreenStoryboard: 1

[Editor]
DistanceSpacing: 0.8
BeatDivisor: 4
GridSize: 4
TimelineZoom: 1.3

[Metadata]
Title:A New King Is Born
TitleUnicode:A New King Is Born
Artist:Loki
ArtistUnicode:Loki
Creator:abraker
Version:Hard
Source:
Tags:
BeatmapID:1467130
BeatmapSetID:693366

[Difficulty]
HPDrainRate:8
CircleSize:4
OverallDifficulty:6
ApproachRate:5
SliderMultiplier:1.4
SliderTickRate:1

[Events]
//Background and Video events
0,0,"1280x1024-1b851cab8969c1a2aa7cfeddbbec1574.jpg",0,0
//Break Periods
//Storyboard Layer 0 (Background)
//Storyboard Layer 1 (Fail)
//Storyboard Layer 2 (Pass)
//Storyboard Layer 3 (Foreground)
//Storyboard Sound Samples

[TimingPoints]
42,315.789473684211,4,2,0,100,1,0
112463,-100,4,2,0,100,0,1
132673,-100,4,2,0,100,0,0
178147,-100,4,2,0,100,0,1
198357,-100,4,2,0,100,0,0

[HitObjects]
64,192,42,128,0,989:0:0:0:0:
192,192,42,128,0,989:0:0:0:0:
448,192,42,128,8,989:0:0:0:0:
192,192,1305,128,0,2252:0:0:0:0:
320,192,1305,128,0,2252:0:0:0:0:
64,192,1305,128,8,2252:0:0:0:0:
448,192,2568,128,8,2884:0:0:0:0:
64,192,2568,128,0,2884:0:0:0:0:
320,192,2568,128,0,2884:0:0:0:0:
192,192,3199,128,0,3515:0:0:0:0:
320,192,3199,128,0,3515:0:0:0:0:
64,192,3199,128,8,3515:0:0:0:0:
448,192,3831,128,8,4778:0:0:0:0:
320,192,3831,128,0,4778:0:0:0:0:
192,192,3831,128,0,4463:0:0:0:0:
64,192,4463,1,0,0:0:0:0:
64,192,4778,1,0,0:0:0:0:
320,192,5094,128,0,5410:0:0:0:0:
448,192,5094,128,0,5410:0:0:0:0:
64,192,5094,128,8,5410:0:0:0:0:
192,192,5726,128,0,6042:0:0:0:0:
448,192,5726,128,8,6042:0:0:0:0:
64,192,5726,128,0,6042:0:0:0:0:
320,192,6357,128,0,7305:0:0:0:0:
192,192,6357,128,0,6989:0:0:0:0:
448,192,6357,128,8,7305:0:0:0:0:
64,192,6989,1,0,0:0:0:0:
192,192,7620,128,0,7936:0:0:0:0:
64,192,7620,128,8,7936:0:0:0:0:
448,192,7620,128,0,7936:0:0:0:0:
448,192,8252,128,8,8568:0:0:0:0:
320,192,8252,128,0,8568:0:0:0:0:
192,192,8252,128,0,8568:0:0:0:0:
448,192,8884,1,8,0:0:0:0:
448,192,9042,1,0,0:0:0:0:
320,192,9199,1,0,0:0:0:0:
64,192,9278,1,0,0:0:0:0:
448,192,9357,1,0,0:0:0:0:
192,192,9515,1,0,0:0:0:0:
320,192,9673,1,0,0:0:0:0:
192,192,9831,1,0,0:0:0:0:
448,192,9910,1,0,0:0:0:0:
64,192,9989,1,0,0:0:0:0:
448,192,10147,128,8,11094:0:0:0:0:
192,192,10147,128,0,11094:0:0:0:0:
320,192,10147,128,0,11094:0:0:0:0:
64,192,11410,128,8,12357:0:0:0:0:
192,192,11410,128,0,12357:0:0:0:0:
320,192,11410,128,0,12357:0:0:0:0:
448,192,12673,128,8,12989:0:0:0:0:
320,192,12673,128,0,12989:0:0:0:0:
192,192,12673,128,0,12989:0:0:0:0:
320,192,13305,128,0,13620:0:0:0:0:
192,192,13305,128,0,13620:0:0:0:0:
64,192,13305,128,8,13620:0:0:0:0:
320,192,13936,128,0,14884:0:0:0:0:
448,192,13936,128,0,14884:0:0:0:0:
64,192,13936,128,8,14884:0:0:0:0:
192,192,14568,1,0,0:0:0:0:
192,192,14884,1,0,0:0:0:0:
192,192,15199,128,0,15515:0:0:0:0:
320,192,15199,128,0,15515:0:0:0:0:
448,192,15199,128,8,15515:0:0:0:0:
64,192,15831,128,8,16147:0:0:0:0:
320,192,15831,128,0,16147:0:0:0:0:
448,192,15831,128,0,16147:0:0:0:0:
320,192,16463,128,8,17410:0:0:0:0:
448,192,16463,128,0,17410:0:0:0:0:
192,192,16463,128,0,17094:0:0:0:0:
64,192,17094,1,0,0:0:0:0:
320,192,17726,128,0,18042:0:0:0:0:
64,192,17726,1,0,0:0:0:0:
192,192,17726,128,0,18042:0:0:0:0:
448,192,18042,1,0,0:0:0:0:
192,192,18199,1,0,0:0:0:0:
448,192,18357,128,0,18673:0:0:0:0:
64,192,18357,128,0,18989:0:0:0:0:
320,192,18357,1,0,0:0:0:0:
192,192,18673,128,0,20252:0:0:0:0:
448,192,18989,128,0,19936:0:0:0:0:
320,192,18989,128,0,19936:0:0:0:0:
448,192,20252,1,0,0:0:0:0:
192,192,20410,1,0,0:0:0:0:
448,192,20568,1,0,0:0:0:0:
192,192,20726,1,0,0:0:0:0:
448,192,20884,1,8,0:0:0:0:
320,192,20884,1,8,0:0:0:0:
64,192,21042,1,0,0:0:0:0:
448,192,21120,1,0,0:0:0:0:
192,192,21199,1,0,0:0:0:0:
192,192,21357,1,0,0:0:0:0:
64,192,21515,128,8,21831:0:0:0:0:
320,192,21515,1,0,0:0:0:0:
448,192,21515,1,0,0:0:0:0:
448,192,21831,1,8,0:0:0:0:
320,192,21831,1,0,0:0:0:0:
192,192,21989,1,0,0:0:0:0:
320,192,22147,128,0,22305:0:0:0:0:
64,192,22305,128,0,22463:0:0:0:0:
320,192,22463,128,0,22620:0:0:0:0:
64,192,22620,128,0,22778:0:0:0:0:
448,192,22778,128,8,23094:0:0:0:0:
64,192,23094,128,8,23252:0:0:0:0:
320,192,23252,128,0,23410:0:0:0:0:
192,192,23410,128,8,23568:0:0:0:0:
448,192,23568,128,0,23726:0:0:0:0:
192,192,23726,128,0,23884:0:0:0:0:
448,192,23884,128,0,24042:0:0:0:0:
64,192,24042,128,8,24357:0:0:0:0:
448,192,24357,128,8,24515:0:0:0:0:
64,192,24515,128,8,24673:0:0:0:0:
320,192,24673,128,8,24989:0:0:0:0:
64,192,24989,1,0,0:0:0:0:
320,192,25147,1,0,0:0:0:0:
192,192,25305,128,8,25620:0:0:0:0:
320,192,25620,128,8,25936:0:0:0:0:
64,192,25936,128,8,26094:0:0:0:0:
448,192,26094,1,0,0:0:0:0:
320,192,26173,1,0,0:0:0:0:
64,192,26252,1,8,0:0:0:0:
192,192,26252,1,8,0:0:0:0:
448,192,26568,128,8,26884:0:0:0:0:
320,192,26568,1,8,0:0:0:0:
64,192,26568,1,0,0:0:0:0:
64,192,26884,1,0,0:0:0:0:
192,192,26884,1,0,0:0:0:0:
320,192,27042,1,0,0:0:0:0:
192,192,27199,128,0,27357:0:0:0:0:
448,192,27357,128,0,27515:0:0:0:0:
192,192,27515,128,0,27673:0:0:0:0:
448,192,27673,128,0,27831:0:0:0:0:
64,192,27831,128,8,28147:0:0:0:0:
448,192,28147,128,8,28305:0:0:0:0:
192,192,28305,128,0,28463:0:0:0:0:
320,192,28463,128,8,28620:0:0:0:0:
64,192,28620,128,0,28778:0:0:0:0:
320,192,28778,128,0,28936:0:0:0:0:
64,192,28936,128,0,29094:0:0:0:0:
448,192,29094,128,8,29410:0:0:0:0:
64,192,29410,128,8,29568:0:0:0:0:
448,192,29568,128,8,29726:0:0:0:0:
192,192,29726,128,8,30042:0:0:0:0:
448,192,30042,128,0,30199:0:0:0:0:
64,192,30199,128,0,30357:0:0:0:0:
320,192,30357,128,8,30515:0:0:0:0:
448,192,30357,1,8,0:0:0:0:
192,192,30515,128,8,30673:0:0:0:0:
448,192,30673,128,8,30831:0:0:0:0:
320,192,30831,128,8,30989:0:0:0:0:
64,192,30989,128,8,31147:0:0:0:0:
448,192,31147,1,0,0:0:0:0:
320,192,31226,1,0,0:0:0:0:
64,192,31305,1,8,0:0:0:0:
192,192,31305,1,8,0:0:0:0:
448,192,31620,128,8,31936:0:0:0:0:
320,192,31620,1,0,0:0:0:0:
64,192,31620,1,0,0:0:0:0:
64,192,31936,1,0,0:0:0:0:
192,192,31936,1,0,0:0:0:0:
320,192,32094,1,0,0:0:0:0:
192,192,32252,128,0,32410:0:0:0:0:
448,192,32410,128,0,32568:0:0:0:0:
192,192,32568,128,0,32726:0:0:0:0:
448,192,32726,128,0,32884:0:0:0:0:
64,192,32884,128,8,33199:0:0:0:0:
448,192,33199,128,8,33357:0:0:0:0:
192,192,33357,128,8,33515:0:0:0:0:
320,192,33515,128,8,33673:0:0:0:0:
64,192,33673,128,0,33831:0:0:0:0:
320,192,33831,128,0,33989:0:0:0:0:
64,192,33989,128,0,34147:0:0:0:0:
448,192,34147,128,8,34463:0:0:0:0:
64,192,34463,128,8,34620:0:0:0:0:
448,192,34620,128,8,34778:0:0:0:0:
192,192,34778,128,8,35094:0:0:0:0:
448,192,35094,1,0,0:0:0:0:
192,192,35252,1,0,0:0:0:0:
320,192,35410,128,8,35726:0:0:0:0:
192,192,35726,128,8,36042:0:0:0:0:
448,192,36042,128,8,36199:0:0:0:0:
64,192,36199,1,0,0:0:0:0:
192,192,36278,1,0,0:0:0:0:
448,192,36357,1,8,0:0:0:0:
320,192,36357,1,8,0:0:0:0:
64,192,36673,128,0,36989:0:0:0:0:
192,192,36673,1,0,0:0:0:0:
448,192,36673,1,0,0:0:0:0:
320,192,36989,1,0,0:0:0:0:
448,192,36989,1,0,0:0:0:0:
192,192,37147,1,0,0:0:0:0:
320,192,37305,128,0,37463:0:0:0:0:
64,192,37463,128,0,37620:0:0:0:0:
320,192,37620,128,0,37778:0:0:0:0:
64,192,37778,128,0,37936:0:0:0:0:
448,192,37936,128,8,38252:0:0:0:0:
64,192,38252,128,8,38410:0:0:0:0:
320,192,38410,128,8,38568:0:0:0:0:
192,192,38568,128,8,38726:0:0:0:0:
448,192,38726,128,0,38884:0:0:0:0:
192,192,38884,128,0,39042:0:0:0:0:
448,192,39042,128,0,39199:0:0:0:0:
64,192,39199,128,8,39515:0:0:0:0:
448,192,39515,128,8,39673:0:0:0:0:
64,192,39673,128,8,39831:0:0:0:0:
320,192,39831,128,8,40147:0:0:0:0:
64,192,40147,128,0,40305:0:0:0:0:
448,192,40305,128,0,40463:0:0:0:0:
192,192,40463,128,8,40620:0:0:0:0:
64,192,40463,1,8,0:0:0:0:
320,192,40620,128,8,40778:0:0:0:0:
64,192,40778,128,8,40936:0:0:0:0:
192,192,40936,128,8,41094:0:0:0:0:
448,192,41094,128,8,41252:0:0:0:0:
64,192,41252,1,0,0:0:0:0:
192,192,41331,1,0,0:0:0:0:
448,192,41410,1,8,0:0:0:0:
320,192,41410,1,8,0:0:0:0:
448,192,41726,128,8,42042:0:0:0:0:
192,192,41726,1,8,0:0:0:0:
64,192,41884,1,0,0:0:0:0:
320,192,42042,1,0,0:0:0:0:
448,192,42199,1,0,0:0:0:0:
64,192,42357,128,8,42673:0:0:0:0:
192,192,42357,1,8,0:0:0:0:
448,192,42673,128,8,42831:0:0:0:0:
320,192,42673,1,8,0:0:0:0:
192,192,42831,128,8,42989:0:0:0:0:
320,192,42989,128,8,43147:0:0:0:0:
64,192,43147,1,0,0:0:0:0:
448,192,43305,1,0,0:0:0:0:
192,192,43463,1,0,0:0:0:0:
64,192,43620,128,8,43778:0:0:0:0:
448,192,43778,1,0,0:0:0:0:
320,192,43936,128,8,44094:0:0:0:0:
64,192,44094,1,8,0:0:0:0:
320,192,44252,1,8,0:0:0:0:
192,192,44410,1,0,0:0:0:0:
448,192,44568,1,0,0:0:0:0:
192,192,44726,1,0,0:0:0:0:
320,192,44884,128,8,45199:0:0:0:0:
64,192,45199,1,0,0:0:0:0:
320,192,45357,1,0,0:0:0:0:
192,192,45515,128,8,45831:0:0:0:0:
448,192,45831,1,0,0:0:0:0:
192,192,45989,1,0,0:0:0:0:
320,192,46147,1,0,0:0:0:0:
64,192,46305,1,0,0:0:0:0:
320,192,46463,1,0,0:0:0:0:
192,192,46542,1,0,0:0:0:0:
64,192,46620,1,0,0:0:0:0:
320,192,46699,1,0,0:0:0:0:
192,192,46778,1,8,0:0:0:0:
448,192,46778,128,8,46936:0:0:0:0:
448,192,47094,1,0,0:0:0:0:
64,192,47252,1,0,0:0:0:0:
192,192,47410,128,8,47568:0:0:0:0:
448,192,47726,128,8,47884:0:0:0:0:
320,192,47726,1,8,0:0:0:0:
64,192,47884,128,8,48042:0:0:0:0:
192,192,48042,128,8,48199:0:0:0:0:
448,192,48357,1,0,0:0:0:0:
64,192,48515,1,0,0:0:0:0:
320,192,48673,128,8,48831:0:0:0:0:
64,192,48831,128,8,48989:0:0:0:0:
448,192,48989,128,8,49147:0:0:0:0:
192,192,49305,1,8,0:0:0:0:
448,192,49463,1,8,0:0:0:0:
192,192,49620,1,8,0:0:0:0:
320,192,49778,1,8,0:0:0:0:
192,192,49936,1,8,0:0:0:0:
448,192,50094,1,8,0:0:0:0:
192,192,50252,1,8,0:0:0:0:
64,192,50410,1,8,0:0:0:0:
448,192,50568,128,8,50726:0:0:0:0:
64,192,50726,128,0,50884:0:0:0:0:
448,192,50884,128,0,51042:0:0:0:0:
320,192,51042,128,0,51199:0:0:0:0:
192,192,51199,128,0,51357:0:0:0:0:
64,192,51357,128,0,51515:0:0:0:0:
448,192,51515,1,8,0:0:0:0:
192,192,51673,1,8,0:0:0:0:
64,192,51831,128,8,52147:0:0:0:0:
448,192,51831,1,8,0:0:0:0:
320,192,51831,1,8,0:0:0:0:
192,192,52147,1,0,0:0:0:0:
64,192,52305,1,0,0:0:0:0:
448,192,52463,128,8,52778:0:0:0:0:
320,192,52463,1,8,0:0:0:0:
64,192,52778,128,8,52936:0:0:0:0:
192,192,52778,1,8,0:0:0:0:
320,192,52936,128,8,53094:0:0:0:0:
192,192,53094,128,8,53252:0:0:0:0:
448,192,53252,1,0,0:0:0:0:
64,192,53410,1,0,0:0:0:0:
320,192,53568,1,0,0:0:0:0:
448,192,53726,128,8,53884:0:0:0:0:
64,192,53884,1,0,0:0:0:0:
192,192,54042,128,8,54199:0:0:0:0:
448,192,54199,1,8,0:0:0:0:
192,192,54357,1,8,0:0:0:0:
320,192,54515,1,0,0:0:0:0:
64,192,54673,1,0,0:0:0:0:
320,192,54831,1,0,0:0:0:0:
192,192,54989,128,8,55305:0:0:0:0:
448,192,55305,1,0,0:0:0:0:
192,192,55463,1,0,0:0:0:0:
320,192,55620,128,8,55936:0:0:0:0:
64,192,55936,1,0,0:0:0:0:
320,192,56094,1,0,0:0:0:0:
192,192,56252,1,0,0:0:0:0:
448,192,56410,1,0,0:0:0:0:
192,192,56568,1,0,0:0:0:0:
320,192,56647,1,0,0:0:0:0:
448,192,56726,1,0,0:0:0:0:
192,192,56805,1,0,0:0:0:0:
64,192,56884,128,8,57042:0:0:0:0:
320,192,56884,1,8,0:0:0:0:
64,192,57199,1,0,0:0:0:0:
448,192,57357,1,0,0:0:0:0:
320,192,57515,128,8,57673:0:0:0:0:
64,192,57831,128,8,57989:0:0:0:0:
192,192,57831,1,8,0:0:0:0:
448,192,57989,128,8,58147:0:0:0:0:
320,192,58147,128,8,58305:0:0:0:0:
64,192,58463,1,0,0:0:0:0:
448,192,58620,1,0,0:0:0:0:
192,192,58778,128,8,58936:0:0:0:0:
448,192,58936,128,8,59094:0:0:0:0:
64,192,59094,128,8,59252:0:0:0:0:
320,192,59410,1,8,0:0:0:0:
64,192,59568,1,8,0:0:0:0:
320,192,59726,1,8,0:0:0:0:
192,192,59884,1,8,0:0:0:0:
320,192,60042,1,8,0:0:0:0:
64,192,60199,1,8,0:0:0:0:
320,192,60357,1,8,0:0:0:0:
448,192,60515,1,8,0:0:0:0:
64,192,60673,1,8,0:0:0:0:
320,192,60673,1,8,0:0:0:0:
64,192,61936,5,8,0:0:0:0:
320,192,61936,1,8,0:0:0:0:
448,192,62094,5,0,0:0:0:0:
192,192,62252,1,8,0:0:0:0:
64,192,62252,1,8,0:0:0:0:
320,192,62568,1,8,0:0:0:0:
64,192,62568,1,8,0:0:0:0:
192,192,62726,1,8,0:0:0:0:
448,192,62884,1,0,0:0:0:0:
64,192,62884,1,0,0:0:0:0:
320,192,63042,1,8,0:0:0:0:
192,192,63199,1,8,0:0:0:0:
448,192,63199,1,8,0:0:0:0:
64,192,63515,128,8,63831:0:0:0:0:
320,192,63831,1,8,0:0:0:0:
448,192,63831,128,8,64463:0:0:0:0:
64,192,64463,1,8,0:0:0:0:
192,192,64463,1,8,0:0:0:0:
448,192,64778,1,8,0:0:0:0:
320,192,64936,1,0,0:0:0:0:
64,192,65094,1,8,0:0:0:0:
192,192,65094,1,8,0:0:0:0:
320,192,65252,1,8,0:0:0:0:
448,192,65410,1,0,0:0:0:0:
64,192,65410,1,0,0:0:0:0:
192,192,65568,1,8,0:0:0:0:
320,192,65726,1,8,0:0:0:0:
448,192,65726,1,8,0:0:0:0:
448,192,66042,1,8,0:0:0:0:
192,192,66042,1,8,0:0:0:0:
64,192,66357,1,8,0:0:0:0:
192,192,66357,1,8,0:0:0:0:
448,192,66515,1,8,0:0:0:0:
192,192,66673,1,8,0:0:0:0:
448,192,66831,1,8,0:0:0:0:
64,192,66989,1,8,0:0:0:0:
192,192,66989,1,8,0:0:0:0:
320,192,66989,1,8,0:0:0:0:
192,192,67305,1,8,0:0:0:0:
448,192,67305,1,8,0:0:0:0:
64,192,67305,1,8,0:0:0:0:
192,192,67620,1,8,0:0:0:0:
448,192,67620,1,8,0:0:0:0:
320,192,67778,1,8,0:0:0:0:
448,192,67936,1,0,0:0:0:0:
64,192,67936,1,0,0:0:0:0:
192,192,68094,1,8,0:0:0:0:
64,192,68252,1,8,0:0:0:0:
320,192,68252,1,8,0:0:0:0:
64,192,68568,128,8,68884:0:0:0:0:
448,192,68884,128,8,69515:0:0:0:0:
320,192,68884,1,8,0:0:0:0:
192,192,69515,1,8,0:0:0:0:
448,192,69673,1,8,0:0:0:0:
192,192,69831,1,8,0:0:0:0:
448,192,69989,1,8,0:0:0:0:
192,192,70147,1,8,0:0:0:0:
64,192,70147,1,8,0:0:0:0:
320,192,70305,1,8,0:0:0:0:
64,192,70463,128,8,70620:0:0:0:0:
448,192,70463,1,8,0:0:0:0:
192,192,70620,128,8,70778:0:0:0:0:
320,192,70778,128,8,71252:0:0:0:0:
320,192,71410,1,8,0:0:0:0:
64,192,71568,1,8,0:0:0:0:
320,192,71726,1,8,0:0:0:0:
448,192,71726,1,8,0:0:0:0:
192,192,71884,1,0,0:0:0:0:
448,192,72042,1,8,0:0:0:0:
320,192,72042,1,8,0:0:0:0:
64,192,72042,1,8,0:0:0:0:
448,192,72357,1,8,0:0:0:0:
192,192,72357,1,8,0:0:0:0:
64,192,72357,1,8,0:0:0:0:
64,192,72673,1,8,0:0:0:0:
320,192,72673,1,8,0:0:0:0:
192,192,72831,1,8,0:0:0:0:
448,192,72989,1,0,0:0:0:0:
64,192,72989,1,0,0:0:0:0:
320,192,73147,1,8,0:0:0:0:
192,192,73305,1,8,0:0:0:0:
448,192,73305,1,8,0:0:0:0:
448,192,73620,128,8,73936:0:0:0:0:
192,192,73936,1,8,0:0:0:0:
64,192,73936,128,8,74568:0:0:0:0:
448,192,74568,1,8,0:0:0:0:
320,192,74568,1,8,0:0:0:0:
64,192,74884,1,8,0:0:0:0:
192,192,75042,1,0,0:0:0:0:
320,192,75199,1,8,0:0:0:0:
448,192,75199,1,8,0:0:0:0:
192,192,75357,1,8,0:0:0:0:
64,192,75515,1,0,0:0:0:0:
448,192,75515,1,0,0:0:0:0:
320,192,75673,1,8,0:0:0:0:
192,192,75831,1,8,0:0:0:0:
64,192,75831,1,8,0:0:0:0:
320,192,76147,1,8,0:0:0:0:
64,192,76147,1,8,0:0:0:0:
320,192,76463,1,8,0:0:0:0:
448,192,76463,1,8,0:0:0:0:
64,192,76620,1,8,0:0:0:0:
320,192,76778,1,8,0:0:0:0:
64,192,76936,1,8,0:0:0:0:
192,192,77094,1,8,0:0:0:0:
320,192,77094,1,8,0:0:0:0:
448,192,77094,1,8,0:0:0:0:
448,192,77410,1,8,0:0:0:0:
64,192,77410,1,8,0:0:0:0:
320,192,77410,1,8,0:0:0:0:
448,192,77726,1,8,0:0:0:0:
192,192,77726,1,8,0:0:0:0:
320,192,77884,1,8,0:0:0:0:
64,192,78042,1,0,0:0:0:0:
448,192,78042,1,0,0:0:0:0:
192,192,78199,1,8,0:0:0:0:
320,192,78357,1,8,0:0:0:0:
64,192,78357,1,8,0:0:0:0:
64,192,78673,128,8,78989:0:0:0:0:
320,192,78989,1,8,0:0:0:0:
448,192,78989,128,8,79620:0:0:0:0:
192,192,79620,1,8,0:0:0:0:
448,192,79778,1,8,0:0:0:0:
192,192,79936,1,8,0:0:0:0:
448,192,80094,1,8,0:0:0:0:
192,192,80252,1,8,0:0:0:0:
64,192,80252,1,8,0:0:0:0:
320,192,80410,1,8,0:0:0:0:
64,192,80568,128,8,80726:0:0:0:0:
448,192,80568,1,8,0:0:0:0:
192,192,80726,128,8,80884:0:0:0:0:
448,192,80884,128,8,81199:0:0:0:0:
64,192,81199,128,8,81515:0:0:0:0:
320,192,81515,1,8,0:0:0:0:
448,192,81515,128,8,81831:0:0:0:0:
192,192,81831,128,8,81989:0:0:0:0:
64,192,81831,1,8,0:0:0:0:
448,192,81989,1,0,0:0:0:0:
320,192,82147,1,8,0:0:0:0:
64,192,82147,128,0,82463:0:0:0:0:
320,192,82463,1,8,0:0:0:0:
448,192,82463,1,8,0:0:0:0:
192,192,82620,1,0,0:0:0:0:
320,192,82778,128,0,82936:0:0:0:0:
64,192,82936,128,0,83094:0:0:0:0:
320,192,83094,128,0,83252:0:0:0:0:
64,192,83252,128,0,83410:0:0:0:0:
448,192,83410,128,8,83726:0:0:0:0:
64,192,83726,128,8,83884:0:0:0:0:
320,192,83884,128,8,84042:0:0:0:0:
192,192,84042,128,8,84199:0:0:0:0:
448,192,84199,128,0,84357:0:0:0:0:
192,192,84357,128,0,84515:0:0:0:0:
448,192,84515,128,0,84673:0:0:0:0:
64,192,84673,128,8,84989:0:0:0:0:
448,192,84989,128,8,85147:0:0:0:0:
64,192,85147,128,8,85305:0:0:0:0:
320,192,85305,128,8,85463:0:0:0:0:
64,192,85620,1,0,0:0:0:0:
320,192,85778,1,0,0:0:0:0:
64,192,85936,128,8,86252:0:0:0:0:
320,192,86252,128,8,86568:0:0:0:0:
192,192,86568,128,8,86726:0:0:0:0:
448,192,86805,1,0,0:0:0:0:
64,192,86884,1,8,0:0:0:0:
192,192,86884,1,8,0:0:0:0:
448,192,87199,128,0,87515:0:0:0:0:
320,192,87199,1,0,0:0:0:0:
64,192,87199,1,0,0:0:0:0:
192,192,87515,1,8,0:0:0:0:
64,192,87515,1,8,0:0:0:0:
320,192,87673,1,0,0:0:0:0:
192,192,87831,128,0,87989:0:0:0:0:
448,192,87989,128,0,88147:0:0:0:0:
192,192,88147,128,0,88305:0:0:0:0:
448,192,88305,128,0,88463:0:0:0:0:
64,192,88463,128,8,88778:0:0:0:0:
448,192,88778,128,8,88936:0:0:0:0:
192,192,88936,128,8,89094:0:0:0:0:
320,192,89094,128,8,89252:0:0:0:0:
64,192,89252,128,0,89410:0:0:0:0:
320,192,89410,128,0,89568:0:0:0:0:
64,192,89568,128,0,89726:0:0:0:0:
448,192,89726,128,8,90042:0:0:0:0:
64,192,90042,128,8,90199:0:0:0:0:
448,192,90199,128,8,90357:0:0:0:0:
192,192,90357,128,8,90673:0:0:0:0:
448,192,90673,128,8,90831:0:0:0:0:
64,192,90831,128,8,90989:0:0:0:0:
320,192,90989,128,8,91147:0:0:0:0:
448,192,90989,1,8,0:0:0:0:
192,192,91147,128,8,91305:0:0:0:0:
448,192,91305,128,8,91463:0:0:0:0:
320,192,91463,128,8,91620:0:0:0:0:
64,192,91620,128,8,91778:0:0:0:0:
448,192,91778,1,0,0:0:0:0:
320,192,91857,1,0,0:0:0:0:
64,192,91936,1,8,0:0:0:0:
192,192,91936,1,8,0:0:0:0:
448,192,92252,128,8,92568:0:0:0:0:
320,192,92252,1,0,0:0:0:0:
64,192,92252,1,0,0:0:0:0:
64,192,92568,1,8,0:0:0:0:
192,192,92568,1,8,0:0:0:0:
320,192,92726,1,0,0:0:0:0:
192,192,92884,128,0,93042:0:0:0:0:
448,192,93042,128,0,93199:0:0:0:0:
192,192,93199,128,0,93357:0:0:0:0:
448,192,93357,128,0,93515:0:0:0:0:
64,192,93515,128,8,93831:0:0:0:0:
448,192,93831,128,8,93989:0:0:0:0:
192,192,93989,128,8,94147:0:0:0:0:
320,192,94147,128,8,94305:0:0:0:0:
64,192,94305,128,0,94463:0:0:0:0:
320,192,94463,128,0,94620:0:0:0:0:
64,192,94620,128,0,94778:0:0:0:0:
448,192,94778,128,8,95094:0:0:0:0:
64,192,95094,128,8,95252:0:0:0:0:
448,192,95252,128,8,95410:0:0:0:0:
192,192,95410,128,8,95568:0:0:0:0:
448,192,95726,1,0,0:0:0:0:
192,192,95884,1,0,0:0:0:0:
448,192,96042,128,8,96357:0:0:0:0:
192,192,96357,128,8,96673:0:0:0:0:
320,192,96673,128,8,96831:0:0:0:0:
64,192,96910,1,0,0:0:0:0:
320,192,96989,1,8,0:0:0:0:
448,192,96989,1,8,0:0:0:0:
64,192,97305,128,8,97620:0:0:0:0:
192,192,97305,1,0,0:0:0:0:
448,192,97305,1,0,0:0:0:0:
448,192,97620,1,8,0:0:0:0:
320,192,97620,1,8,0:0:0:0:
192,192,97778,1,0,0:0:0:0:
320,192,97936,128,0,98094:0:0:0:0:
64,192,98094,128,0,98252:0:0:0:0:
320,192,98252,128,0,98410:0:0:0:0:
64,192,98410,128,0,98568:0:0:0:0:
448,192,98568,128,8,98884:0:0:0:0:
64,192,98884,128,8,99042:0:0:0:0:
320,192,99042,128,8,99199:0:0:0:0:
192,192,99199,128,8,99357:0:0:0:0:
448,192,99357,128,0,99515:0:0:0:0:
192,192,99515,128,0,99673:0:0:0:0:
448,192,99673,128,0,99831:0:0:0:0:
64,192,99831,128,8,100147:0:0:0:0:
448,192,100147,128,8,100305:0:0:0:0:
64,192,100305,128,8,100463:0:0:0:0:
320,192,100463,128,8,100778:0:0:0:0:
64,192,100778,128,8,100936:0:0:0:0:
448,192,100936,128,8,101094:0:0:0:0:
64,192,101094,1,8,0:0:0:0:
192,192,101094,128,8,101252:0:0:0:0:
320,192,101252,128,8,101410:0:0:0:0:
64,192,101410,128,8,101568:0:0:0:0:
192,192,101568,128,8,101726:0:0:0:0:
448,192,101726,128,8,101884:0:0:0:0:
64,192,101884,1,0,0:0:0:0:
192,192,101963,1,0,0:0:0:0:
320,192,102042,1,8,0:0:0:0:
448,192,102042,1,8,0:0:0:0:
64,192,102357,1,8,0:0:0:0:
192,192,102357,1,8,0:0:0:0:
320,192,102515,1,8,0:0:0:0:
448,192,102673,1,8,0:0:0:0:
64,192,102673,1,8,0:0:0:0:
192,192,102831,1,8,0:0:0:0:
448,192,102989,1,8,0:0:0:0:
320,192,103147,1,0,0:0:0:0:
64,192,103147,1,0,0:0:0:0:
192,192,103305,1,0,0:0:0:0:
448,192,103463,1,8,0:0:0:0:
64,192,103620,1,8,0:0:0:0:
192,192,103778,1,0,0:0:0:0:
320,192,103936,1,0,0:0:0:0:
64,192,104094,1,0,0:0:0:0:
448,192,104094,1,0,0:0:0:0:
192,192,104252,1,0,0:0:0:0:
320,192,104410,1,0,0:0:0:0:
448,192,104568,1,0,0:0:0:0:
448,192,104884,1,8,0:0:0:0:
64,192,105042,1,8,0:0:0:0:
192,192,105199,1,8,0:0:0:0:
448,192,105357,1,8,0:0:0:0:
64,192,105436,1,0,0:0:0:0:
320,192,105515,1,0,0:0:0:0:
192,192,105673,1,0,0:0:0:0:
64,192,105831,1,8,0:0:0:0:
320,192,105831,1,8,0:0:0:0:
448,192,105989,1,8,0:0:0:0:
64,192,106147,1,8,0:0:0:0:
192,192,106305,1,0,0:0:0:0:
448,192,106305,1,0,0:0:0:0:
320,192,106463,1,8,0:0:0:0:
448,192,106620,1,0,0:0:0:0:
64,192,106620,1,8,0:0:0:0:
192,192,106778,1,8,0:0:0:0:
448,192,106936,1,0,0:0:0:0:
320,192,107094,1,8,0:0:0:0:
192,192,107410,1,8,0:0:0:0:
64,192,107410,1,8,0:0:0:0:
448,192,107568,1,8,0:0:0:0:
192,192,107726,1,8,0:0:0:0:
320,192,107884,1,8,0:0:0:0:
64,192,108042,1,8,0:0:0:0:
192,192,108199,1,0,0:0:0:0:
448,192,108199,1,0,0:0:0:0:
320,192,108357,1,0,0:0:0:0:
64,192,108515,1,8,0:0:0:0:
448,192,108673,1,8,0:0:0:0:
320,192,108831,1,0,0:0:0:0:
64,192,108831,1,0,0:0:0:0:
192,192,108989,1,0,0:0:0:0:
448,192,109147,1,0,0:0:0:0:
64,192,109147,1,0,0:0:0:0:
320,192,109305,1,0,0:0:0:0:
192,192,109463,1,0,0:0:0:0:
64,192,109620,1,0,0:0:0:0:
448,192,109620,1,0,0:0:0:0:
64,192,109936,1,8,0:0:0:0:
192,192,109936,1,8,0:0:0:0:
448,192,110094,1,8,0:0:0:0:
192,192,110252,1,8,0:0:0:0:
320,192,110410,1,8,0:0:0:0:
64,192,110568,1,0,0:0:0:0:
448,192,110568,1,8,0:0:0:0:
320,192,110726,1,0,0:0:0:0:
64,192,110884,1,8,0:0:0:0:
320,192,111042,1,8,0:0:0:0:
192,192,111199,1,8,0:0:0:0:
320,192,111357,1,0,0:0:0:0:
64,192,111515,1,8,0:0:0:0:
448,192,111515,1,0,0:0:0:0:
192,192,111673,1,8,0:0:0:0:
64,192,111831,1,8,0:0:0:0:
448,192,111831,1,8,0:0:0:0:
320,192,111831,1,8,0:0:0:0:
64,192,112463,1,8,0:0:0:0:
320,192,112463,1,8,0:0:0:0:
448,192,112463,1,8,0:0:0:0:
192,192,112620,1,8,0:0:0:0:
320,192,112778,1,8,0:0:0:0:
448,192,112778,1,8,0:0:0:0:
192,192,112936,1,8,0:0:0:0:
448,192,113094,1,8,0:0:0:0:
64,192,113094,1,8,0:0:0:0:
320,192,113252,1,0,0:0:0:0:
64,192,113410,1,0,0:0:0:0:
448,192,113410,1,0,0:0:0:0:
192,192,113568,1,8,0:0:0:0:
320,192,113726,1,8,0:0:0:0:
64,192,113726,1,8,0:0:0:0:
448,192,113884,1,0,0:0:0:0:
64,192,114042,1,0,0:0:0:0:
192,192,114042,1,0,0:0:0:0:
448,192,114199,1,0,0:0:0:0:
64,192,114357,1,0,0:0:0:0:
320,192,114357,1,0,0:0:0:0:
448,192,114515,1,0,0:0:0:0:
192,192,114673,1,0,0:0:0:0:
64,192,114673,1,0,0:0:0:0:
448,192,114831,1,0,0:0:0:0:
64,192,114989,1,0,0:0:0:0:
320,192,114989,1,8,0:0:0:0:
192,192,115147,1,8,0:0:0:0:
448,192,115305,1,0,0:0:0:0:
320,192,115305,1,8,0:0:0:0:
192,192,115463,1,8,0:0:0:0:
64,192,115620,1,8,0:0:0:0:
448,192,115620,1,0,0:0:0:0:
192,192,115778,1,0,0:0:0:0:
320,192,115936,1,0,0:0:0:0:
64,192,116094,1,8,0:0:0:0:
320,192,116252,1,8,0:0:0:0:
192,192,116410,1,0,0:0:0:0:
448,192,116568,1,8,0:0:0:0:
64,192,116568,1,8,0:0:0:0:
320,192,116726,1,0,0:0:0:0:
448,192,116884,1,8,0:0:0:0:
192,192,116884,1,8,0:0:0:0:
64,192,117042,1,0,0:0:0:0:
320,192,117199,1,8,0:0:0:0:
192,192,117278,1,8,0:0:0:0:
64,192,117357,1,8,0:0:0:0:
448,192,117357,1,8,0:0:0:0:
320,192,117436,1,8,0:0:0:0:
192,192,117515,1,8,0:0:0:0:
448,192,117673,1,8,0:0:0:0:
64,192,117831,1,8,0:0:0:0:
320,192,117831,1,8,0:0:0:0:
192,192,117989,1,8,0:0:0:0:
64,192,118147,1,8,0:0:0:0:
320,192,118147,1,8,0:0:0:0:
448,192,118305,1,0,0:0:0:0:
64,192,118463,1,8,0:0:0:0:
192,192,118463,1,8,0:0:0:0:
320,192,118620,1,8,0:0:0:0:
192,192,118778,1,8,0:0:0:0:
448,192,118778,1,8,0:0:0:0:
64,192,118936,1,0,0:0:0:0:
320,192,119094,1,0,0:0:0:0:
448,192,119094,1,0,0:0:0:0:
64,192,119252,1,0,0:0:0:0:
192,192,119410,1,0,0:0:0:0:
448,192,119410,1,0,0:0:0:0:
64,192,119568,1,0,0:0:0:0:
320,192,119726,1,0,0:0:0:0:
448,192,119726,1,0,0:0:0:0:
64,192,119884,1,0,0:0:0:0:
320,192,120042,1,8,0:0:0:0:
448,192,120042,1,8,0:0:0:0:
64,192,120199,1,8,0:0:0:0:
192,192,120357,1,8,0:0:0:0:
448,192,120357,1,8,0:0:0:0:
320,192,120515,1,8,0:0:0:0:
192,192,120673,1,8,0:0:0:0:
64,192,120673,1,8,0:0:0:0:
320,192,120831,1,0,0:0:0:0:
448,192,120989,1,8,0:0:0:0:
64,192,120989,1,8,0:0:0:0:
320,192,121147,1,8,0:0:0:0:
64,192,121305,1,8,0:0:0:0:
192,192,121305,1,8,0:0:0:0:
448,192,121463,1,0,0:0:0:0:
64,192,121620,1,8,0:0:0:0:
192,192,121620,1,8,0:0:0:0:
320,192,121778,1,0,0:0:0:0:
64,192,121936,1,0,0:0:0:0:
320,192,122094,1,0,0:0:0:0:
64,192,122252,1,0,0:0:0:0:
192,192,122252,1,0,0:0:0:0:
320,192,122410,1,0,0:0:0:0:
448,192,122410,1,0,0:0:0:0:
64,192,122568,1,8,0:0:0:0:
192,192,122568,1,8,0:0:0:0:
320,192,122726,1,8,0:0:0:0:
448,192,122884,1,8,0:0:0:0:
64,192,122884,1,8,0:0:0:0:
192,192,123042,1,8,0:0:0:0:
320,192,123199,1,8,0:0:0:0:
64,192,123199,1,8,0:0:0:0:
448,192,123357,1,0,0:0:0:0:
192,192,123515,1,0,0:0:0:0:
64,192,123515,1,0,0:0:0:0:
320,192,123673,1,8,0:0:0:0:
192,192,123831,1,8,0:0:0:0:
448,192,123831,1,0,0:0:0:0:
64,192,123989,1,0,0:0:0:0:
448,192,124147,1,0,0:0:0:0:
320,192,124147,1,0,0:0:0:0:
64,192,124305,1,0,0:0:0:0:
192,192,124463,1,0,0:0:0:0:
448,192,124463,1,0,0:0:0:0:
64,192,124620,1,0,0:0:0:0:
192,192,124778,1,0,0:0:0:0:
448,192,124778,1,0,0:0:0:0:
320,192,124936,1,0,0:0:0:0:
192,192,125094,1,8,0:0:0:0:
64,192,125094,1,8,0:0:0:0:
320,192,125252,1,8,0:0:0:0:
64,192,125410,1,8,0:0:0:0:
320,192,125568,1,8,0:0:0:0:
448,192,125726,1,8,0:0:0:0:
64,192,125726,1,8,0:0:0:0:
192,192,125884,1,0,0:0:0:0:
448,192,126042,1,8,0:0:0:0:
320,192,126042,1,8,0:0:0:0:
64,192,126199,1,8,0:0:0:0:
320,192,126357,1,8,0:0:0:0:
448,192,126357,1,8,0:0:0:0:
192,192,126515,1,0,0:0:0:0:
64,192,126673,1,8,0:0:0:0:
448,192,126673,1,8,0:0:0:0:
320,192,126831,1,0,0:0:0:0:
448,192,126989,1,8,0:0:0:0:
64,192,126989,1,8,0:0:0:0:
320,192,127147,1,0,0:0:0:0:
192,192,127305,1,8,0:0:0:0:
320,192,127384,1,8,0:0:0:0:
64,192,127463,1,8,0:0:0:0:
448,192,127463,1,8,0:0:0:0:
192,192,127542,1,8,0:0:0:0:
320,192,127620,1,8,0:0:0:0:
448,192,127778,1,8,0:0:0:0:
64,192,127936,1,8,0:0:0:0:
320,192,127936,1,8,0:0:0:0:
192,192,128094,1,8,0:0:0:0:
64,192,128252,1,8,0:0:0:0:
448,192,128252,1,8,0:0:0:0:
320,192,128410,1,0,0:0:0:0:
64,192,128568,1,0,0:0:0:0:
320,192,128726,1,8,0:0:0:0:
192,192,128884,1,8,0:0:0:0:
448,192,128884,1,8,0:0:0:0:
64,192,129042,1,0,0:0:0:0:
320,192,129199,1,0,0:0:0:0:
448,192,129199,1,0,0:0:0:0:
64,192,129357,1,0,0:0:0:0:
192,192,129515,1,0,0:0:0:0:
320,192,129515,1,0,0:0:0:0:
448,192,129673,1,0,0:0:0:0:
192,192,129831,1,0,0:0:0:0:
64,192,129831,1,0,0:0:0:0:
320,192,129989,1,0,0:0:0:0:
448,192,130147,1,8,0:0:0:0:
192,192,130147,1,8,0:0:0:0:
64,192,130305,1,8,0:0:0:0:
192,192,130463,1,0,0:0:0:0:
448,192,130463,1,8,0:0:0:0:
448,192,130620,1,8,0:0:0:0:
64,192,130620,1,0,0:0:0:0:
320,192,130778,1,8,0:0:0:0:
64,192,130936,1,0,0:0:0:0:
448,192,131094,1,8,0:0:0:0:
192,192,131094,1,0,0:0:0:0:
448,192,131252,1,8,0:0:0:0:
64,192,131252,1,0,0:0:0:0:
320,192,131410,1,8,0:0:0:0:
320,192,131726,1,8,0:0:0:0:
64,192,131726,1,0,0:0:0:0:
320,192,131884,1,8,0:0:0:0:
448,192,132042,1,8,0:0:0:0:
64,192,132042,1,0,0:0:0:0:
192,192,132199,1,0,0:0:0:0:
64,192,132357,1,0,0:0:0:0:
320,192,132357,1,0,0:0:0:0:
320,192,132515,1,0,0:0:0:0:
64,192,132515,1,0,0:0:0:0:
320,192,132673,1,8,0:0:0:0:
448,192,132673,128,8,132989:0:0:0:0:
64,192,132673,1,8,0:0:0:0:
192,192,132831,1,8,0:0:0:0:
320,192,132989,1,8,0:0:0:0:
64,192,132989,1,0,0:0:0:0:
448,192,133147,1,8,0:0:0:0:
320,192,133305,1,8,0:0:0:0:
64,192,133305,1,0,0:0:0:0:
192,192,133463,1,8,0:0:0:0:
64,192,133620,1,0,0:0:0:0:
448,192,133620,1,8,0:0:0:0:
320,192,133778,1,8,0:0:0:0:
64,192,133936,128,8,134094:0:0:0:0:
192,192,133936,1,8,0:0:0:0:
448,192,134252,128,8,134410:0:0:0:0:
320,192,134252,1,8,0:0:0:0:
64,192,134568,128,8,134726:0:0:0:0:
192,192,134568,1,8,0:0:0:0:
448,192,134568,1,0,0:0:0:0:
320,192,134726,1,0,0:0:0:0:
448,192,134884,1,0,0:0:0:0:
64,192,134884,1,0,0:0:0:0:
192,192,135199,1,8,0:0:0:0:
64,192,135199,128,8,135515:0:0:0:0:
448,192,135199,1,0,0:0:0:0:
320,192,135357,1,8,0:0:0:0:
448,192,135515,1,0,0:0:0:0:
192,192,135515,1,8,0:0:0:0:
64,192,135673,1,8,0:0:0:0:
448,192,135831,1,0,0:0:0:0:
192,192,135831,1,8,0:0:0:0:
320,192,135989,1,8,0:0:0:0:
448,192,136147,1,8,0:0:0:0:
64,192,136147,1,0,0:0:0:0:
320,192,136305,1,8,0:0:0:0:
448,192,136463,1,0,0:0:0:0:
192,192,136463,1,8,0:0:0:0:
64,192,136463,128,8,136620:0:0:0:0:
448,192,136778,128,8,136936:0:0:0:0:
320,192,136778,1,8,0:0:0:0:
192,192,136936,128,8,137094:0:0:0:0:
320,192,137094,128,8,137252:0:0:0:0:
448,192,137094,1,8,0:0:0:0:
64,192,137410,1,0,0:0:0:0:
448,192,137410,1,0,0:0:0:0:
192,192,137489,1,0,0:0:0:0:
320,192,137568,1,0,0:0:0:0:
64,192,137726,128,8,138042:0:0:0:0:
448,192,137726,1,0,0:0:0:0:
192,192,137726,1,8,0:0:0:0:
320,192,137884,1,8,0:0:0:0:
192,192,138042,1,8,0:0:0:0:
448,192,138042,1,0,0:0:0:0:
64,192,138199,1,8,0:0:0:0:
192,192,138357,1,8,0:0:0:0:
448,192,138357,1,0,0:0:0:0:
320,192,138515,1,8,0:0:0:0:
448,192,138673,1,0,0:0:0:0:
64,192,138673,1,8,0:0:0:0:
192,192,138831,1,8,0:0:0:0:
448,192,138989,128,8,139147:0:0:0:0:
320,192,138989,1,8,0:0:0:0:
64,192,139305,128,8,139463:0:0:0:0:
192,192,139305,1,8,0:0:0:0:
448,192,139305,1,0,0:0:0:0:
448,192,139620,128,8,139778:0:0:0:0:
320,192,139620,1,8,0:0:0:0:
64,192,139620,1,0,0:0:0:0:
192,192,139778,1,0,0:0:0:0:
64,192,139936,1,0,0:0:0:0:
448,192,139936,1,0,0:0:0:0:
448,192,140252,128,8,140568:0:0:0:0:
320,192,140252,1,8,0:0:0:0:
64,192,140252,1,0,0:0:0:0:
192,192,140410,1,8,0:0:0:0:
64,192,140568,1,0,0:0:0:0:
320,192,140568,1,8,0:0:0:0:
448,192,140726,1,8,0:0:0:0:
320,192,140884,1,8,0:0:0:0:
64,192,140884,1,0,0:0:0:0:
192,192,141042,1,8,0:0:0:0:
64,192,141199,1,8,0:0:0:0:
448,192,141199,1,8,0:0:0:0:
192,192,141357,1,8,0:0:0:0:
448,192,141515,128,8,141673:0:0:0:0:
320,192,141515,1,8,0:0:0:0:
64,192,141831,128,8,141989:0:0:0:0:
192,192,141831,1,8,0:0:0:0:
320,192,141989,128,8,142147:0:0:0:0:
192,192,142147,128,8,142305:0:0:0:0:
64,192,142147,1,8,0:0:0:0:
320,192,142463,1,8,0:0:0:0:
448,192,142463,1,8,0:0:0:0:
192,192,142778,128,8,143410:0:0:0:0:
64,192,142778,1,0,0:0:0:0:
448,192,142778,1,0,0:0:0:0:
320,192,143094,1,0,0:0:0:0:
448,192,143094,1,8,0:0:0:0:
448,192,143410,128,8,144042:0:0:0:0:
320,192,143410,1,0,0:0:0:0:
64,192,143726,1,8,0:0:0:0:
192,192,143726,1,0,0:0:0:0:
64,192,144042,128,8,144673:0:0:0:0:
192,192,144042,1,0,0:0:0:0:
320,192,144357,1,8,0:0:0:0:
448,192,144357,1,0,0:0:0:0:
320,192,144673,128,0,145305:0:0:0:0:
448,192,144673,1,0,0:0:0:0:
64,192,144989,1,0,0:0:0:0:
192,192,144989,1,8,0:0:0:0:
192,192,145305,128,8,145936:0:0:0:0:
64,192,145305,1,0,0:0:0:0:
320,192,145620,1,0,0:0:0:0:
448,192,145620,1,8,0:0:0:0:
448,192,145936,128,8,146568:0:0:0:0:
320,192,145936,1,0,0:0:0:0:
64,192,146252,1,8,0:0:0:0:
192,192,146252,1,0,0:0:0:0:
64,192,146568,128,8,147199:0:0:0:0:
192,192,146568,1,0,0:0:0:0:
320,192,146884,1,8,0:0:0:0:
448,192,146884,1,0,0:0:0:0:
320,192,147199,128,8,147831:0:0:0:0:
192,192,147199,1,0,0:0:0:0:
448,192,147199,1,0,0:0:0:0:
64,192,147515,1,0,0:0:0:0:
448,192,147673,1,0,0:0:0:0:
192,192,147831,128,8,148463:0:0:0:0:
64,192,147831,1,0,0:0:0:0:
448,192,148147,1,8,0:0:0:0:
320,192,148147,1,0,0:0:0:0:
320,192,148463,1,0,0:0:0:0:
448,192,148463,128,8,149094:0:0:0:0:
64,192,148778,1,8,0:0:0:0:
192,192,148778,1,0,0:0:0:0:
64,192,149094,128,8,149726:0:0:0:0:
192,192,149094,1,0,0:0:0:0:
320,192,149410,1,8,0:0:0:0:
448,192,149410,1,0,0:0:0:0:
320,192,149726,128,8,150357:0:0:0:0:
192,192,149726,1,0,0:0:0:0:
448,192,149726,1,0,0:0:0:0:
64,192,150042,1,0,0:0:0:0:
192,192,150042,1,8,0:0:0:0:
192,192,150357,128,8,150989:0:0:0:0:
64,192,150357,1,0,0:0:0:0:
320,192,150673,1,0,0:0:0:0:
448,192,150673,1,8,0:0:0:0:
448,192,150989,128,8,151620:0:0:0:0:
320,192,150989,1,0,0:0:0:0:
64,192,151305,1,8,0:0:0:0:
192,192,151305,1,0,0:0:0:0:
64,192,151620,128,8,152252:0:0:0:0:
192,192,151620,1,0,0:0:0:0:
320,192,151936,1,8,0:0:0:0:
448,192,151936,1,0,0:0:0:0:
320,192,152252,128,8,152884:0:0:0:0:
192,192,152252,1,0,0:0:0:0:
448,192,152252,1,0,0:0:0:0:
192,192,152568,1,0,0:0:0:0:
448,192,152568,1,8,0:0:0:0:
64,192,152884,128,8,153081:0:0:0:0:
448,192,152884,1,8,0:0:0:0:
448,192,153042,128,0,153199:0:0:0:0:
448,192,153357,128,0,153476:0:0:0:0:
448,192,153673,128,0,153792:0:0:0:0:
448,192,153989,128,0,154107:0:0:0:0:
448,192,154305,128,0,154423:0:0:0:0:
448,192,154620,128,0,154739:0:0:0:0:
448,192,154936,128,0,155055:0:0:0:0:
448,192,155252,128,0,155370:0:0:0:0:
448,192,155568,128,0,155686:0:0:0:0:
448,192,155884,128,0,156002:0:0:0:0:
448,192,156199,128,0,156318:0:0:0:0:
448,192,156515,128,0,156634:0:0:0:0:
448,192,156831,128,0,156949:0:0:0:0:
448,192,157147,128,0,157265:0:0:0:0:
448,192,157463,128,0,157581:0:0:0:0:
448,192,157778,128,0,157936:0:0:0:0:
64,192,157936,1,8,0:0:0:0:
192,192,157936,1,8,0:0:0:0:
320,192,158094,1,0,0:0:0:0:
192,192,158173,1,0,0:0:0:0:
448,192,158252,1,8,0:0:0:0:
64,192,158252,1,8,0:0:0:0:
320,192,158410,1,0,0:0:0:0:
448,192,158489,1,0,0:0:0:0:
192,192,158568,1,8,0:0:0:0:
64,192,158568,1,8,0:0:0:0:
320,192,158726,1,0,0:0:0:0:
192,192,158805,1,0,0:0:0:0:
448,192,158884,1,8,0:0:0:0:
64,192,158884,1,8,0:0:0:0:
320,192,159042,1,0,0:0:0:0:
448,192,159120,1,0,0:0:0:0:
192,192,159199,1,8,0:0:0:0:
64,192,159199,1,8,0:0:0:0:
64,192,159357,1,0,0:0:0:0:
320,192,159436,1,0,0:0:0:0:
192,192,159515,1,8,0:0:0:0:
448,192,159515,1,8,0:0:0:0:
320,192,159673,1,0,0:0:0:0:
64,192,159752,1,0,0:0:0:0:
192,192,159831,1,8,0:0:0:0:
448,192,159831,1,8,0:0:0:0:
64,192,159989,1,0,0:0:0:0:
320,192,160068,1,0,0:0:0:0:
192,192,160147,1,8,0:0:0:0:
448,192,160147,1,8,0:0:0:0:
320,192,160305,1,0,0:0:0:0:
64,192,160384,1,0,0:0:0:0:
192,192,160463,1,8,0:0:0:0:
448,192,160463,1,8,0:0:0:0:
320,192,160620,1,0,0:0:0:0:
448,192,160699,1,0,0:0:0:0:
192,192,160778,1,8,0:0:0:0:
64,192,160778,1,8,0:0:0:0:
448,192,160936,1,0,0:0:0:0:
192,192,161015,1,0,0:0:0:0:
320,192,161094,1,8,0:0:0:0:
64,192,161094,1,8,0:0:0:0:
192,192,161252,1,0,0:0:0:0:
448,192,161331,1,0,0:0:0:0:
320,192,161410,1,8,0:0:0:0:
64,192,161410,1,8,0:0:0:0:
448,192,161568,1,0,0:0:0:0:
192,192,161647,1,0,0:0:0:0:
320,192,161726,1,8,0:0:0:0:
64,192,161726,1,8,0:0:0:0:
64,192,161884,1,0,0:0:0:0:
448,192,161963,1,0,0:0:0:0:
192,192,162042,1,8,0:0:0:0:
320,192,162042,1,8,0:0:0:0:
448,192,162199,1,0,0:0:0:0:
64,192,162278,1,0,0:0:0:0:
320,192,162357,1,8,0:0:0:0:
192,192,162357,1,8,0:0:0:0:
64,192,162515,1,0,0:0:0:0:
448,192,162594,1,0,0:0:0:0:
192,192,162673,1,8,0:0:0:0:
320,192,162673,1,8,0:0:0:0:
448,192,162831,1,0,0:0:0:0:
64,192,162910,1,0,0:0:0:0:
320,192,162989,1,8,0:0:0:0:
192,192,162989,1,8,0:0:0:0:
64,192,163147,1,0,0:0:0:0:
320,192,163226,1,0,0:0:0:0:
192,192,163305,1,8,0:0:0:0:
448,192,163305,1,8,0:0:0:0:
320,192,163463,1,0,0:0:0:0:
64,192,163542,1,0,0:0:0:0:
192,192,163620,1,8,0:0:0:0:
448,192,163620,1,8,0:0:0:0:
64,192,163778,1,0,0:0:0:0:
320,192,163857,1,0,0:0:0:0:
192,192,163936,1,8,0:0:0:0:
448,192,163936,1,8,0:0:0:0:
320,192,164094,1,0,0:0:0:0:
64,192,164173,1,0,0:0:0:0:
192,192,164252,1,8,0:0:0:0:
448,192,164252,1,8,0:0:0:0:
320,192,164410,1,0,0:0:0:0:
192,192,164489,1,0,0:0:0:0:
448,192,164568,1,8,0:0:0:0:
64,192,164568,1,8,0:0:0:0:
320,192,164726,1,0,0:0:0:0:
64,192,164805,1,0,0:0:0:0:
192,192,164884,1,8,0:0:0:0:
448,192,164884,1,8,0:0:0:0:
64,192,165042,1,0,0:0:0:0:
320,192,165120,1,0,0:0:0:0:
192,192,165199,1,8,0:0:0:0:
448,192,165199,1,8,0:0:0:0:
448,192,165357,1,0,0:0:0:0:
64,192,165436,1,0,0:0:0:0:
192,192,165515,1,8,0:0:0:0:
320,192,165515,1,8,0:0:0:0:
64,192,165673,1,0,0:0:0:0:
320,192,165752,1,0,0:0:0:0:
192,192,165831,1,8,0:0:0:0:
448,192,165831,1,8,0:0:0:0:
320,192,165989,1,0,0:0:0:0:
64,192,166068,1,0,0:0:0:0:
192,192,166147,1,8,0:0:0:0:
448,192,166147,1,8,0:0:0:0:
64,192,166305,1,0,0:0:0:0:
320,192,166384,1,0,0:0:0:0:
192,192,166463,1,8,0:0:0:0:
448,192,166463,1,8,0:0:0:0:
320,192,166620,1,0,0:0:0:0:
64,192,166699,1,0,0:0:0:0:
192,192,166778,1,8,0:0:0:0:
448,192,166778,1,8,0:0:0:0:
320,192,166936,1,0,0:0:0:0:
448,192,167015,1,0,0:0:0:0:
192,192,167094,1,8,0:0:0:0:
64,192,167094,1,8,0:0:0:0:
320,192,167252,1,0,0:0:0:0:
192,192,167331,1,0,0:0:0:0:
448,192,167410,1,8,0:0:0:0:
64,192,167410,1,8,0:0:0:0:
320,192,167568,1,0,0:0:0:0:
448,192,167647,1,0,0:0:0:0:
192,192,167726,1,8,0:0:0:0:
64,192,167726,1,8,0:0:0:0:
320,192,167884,1,0,0:0:0:0:
192,192,167963,1,0,0:0:0:0:
64,192,168042,128,8,169305:0:0:0:0:
448,192,168042,1,8,0:0:0:0:
192,192,168199,1,0,0:0:0:0:
448,192,168278,1,0,0:0:0:0:
320,192,168357,1,8,0:0:0:0:
448,192,168515,1,0,0:0:0:0:
192,192,168594,1,0,0:0:0:0:
320,192,168673,1,8,0:0:0:0:
192,192,168831,1,0,0:0:0:0:
448,192,168910,1,0,0:0:0:0:
320,192,168989,1,8,0:0:0:0:
448,192,169147,1,0,0:0:0:0:
192,192,169226,1,0,0:0:0:0:
320,192,169305,128,8,169936:0:0:0:0:
192,192,169463,1,0,0:0:0:0:
64,192,169542,1,0,0:0:0:0:
448,192,169620,1,8,0:0:0:0:
64,192,169778,1,0,0:0:0:0:
448,192,169857,1,0,0:0:0:0:
192,192,169936,128,8,170568:0:0:0:0:
320,192,170094,1,0,0:0:0:0:
64,192,170173,1,0,0:0:0:0:
448,192,170252,1,8,0:0:0:0:
64,192,170410,1,0,0:0:0:0:
448,192,170489,1,0,0:0:0:0:
320,192,170568,128,8,171831:0:0:0:0:
192,192,170726,1,0,0:0:0:0:
448,192,170805,1,0,0:0:0:0:
64,192,170884,1,8,0:0:0:0:
448,192,171042,1,0,0:0:0:0:
64,192,171120,1,0,0:0:0:0:
192,192,171199,1,8,0:0:0:0:
64,192,171357,1,0,0:0:0:0:
448,192,171436,1,0,0:0:0:0:
192,192,171515,1,8,0:0:0:0:
64,192,171673,1,0,0:0:0:0:
192,192,171752,1,0,0:0:0:0:
448,192,171831,128,8,172463:0:0:0:0:
320,192,171989,1,0,0:0:0:0:
64,192,172068,1,0,0:0:0:0:
192,192,172147,1,8,0:0:0:0:
64,192,172305,1,0,0:0:0:0:
192,192,172384,1,0,0:0:0:0:
320,192,172463,128,8,173094:0:0:0:0:
448,192,172620,1,0,0:0:0:0:
64,192,172699,1,0,0:0:0:0:
192,192,172778,1,8,0:0:0:0:
64,192,172936,1,0,0:0:0:0:
448,192,173015,1,0,0:0:0:0:
192,192,173094,128,8,174357:0:0:0:0:
64,192,173252,1,0,0:0:0:0:
448,192,173331,1,0,0:0:0:0:
320,192,173410,1,8,0:0:0:0:
448,192,173568,1,0,0:0:0:0:
64,192,173647,1,0,0:0:0:0:
320,192,173726,1,8,0:0:0:0:
64,192,173884,1,0,0:0:0:0:
448,192,173963,1,0,0:0:0:0:
320,192,174042,1,8,0:0:0:0:
64,192,174199,1,0,0:0:0:0:
320,192,174278,1,0,0:0:0:0:
448,192,174357,128,8,175423:0:0:0:0:
192,192,174515,1,0,0:0:0:0:
64,192,174594,1,0,0:0:0:0:
320,192,174673,1,8,0:0:0:0:
64,192,174831,1,0,0:0:0:0:
320,192,174910,1,0,0:0:0:0:
192,192,174989,1,8,0:0:0:0:
320,192,175147,1,0,0:0:0:0:
64,192,175226,1,0,0:0:0:0:
192,192,175305,1,8,0:0:0:0:
64,192,175463,1,0,0:0:0:0:
320,192,175542,1,0,0:0:0:0:
192,192,175620,128,8,176884:0:0:0:0:
448,192,175778,1,0,0:0:0:0:
64,192,175857,1,0,0:0:0:0:
320,192,175936,1,8,0:0:0:0:
64,192,176094,1,0,0:0:0:0:
448,192,176173,1,0,0:0:0:0:
320,192,176252,1,8,0:0:0:0:
448,192,176410,1,0,0:0:0:0:
64,192,176489,1,0,0:0:0:0:
320,192,176568,1,8,0:0:0:0:
448,192,176726,1,0,0:0:0:0:
320,192,176805,1,0,0:0:0:0:
64,192,176884,128,8,177397:0:0:0:0:
448,192,177042,1,0,0:0:0:0:
192,192,177120,1,0,0:0:0:0:
320,192,177199,1,8,0:0:0:0:
192,192,177357,1,0,0:0:0:0:
320,192,177515,128,8,177831:0:0:0:0:
448,192,177515,128,8,177831:0:0:0:0:
64,192,177515,1,0,0:0:0:0:
64,192,177831,1,0,0:0:0:0:
192,192,177910,1,0,0:0:0:0:
320,192,177989,1,0,0:0:0:0:
448,192,178068,1,0,0:0:0:0:
64,192,178147,128,8,178305:0:0:0:0:
192,192,178147,128,8,178305:0:0:0:0:
320,192,178463,128,8,178620:0:0:0:0:
448,192,178463,128,8,178620:0:0:0:0:
192,192,178463,1,0,0:0:0:0:
64,192,178778,128,8,178936:0:0:0:0:
320,192,178778,1,0,0:0:0:0:
448,192,178778,1,0,0:0:0:0:
192,192,178936,128,8,179094:0:0:0:0:
448,192,179094,128,8,179252:0:0:0:0:
320,192,179252,128,8,179410:0:0:0:0:
192,192,179410,128,8,180199:0:0:0:0:
64,192,179410,128,8,180199:0:0:0:0:
448,192,179410,1,0,0:0:0:0:
448,192,179568,1,0,0:0:0:0:
320,192,179726,1,0,0:0:0:0:
320,192,179884,1,0,0:0:0:0:
448,192,180042,1,0,0:0:0:0:
448,192,180199,1,0,0:0:0:0:
192,192,180357,128,8,180515:0:0:0:0:
320,192,180357,1,0,0:0:0:0:
64,192,180515,128,8,180673:0:0:0:0:
448,192,180673,128,8,181305:0:0:0:0:
320,192,180673,128,8,181305:0:0:0:0:
64,192,180831,1,0,0:0:0:0:
64,192,180989,1,0,0:0:0:0:
192,192,181147,1,0,0:0:0:0:
192,192,181305,1,0,0:0:0:0:
64,192,181463,128,8,181620:0:0:0:0:
192,192,181620,128,8,181778:0:0:0:0:
448,192,181620,1,0,0:0:0:0:
448,192,181778,128,8,181936:0:0:0:0:
64,192,181936,128,8,182252:0:0:0:0:
320,192,181936,1,0,0:0:0:0:
448,192,182252,128,8,182410:0:0:0:0:
320,192,182252,1,0,0:0:0:0:
192,192,182410,128,8,182568:0:0:0:0:
64,192,182568,128,8,182884:0:0:0:0:
320,192,182568,1,0,0:0:0:0:
448,192,182568,1,0,0:0:0:0:
448,192,182884,1,0,0:0:0:0:
320,192,182963,1,0,0:0:0:0:
192,192,183042,1,0,0:0:0:0:
64,192,183120,1,0,0:0:0:0:
320,192,183199,128,8,183515:0:0:0:0:
448,192,183199,128,8,183515:0:0:0:0:
64,192,183515,128,8,183831:0:0:0:0:
192,192,183515,128,8,183831:0:0:0:0:
448,192,183831,128,8,183989:0:0:0:0:
320,192,183989,128,8,184147:0:0:0:0:
192,192,184147,128,8,184305:0:0:0:0:
64,192,184305,128,8,184463:0:0:0:0:
448,192,184463,128,8,185252:0:0:0:0:
320,192,184463,128,8,185252:0:0:0:0:
64,192,184620,1,0,0:0:0:0:
64,192,184778,1,0,0:0:0:0:
192,192,184936,1,0,0:0:0:0:
192,192,185094,1,0,0:0:0:0:
64,192,185252,1,0,0:0:0:0:
448,192,185410,128,8,185568:0:0:0:0:
64,192,185410,1,0,0:0:0:0:
320,192,185568,128,8,185726:0:0:0:0:
64,192,185726,128,8,185884:0:0:0:0:
192,192,185726,1,0,0:0:0:0:
320,192,185884,128,8,186042:0:0:0:0:
448,192,186042,128,8,186515:0:0:0:0:
64,192,186042,1,0,0:0:0:0:
64,192,186199,1,8,0:0:0:0:
64,192,186357,1,0,0:0:0:0:
64,192,186515,1,8,0:0:0:0:
320,192,186673,128,8,186831:0:0:0:0:
192,192,186673,1,0,0:0:0:0:
64,192,186831,128,8,186989:0:0:0:0:
448,192,186989,128,8,187305:0:0:0:0:
192,192,186989,1,8,0:0:0:0:
320,192,187147,1,0,0:0:0:0:
64,192,187305,128,8,187463:0:0:0:0:
192,192,187305,1,0,0:0:0:0:
320,192,187463,128,8,187620:0:0:0:0:
192,192,187620,128,8,187778:0:0:0:0:
64,192,187620,1,0,0:0:0:0:
320,192,187936,1,8,0:0:0:0:
192,192,188015,1,8,0:0:0:0:
448,192,188094,1,8,0:0:0:0:
320,192,188173,1,8,0:0:0:0:
192,192,188252,128,8,188568:0:0:0:0:
64,192,188252,128,8,188568:0:0:0:0:
448,192,188568,128,8,188884:0:0:0:0:
320,192,188568,128,8,188884:0:0:0:0:
64,192,188884,128,8,189042:0:0:0:0:
192,192,189042,128,8,189199:0:0:0:0:
320,192,189199,128,8,189357:0:0:0:0:
448,192,189357,128,8,189515:0:0:0:0:
64,192,189515,128,8,190305:0:0:0:0:
192,192,189515,128,8,190305:0:0:0:0:
320,192,189515,1,8,0:0:0:0:
448,192,189673,1,0,0:0:0:0:
448,192,189831,1,0,0:0:0:0:
320,192,189989,1,0,0:0:0:0:
320,192,190147,1,0,0:0:0:0:
448,192,190305,1,0,0:0:0:0:
320,192,190463,128,8,190620:0:0:0:0:
64,192,190620,128,8,190778:0:0:0:0:
448,192,190778,128,8,191410:0:0:0:0:
192,192,190778,1,0,0:0:0:0:
320,192,190936,1,8,0:0:0:0:
64,192,191094,1,8,0:0:0:0:
320,192,191252,1,8,0:0:0:0:
64,192,191410,128,8,191568:0:0:0:0:
192,192,191410,1,0,0:0:0:0:
320,192,191568,128,8,191726:0:0:0:0:
192,192,191726,128,8,191884:0:0:0:0:
448,192,191726,1,0,0:0:0:0:
64,192,191726,1,0,0:0:0:0:
448,192,191884,128,8,192042:0:0:0:0:
64,192,192042,128,8,192357:0:0:0:0:
320,192,192042,1,0,0:0:0:0:
192,192,192042,1,8,0:0:0:0:
320,192,192357,128,8,192515:0:0:0:0:
448,192,192357,1,8,0:0:0:0:
192,192,192515,128,8,192673:0:0:0:0:
448,192,192673,128,8,192989:0:0:0:0:
64,192,192673,1,8,0:0:0:0:
64,192,192989,1,0,0:0:0:0:
192,192,193068,1,0,0:0:0:0:
320,192,193147,1,0,0:0:0:0:
448,192,193226,1,0,0:0:0:0:
64,192,193305,128,8,193620:0:0:0:0:
192,192,193305,128,8,193620:0:0:0:0:
448,192,193620,128,8,193936:0:0:0:0:
320,192,193620,128,8,193936:0:0:0:0:
64,192,193936,128,8,194094:0:0:0:0:
192,192,194094,128,8,194252:0:0:0:0:
320,192,194252,128,8,194410:0:0:0:0:
448,192,194410,128,8,194568:0:0:0:0:
64,192,194568,128,8,195357:0:0:0:0:
192,192,194568,128,8,195357:0:0:0:0:
320,192,194568,1,0,0:0:0:0:
320,192,194726,1,0,0:0:0:0:
448,192,194884,1,0,0:0:0:0:
448,192,195042,1,0,0:0:0:0:
320,192,195199,1,0,0:0:0:0:
320,192,195357,1,0,0:0:0:0:
192,192,195515,128,8,195673:0:0:0:0:
448,192,195515,1,0,0:0:0:0:
64,192,195673,128,8,195831:0:0:0:0:
320,192,195831,128,8,196778:0:0:0:0:
448,192,195831,128,8,196778:0:0:0:0:
64,192,195989,1,0,0:0:0:0:
64,192,196147,1,8,0:0:0:0:
192,192,196305,1,0,0:0:0:0:
192,192,196463,1,8,0:0:0:0:
64,192,196620,1,0,0:0:0:0:
64,192,196778,128,8,196936:0:0:0:0:
320,192,196936,128,8,197094:0:0:0:0:
192,192,197094,128,8,197410:0:0:0:0:
448,192,197094,1,0,0:0:0:0:
64,192,197094,1,0,0:0:0:0:
448,192,197410,128,8,197568:0:0:0:0:
320,192,197410,1,0,0:0:0:0:
64,192,197568,128,8,197726:0:0:0:0:
320,192,197726,1,0,0:0:0:0:
448,192,197884,1,0,0:0:0:0:
192,192,198042,1,0,0:0:0:0:
320,192,198120,1,8,0:0:0:0:
64,192,198199,1,8,0:0:0:0:
192,192,198278,1,8,0:0:0:0:
448,192,198357,128,8,201042:0:0:0:0:
320,192,198357,128,8,200963:0:0:0:0:
