osu file format v14

[General]
AudioFilename: audio.mp3
AudioLeadIn: 0
PreviewTime: 112463
Countdown: 0
SampleSet: Soft
StackLeniency: 0.7
Mode: 3
LetterboxInBreaks: 0
SpecialStyle: 0
WidescreenStoryboard: 0

[Editor]
DistanceSpacing: 0.8
BeatDivisor: 2
GridSize: 4
TimelineZoom: 1.6

[Metadata]
Title:A New King Is Born
TitleUnicode:A New King Is Born
Artist:Loki
ArtistUnicode:Loki
Creator:abraker
Version:Easy
Source:
Tags:
BeatmapID:1467128
BeatmapSetID:693366

[Difficulty]
HPDrainRate:5
CircleSize:4
OverallDifficulty:5
ApproachRate:5
SliderMultiplier:1.4
SliderTickRate:1

[Events]
//Background and Video events
0,0,"1280x1024-1b851cab8969c1a2aa7cfeddbbec1574.jpg",0,0
//Break Periods
//Storyboard Layer 0 (Background)
//Storyboard Layer 1 (Fail)
//Storyboard Layer 2 (Pass)
//Storyboard Layer 3 (Foreground)
//Storyboard Sound Samples

[TimingPoints]
42,315.789473684211,4,2,0,100,1,0
112463,-100,4,2,0,100,0,1
132673,-100,4,2,0,100,0,0
178147,-100,4,2,0,100,0,1
198357,-100,4,2,0,100,0,0

[HitObjects]
192,192,42,5,0,0:0:0:0:
448,192,1305,1,0,0:0:0:0:
192,192,2568,1,0,0:0:0:0:
320,192,3199,1,0,0:0:0:0:
448,192,3831,1,0,0:0:0:0:
320,192,4463,1,0,0:0:0:0:
448,192,4778,1,0,0:0:0:0:
192,192,5094,1,0,0:0:0:0:
320,192,5726,1,0,0:0:0:0:
448,192,6357,1,0,0:0:0:0:
320,192,6989,1,0,0:0:0:0:
192,192,7620,1,0,0:0:0:0:
192,192,8252,1,0,0:0:0:0:
64,192,8884,1,0,0:0:0:0:
192,192,10147,1,0,0:0:0:0:
448,192,11410,1,0,0:0:0:0:
192,192,12673,1,0,0:0:0:0:
320,192,13305,1,0,0:0:0:0:
448,192,13936,1,0,0:0:0:0:
320,192,14568,1,0,0:0:0:0:
448,192,14884,1,0,0:0:0:0:
192,192,15199,1,0,0:0:0:0:
320,192,15831,1,0,0:0:0:0:
448,192,16463,1,0,0:0:0:0:
320,192,17094,1,0,0:0:0:0:
64,192,17726,1,0,0:0:0:0:
192,192,18042,1,0,0:0:0:0:
320,192,18357,1,0,0:0:0:0:
192,192,18989,1,0,0:0:0:0:
64,192,20252,1,0,0:0:0:0:
320,192,20884,1,0,0:0:0:0:
192,192,21199,1,0,0:0:0:0:
192,192,21515,1,0,0:0:0:0:
448,192,21831,1,0,0:0:0:0:
320,192,22147,1,0,0:0:0:0:
448,192,22463,1,0,0:0:0:0:
192,192,22778,1,0,0:0:0:0:
320,192,23094,1,0,0:0:0:0:
64,192,23410,1,0,0:0:0:0:
320,192,23726,1,0,0:0:0:0:
448,192,24042,1,0,0:0:0:0:
192,192,24357,1,0,0:0:0:0:
320,192,24673,1,0,0:0:0:0:
192,192,24989,1,0,0:0:0:0:
448,192,25305,1,0,0:0:0:0:
64,192,25620,1,0,0:0:0:0:
320,192,25936,1,0,0:0:0:0:
64,192,26252,1,0,0:0:0:0:
192,192,26568,1,0,0:0:0:0:
448,192,26884,1,0,0:0:0:0:
320,192,27199,1,0,0:0:0:0:
448,192,27515,1,0,0:0:0:0:
64,192,27831,1,0,0:0:0:0:
320,192,28147,1,0,0:0:0:0:
192,192,28463,1,0,0:0:0:0:
320,192,28778,1,0,0:0:0:0:
64,192,29094,1,0,0:0:0:0:
192,192,29410,1,0,0:0:0:0:
448,192,29726,1,0,0:0:0:0:
192,192,30042,1,0,0:0:0:0:
64,192,30357,1,0,0:0:0:0:
320,192,30673,1,0,0:0:0:0:
192,192,30989,1,0,0:0:0:0:
64,192,31305,1,0,0:0:0:0:
320,192,31620,1,0,0:0:0:0:
448,192,31936,1,0,0:0:0:0:
192,192,32252,1,0,0:0:0:0:
448,192,32568,1,0,0:0:0:0:
64,192,32884,1,0,0:0:0:0:
320,192,33199,1,0,0:0:0:0:
448,192,33515,1,0,0:0:0:0:
320,192,33831,1,0,0:0:0:0:
64,192,34147,1,0,0:0:0:0:
192,192,34463,1,0,0:0:0:0:
64,192,34778,1,0,0:0:0:0:
192,192,35094,1,0,0:0:0:0:
448,192,35410,1,0,0:0:0:0:
64,192,35726,1,0,0:0:0:0:
320,192,36042,1,0,0:0:0:0:
64,192,36357,1,0,0:0:0:0:
192,192,36673,1,0,0:0:0:0:
448,192,36989,1,0,0:0:0:0:
192,192,37305,1,0,0:0:0:0:
448,192,37620,1,0,0:0:0:0:
64,192,37936,1,0,0:0:0:0:
320,192,38252,1,0,0:0:0:0:
64,192,38568,1,0,0:0:0:0:
320,192,38884,1,0,0:0:0:0:
448,192,39199,1,0,0:0:0:0:
192,192,39515,1,0,0:0:0:0:
64,192,39831,1,0,0:0:0:0:
192,192,40147,1,0,0:0:0:0:
448,192,40463,1,0,0:0:0:0:
64,192,40778,1,0,0:0:0:0:
320,192,41094,1,0,0:0:0:0:
64,192,41410,1,0,0:0:0:0:
448,192,41726,1,0,0:0:0:0:
448,192,42042,1,0,0:0:0:0:
192,192,42357,1,0,0:0:0:0:
192,192,42673,1,0,0:0:0:0:
320,192,42989,1,0,0:0:0:0:
320,192,43305,1,0,0:0:0:0:
64,192,43620,1,0,0:0:0:0:
64,192,43936,1,0,0:0:0:0:
192,192,44252,1,0,0:0:0:0:
192,192,44568,1,0,0:0:0:0:
448,192,44884,1,0,0:0:0:0:
448,192,45199,1,0,0:0:0:0:
64,192,45515,1,0,0:0:0:0:
64,192,45831,1,0,0:0:0:0:
320,192,46147,1,0,0:0:0:0:
192,192,46463,1,0,0:0:0:0:
448,192,46778,1,0,0:0:0:0:
192,192,47094,1,0,0:0:0:0:
448,192,47410,1,0,0:0:0:0:
448,192,47726,1,0,0:0:0:0:
192,192,48042,1,0,0:0:0:0:
192,192,48357,1,0,0:0:0:0:
64,192,48673,1,0,0:0:0:0:
64,192,48989,1,0,0:0:0:0:
320,192,49305,1,0,0:0:0:0:
320,192,49620,1,0,0:0:0:0:
320,192,49936,1,0,0:0:0:0:
320,192,50252,1,0,0:0:0:0:
64,192,50568,1,0,0:0:0:0:
64,192,50884,1,0,0:0:0:0:
192,192,51199,1,0,0:0:0:0:
320,192,51515,1,0,0:0:0:0:
320,192,51831,1,0,0:0:0:0:
64,192,52147,1,0,0:0:0:0:
64,192,52463,1,0,0:0:0:0:
320,192,52778,1,0,0:0:0:0:
192,192,53094,1,0,0:0:0:0:
192,192,53410,1,0,0:0:0:0:
448,192,53726,1,0,0:0:0:0:
320,192,54042,1,0,0:0:0:0:
320,192,54357,1,0,0:0:0:0:
64,192,54673,1,0,0:0:0:0:
64,192,54989,1,0,0:0:0:0:
448,192,55305,1,0,0:0:0:0:
192,192,55620,1,0,0:0:0:0:
192,192,55936,1,0,0:0:0:0:
448,192,56252,1,0,0:0:0:0:
320,192,56568,1,0,0:0:0:0:
448,192,56884,1,0,0:0:0:0:
192,192,57199,1,0,0:0:0:0:
448,192,57515,1,0,0:0:0:0:
448,192,57831,1,0,0:0:0:0:
192,192,58147,1,0,0:0:0:0:
192,192,58463,1,0,0:0:0:0:
64,192,58778,1,0,0:0:0:0:
64,192,59094,1,0,0:0:0:0:
448,192,59410,1,0,0:0:0:0:
448,192,59726,1,0,0:0:0:0:
192,192,60042,1,0,0:0:0:0:
192,192,60357,1,0,0:0:0:0:
320,192,60673,1,0,0:0:0:0:
64,192,61936,1,0,0:0:0:0:
64,192,62252,1,0,0:0:0:0:
448,192,62568,1,0,0:0:0:0:
320,192,62884,1,0,0:0:0:0:
192,192,63199,1,0,0:0:0:0:
64,192,63515,128,0,63831:0:0:0:0:
448,192,63831,128,0,64463:0:0:0:0:
64,192,64463,1,0,0:0:0:0:
64,192,64778,1,0,0:0:0:0:
320,192,65094,1,0,0:0:0:0:
192,192,65410,1,0,0:0:0:0:
448,192,65726,1,0,0:0:0:0:
320,192,66042,1,0,0:0:0:0:
192,192,66357,1,0,0:0:0:0:
192,192,66673,1,0,0:0:0:0:
64,192,66989,1,0,0:0:0:0:
320,192,67305,1,0,0:0:0:0:
64,192,67620,1,0,0:0:0:0:
320,192,67936,1,0,0:0:0:0:
192,192,68252,1,0,0:0:0:0:
64,192,68568,128,0,68884:0:0:0:0:
448,192,68884,128,0,69515:0:0:0:0:
64,192,69515,1,0,0:0:0:0:
64,192,69831,1,0,0:0:0:0:
64,192,70147,1,0,0:0:0:0:
448,192,70463,1,0,0:0:0:0:
64,192,70620,1,0,0:0:0:0:
320,192,70778,1,0,0:0:0:0:
320,192,71410,1,0,0:0:0:0:
192,192,71726,1,0,0:0:0:0:
64,192,72042,1,0,0:0:0:0:
64,192,72357,1,0,0:0:0:0:
448,192,72673,1,0,0:0:0:0:
192,192,72989,1,0,0:0:0:0:
320,192,73305,1,0,0:0:0:0:
448,192,73620,128,0,73936:0:0:0:0:
64,192,73936,128,0,74568:0:0:0:0:
320,192,74568,1,0,0:0:0:0:
64,192,74884,1,0,0:0:0:0:
320,192,75199,1,0,0:0:0:0:
192,192,75515,1,0,0:0:0:0:
448,192,75831,1,0,0:0:0:0:
64,192,76147,1,0,0:0:0:0:
320,192,76463,1,0,0:0:0:0:
64,192,77094,1,0,0:0:0:0:
64,192,77410,1,0,0:0:0:0:
448,192,77726,1,0,0:0:0:0:
192,192,78042,1,0,0:0:0:0:
320,192,78357,1,0,0:0:0:0:
64,192,78673,128,0,78989:0:0:0:0:
448,192,78989,128,0,79620:0:0:0:0:
192,192,79620,1,0,0:0:0:0:
192,192,79936,1,0,0:0:0:0:
192,192,80252,1,0,0:0:0:0:
64,192,80568,1,0,0:0:0:0:
448,192,80726,1,0,0:0:0:0:
192,192,80884,1,0,0:0:0:0:
448,192,81515,1,0,0:0:0:0:
192,192,82147,1,0,0:0:0:0:
448,192,82463,1,0,0:0:0:0:
320,192,82778,1,0,0:0:0:0:
448,192,83094,1,0,0:0:0:0:
192,192,83410,1,0,0:0:0:0:
320,192,83726,1,0,0:0:0:0:
192,192,84042,1,0,0:0:0:0:
320,192,84357,1,0,0:0:0:0:
448,192,84673,1,0,0:0:0:0:
192,192,84989,1,0,0:0:0:0:
320,192,85305,1,0,0:0:0:0:
192,192,85620,1,0,0:0:0:0:
448,192,85936,1,0,0:0:0:0:
64,192,86252,1,0,0:0:0:0:
320,192,86568,1,0,0:0:0:0:
64,192,86884,1,0,0:0:0:0:
320,192,87199,1,0,0:0:0:0:
64,192,87515,1,0,0:0:0:0:
192,192,87831,1,0,0:0:0:0:
64,192,88147,1,0,0:0:0:0:
320,192,88463,1,0,0:0:0:0:
192,192,88778,1,0,0:0:0:0:
448,192,89094,1,0,0:0:0:0:
192,192,89410,1,0,0:0:0:0:
64,192,89726,1,0,0:0:0:0:
320,192,90042,1,0,0:0:0:0:
192,192,90357,1,0,0:0:0:0:
320,192,90673,1,0,0:0:0:0:
64,192,90989,1,0,0:0:0:0:
448,192,91305,1,0,0:0:0:0:
192,192,91620,1,0,0:0:0:0:
448,192,91936,1,0,0:0:0:0:
192,192,92252,1,0,0:0:0:0:
448,192,92568,1,0,0:0:0:0:
320,192,92884,1,0,0:0:0:0:
448,192,93199,1,0,0:0:0:0:
192,192,93515,1,0,0:0:0:0:
320,192,93831,1,0,0:0:0:0:
64,192,94147,1,0,0:0:0:0:
320,192,94463,1,0,0:0:0:0:
448,192,94778,1,0,0:0:0:0:
192,192,95094,1,0,0:0:0:0:
320,192,95410,1,0,0:0:0:0:
192,192,95726,1,0,0:0:0:0:
448,192,96042,1,0,0:0:0:0:
64,192,96357,1,0,0:0:0:0:
320,192,96673,1,0,0:0:0:0:
64,192,96989,1,0,0:0:0:0:
320,192,97305,1,0,0:0:0:0:
64,192,97620,1,0,0:0:0:0:
192,192,97936,1,0,0:0:0:0:
64,192,98252,1,0,0:0:0:0:
320,192,98568,1,0,0:0:0:0:
192,192,98884,1,0,0:0:0:0:
448,192,99199,1,0,0:0:0:0:
192,192,99515,1,0,0:0:0:0:
64,192,99831,1,0,0:0:0:0:
320,192,100147,1,0,0:0:0:0:
192,192,100463,1,0,0:0:0:0:
320,192,100778,1,0,0:0:0:0:
64,192,101094,1,0,0:0:0:0:
448,192,101410,1,0,0:0:0:0:
192,192,101726,1,0,0:0:0:0:
448,192,102042,1,0,0:0:0:0:
192,192,102357,1,0,0:0:0:0:
320,192,102673,1,0,0:0:0:0:
448,192,102989,1,0,0:0:0:0:
448,192,103463,1,0,0:0:0:0:
64,192,103620,1,0,0:0:0:0:
448,192,104884,1,0,0:0:0:0:
320,192,105199,1,0,0:0:0:0:
192,192,105515,1,0,0:0:0:0:
192,192,105831,1,0,0:0:0:0:
448,192,106147,1,0,0:0:0:0:
448,192,106463,1,0,0:0:0:0:
320,192,106778,1,0,0:0:0:0:
192,192,107094,1,0,0:0:0:0:
320,192,107410,1,0,0:0:0:0:
192,192,107726,1,0,0:0:0:0:
320,192,108042,1,0,0:0:0:0:
64,192,108515,1,0,0:0:0:0:
320,192,108673,1,0,0:0:0:0:
320,192,109936,1,0,0:0:0:0:
448,192,110252,1,0,0:0:0:0:
192,192,110568,1,0,0:0:0:0:
448,192,110884,1,0,0:0:0:0:
320,192,111199,1,0,0:0:0:0:
448,192,111515,1,0,0:0:0:0:
192,192,111831,1,0,0:0:0:0:
320,192,112463,1,0,0:0:0:0:
448,192,112620,1,0,0:0:0:0:
64,192,112778,1,0,0:0:0:0:
320,192,112936,1,0,0:0:0:0:
192,192,113094,1,0,0:0:0:0:
192,192,113410,1,0,0:0:0:0:
448,192,113568,1,0,0:0:0:0:
64,192,113726,128,0,114673:0:0:0:0:
64,192,114989,1,0,0:0:0:0:
448,192,115147,1,0,0:0:0:0:
192,192,115305,1,0,0:0:0:0:
320,192,115463,1,0,0:0:0:0:
64,192,115620,1,0,0:0:0:0:
64,192,115936,1,0,0:0:0:0:
448,192,116094,1,0,0:0:0:0:
192,192,116252,1,0,0:0:0:0:
320,192,116568,1,0,0:0:0:0:
64,192,116884,1,0,0:0:0:0:
320,192,117515,1,0,0:0:0:0:
64,192,117673,1,0,0:0:0:0:
448,192,117831,1,0,0:0:0:0:
192,192,117989,1,0,0:0:0:0:
320,192,118147,1,0,0:0:0:0:
320,192,118620,1,0,0:0:0:0:
64,192,118778,128,0,119726:0:0:0:0:
64,192,120042,1,0,0:0:0:0:
448,192,120199,1,0,0:0:0:0:
192,192,120357,1,0,0:0:0:0:
320,192,120515,1,0,0:0:0:0:
64,192,120673,1,0,0:0:0:0:
64,192,120989,1,0,0:0:0:0:
448,192,121147,1,0,0:0:0:0:
192,192,121305,1,0,0:0:0:0:
192,192,121620,1,0,0:0:0:0:
448,192,121778,1,0,0:0:0:0:
64,192,121936,128,0,122252:0:0:0:0:
64,192,122568,1,0,0:0:0:0:
448,192,122726,1,0,0:0:0:0:
192,192,122884,1,0,0:0:0:0:
320,192,123042,1,0,0:0:0:0:
192,192,123199,1,0,0:0:0:0:
192,192,123673,1,0,0:0:0:0:
448,192,123831,128,0,124778:0:0:0:0:
448,192,125094,1,0,0:0:0:0:
64,192,125252,1,0,0:0:0:0:
320,192,125410,1,0,0:0:0:0:
64,192,125568,1,0,0:0:0:0:
448,192,125726,1,0,0:0:0:0:
448,192,126042,1,0,0:0:0:0:
64,192,126199,1,0,0:0:0:0:
320,192,126357,1,0,0:0:0:0:
192,192,126673,1,0,0:0:0:0:
64,192,126989,1,0,0:0:0:0:
448,192,127620,1,0,0:0:0:0:
64,192,127778,1,0,0:0:0:0:
320,192,127936,1,0,0:0:0:0:
192,192,128094,1,0,0:0:0:0:
448,192,128252,1,0,0:0:0:0:
320,192,128726,1,0,0:0:0:0:
64,192,128884,128,0,129831:0:0:0:0:
64,192,130147,1,0,0:0:0:0:
448,192,130305,1,0,0:0:0:0:
192,192,130463,1,0,0:0:0:0:
448,192,130620,1,0,0:0:0:0:
64,192,130778,1,0,0:0:0:0:
64,192,131094,1,0,0:0:0:0:
448,192,131252,1,0,0:0:0:0:
192,192,131410,1,0,0:0:0:0:
192,192,131726,1,0,0:0:0:0:
448,192,131884,1,0,0:0:0:0:
64,192,132042,128,0,132357:0:0:0:0:
64,192,132673,1,0,0:0:0:0:
448,192,132989,1,0,0:0:0:0:
320,192,133305,1,0,0:0:0:0:
192,192,133620,1,0,0:0:0:0:
64,192,133936,128,0,134252:0:0:0:0:
448,192,134252,128,0,134568:0:0:0:0:
192,192,134568,128,0,134884:0:0:0:0:
192,192,135199,1,0,0:0:0:0:
64,192,135515,1,0,0:0:0:0:
192,192,135831,1,0,0:0:0:0:
320,192,136147,1,0,0:0:0:0:
448,192,136463,128,0,136778:0:0:0:0:
64,192,136778,1,0,0:0:0:0:
320,192,137094,128,0,137410:0:0:0:0:
64,192,137410,1,0,0:0:0:0:
448,192,137568,1,0,0:0:0:0:
192,192,137726,128,0,138042:0:0:0:0:
192,192,138357,1,0,0:0:0:0:
320,192,138673,1,0,0:0:0:0:
448,192,138989,128,0,139305:0:0:0:0:
64,192,139305,128,0,139620:0:0:0:0:
320,192,139620,128,0,139936:0:0:0:0:
320,192,140252,1,0,0:0:0:0:
448,192,140568,1,0,0:0:0:0:
320,192,140884,1,0,0:0:0:0:
192,192,141199,1,0,0:0:0:0:
64,192,141515,128,0,141831:0:0:0:0:
320,192,141831,1,0,0:0:0:0:
448,192,142147,128,0,142463:0:0:0:0:
64,192,142463,128,0,142778:0:0:0:0:
320,192,142778,1,0,0:0:0:0:
448,192,143094,1,0,0:0:0:0:
448,192,143410,1,0,0:0:0:0:
64,192,143726,1,0,0:0:0:0:
64,192,144042,1,0,0:0:0:0:
320,192,144357,1,0,0:0:0:0:
320,192,144673,1,0,0:0:0:0:
192,192,144989,1,0,0:0:0:0:
192,192,145305,1,0,0:0:0:0:
448,192,145620,1,0,0:0:0:0:
448,192,145936,1,0,0:0:0:0:
192,192,146252,1,0,0:0:0:0:
192,192,146568,1,0,0:0:0:0:
320,192,146884,1,0,0:0:0:0:
448,192,147199,1,0,0:0:0:0:
320,192,147515,1,0,0:0:0:0:
64,192,147673,1,0,0:0:0:0:
192,192,147831,1,0,0:0:0:0:
448,192,148147,1,0,0:0:0:0:
448,192,148463,1,0,0:0:0:0:
192,192,148778,1,0,0:0:0:0:
192,192,149094,1,0,0:0:0:0:
320,192,149410,1,0,0:0:0:0:
320,192,149726,1,0,0:0:0:0:
192,192,150042,1,0,0:0:0:0:
192,192,150357,1,0,0:0:0:0:
448,192,150673,1,0,0:0:0:0:
448,192,150989,1,0,0:0:0:0:
64,192,151305,1,0,0:0:0:0:
64,192,151620,1,0,0:0:0:0:
320,192,151936,1,0,0:0:0:0:
320,192,152252,1,0,0:0:0:0:
64,192,152568,1,0,0:0:0:0:
64,192,152884,1,0,0:0:0:0:
448,192,153042,1,0,0:0:0:0:
448,192,153357,1,0,0:0:0:0:
448,192,153673,1,0,0:0:0:0:
448,192,153989,1,0,0:0:0:0:
448,192,154305,1,0,0:0:0:0:
448,192,154620,1,0,0:0:0:0:
448,192,154936,1,0,0:0:0:0:
448,192,155252,1,0,0:0:0:0:
448,192,155568,1,0,0:0:0:0:
448,192,155884,1,0,0:0:0:0:
448,192,156199,1,0,0:0:0:0:
448,192,156515,1,0,0:0:0:0:
448,192,156831,1,0,0:0:0:0:
448,192,157147,1,0,0:0:0:0:
448,192,157463,1,0,0:0:0:0:
448,192,157778,1,0,0:0:0:0:
192,192,157936,1,0,0:0:0:0:
64,192,158252,1,0,0:0:0:0:
192,192,158568,1,0,0:0:0:0:
64,192,158884,1,0,0:0:0:0:
448,192,159042,1,0,0:0:0:0:
192,192,159199,1,0,0:0:0:0:
320,192,159515,1,0,0:0:0:0:
64,192,159831,1,0,0:0:0:0:
192,192,160147,1,0,0:0:0:0:
448,192,160305,1,0,0:0:0:0:
64,192,160463,1,0,0:0:0:0:
320,192,160778,1,0,0:0:0:0:
64,192,161094,1,0,0:0:0:0:
320,192,161410,1,0,0:0:0:0:
64,192,161568,1,0,0:0:0:0:
448,192,161726,1,0,0:0:0:0:
192,192,162042,1,0,0:0:0:0:
448,192,162357,1,0,0:0:0:0:
192,192,162673,1,0,0:0:0:0:
448,192,162831,1,0,0:0:0:0:
64,192,162989,1,0,0:0:0:0:
320,192,163305,1,0,0:0:0:0:
192,192,163620,1,0,0:0:0:0:
320,192,163936,1,0,0:0:0:0:
64,192,164094,1,0,0:0:0:0:
448,192,164252,1,0,0:0:0:0:
192,192,164568,1,0,0:0:0:0:
448,192,164884,1,0,0:0:0:0:
64,192,165199,1,0,0:0:0:0:
448,192,165357,1,0,0:0:0:0:
192,192,165515,1,0,0:0:0:0:
320,192,165831,1,0,0:0:0:0:
64,192,166147,1,0,0:0:0:0:
320,192,166463,1,0,0:0:0:0:
64,192,166620,1,0,0:0:0:0:
448,192,166778,1,0,0:0:0:0:
192,192,167094,1,0,0:0:0:0:
448,192,167410,1,0,0:0:0:0:
192,192,167726,1,0,0:0:0:0:
448,192,168042,1,0,0:0:0:0:
64,192,168042,128,0,169305:0:0:0:0:
320,192,168357,1,0,0:0:0:0:
448,192,168673,1,0,0:0:0:0:
192,192,168989,1,0,0:0:0:0:
448,192,169305,1,0,0:0:0:0:
320,192,169305,128,0,169936:0:0:0:0:
64,192,169620,1,0,0:0:0:0:
192,192,169936,128,0,170568:0:0:0:0:
448,192,169936,1,0,0:0:0:0:
64,192,170252,1,0,0:0:0:0:
320,192,170568,128,0,171831:0:0:0:0:
448,192,170568,1,0,0:0:0:0:
64,192,170884,1,0,0:0:0:0:
192,192,171199,1,0,0:0:0:0:
64,192,171515,1,0,0:0:0:0:
448,192,171831,128,0,172463:0:0:0:0:
192,192,171831,1,0,0:0:0:0:
64,192,172147,1,0,0:0:0:0:
320,192,172463,128,0,173094:0:0:0:0:
192,192,172463,1,0,0:0:0:0:
448,192,172778,1,0,0:0:0:0:
192,192,173094,128,0,174357:0:0:0:0:
64,192,173094,1,0,0:0:0:0:
320,192,173410,1,0,0:0:0:0:
448,192,173726,1,0,0:0:0:0:
320,192,174042,1,0,0:0:0:0:
448,192,174357,128,0,175620:0:0:0:0:
64,192,174357,1,0,0:0:0:0:
192,192,174673,1,0,0:0:0:0:
320,192,174989,1,0,0:0:0:0:
64,192,175305,1,0,0:0:0:0:
192,192,175620,128,0,176884:0:0:0:0:
320,192,175620,1,0,0:0:0:0:
448,192,175936,1,0,0:0:0:0:
320,192,176252,1,0,0:0:0:0:
448,192,176568,1,0,0:0:0:0:
64,192,176884,128,0,177515:0:0:0:0:
320,192,176884,1,0,0:0:0:0:
448,192,177199,1,0,0:0:0:0:
320,192,177515,1,0,0:0:0:0:
64,192,177831,1,0,0:0:0:0:
320,192,177989,1,0,0:0:0:0:
448,192,178147,128,0,178463:0:0:0:0:
64,192,178463,128,0,178778:0:0:0:0:
192,192,178778,1,0,0:0:0:0:
320,192,179094,1,0,0:0:0:0:
64,192,179252,1,0,0:0:0:0:
448,192,179410,1,0,0:0:0:0:
448,192,179726,1,0,0:0:0:0:
448,192,180042,1,0,0:0:0:0:
64,192,180357,1,0,0:0:0:0:
448,192,180515,1,0,0:0:0:0:
192,192,180673,1,0,0:0:0:0:
192,192,180989,1,0,0:0:0:0:
320,192,181305,1,0,0:0:0:0:
448,192,181620,1,0,0:0:0:0:
64,192,181778,1,0,0:0:0:0:
192,192,181936,128,0,182252:0:0:0:0:
448,192,182410,1,0,0:0:0:0:
64,192,182568,1,0,0:0:0:0:
320,192,182884,1,0,0:0:0:0:
64,192,183042,1,0,0:0:0:0:
448,192,183199,128,0,183515:0:0:0:0:
320,192,183199,1,0,0:0:0:0:
64,192,183515,128,0,183831:0:0:0:0:
192,192,183515,1,0,0:0:0:0:
448,192,183831,1,0,0:0:0:0:
320,192,184147,1,0,0:0:0:0:
192,192,184463,1,0,0:0:0:0:
192,192,184778,1,0,0:0:0:0:
192,192,185094,1,0,0:0:0:0:
320,192,185410,1,0,0:0:0:0:
64,192,185568,1,0,0:0:0:0:
448,192,185726,1,0,0:0:0:0:
448,192,186042,1,0,0:0:0:0:
448,192,186357,1,0,0:0:0:0:
448,192,186673,1,0,0:0:0:0:
64,192,186831,1,0,0:0:0:0:
320,192,186989,1,0,0:0:0:0:
192,192,187305,1,0,0:0:0:0:
448,192,187463,1,0,0:0:0:0:
64,192,187620,1,0,0:0:0:0:
192,192,187936,1,0,0:0:0:0:
448,192,188094,1,0,0:0:0:0:
64,192,188252,128,0,188568:0:0:0:0:
192,192,188252,1,0,0:0:0:0:
448,192,188568,128,0,188884:0:0:0:0:
320,192,188568,1,0,0:0:0:0:
64,192,188884,1,0,0:0:0:0:
192,192,189199,1,0,0:0:0:0:
320,192,189515,1,0,0:0:0:0:
320,192,189831,1,0,0:0:0:0:
320,192,190147,1,0,0:0:0:0:
64,192,190463,1,0,0:0:0:0:
448,192,190620,1,0,0:0:0:0:
192,192,190778,1,0,0:0:0:0:
192,192,191094,1,0,0:0:0:0:
320,192,191410,1,0,0:0:0:0:
448,192,191726,1,0,0:0:0:0:
64,192,191884,1,0,0:0:0:0:
192,192,192042,128,0,192357:0:0:0:0:
448,192,192515,1,0,0:0:0:0:
64,192,192673,1,0,0:0:0:0:
320,192,192989,1,0,0:0:0:0:
64,192,193147,1,0,0:0:0:0:
448,192,193305,128,0,193620:0:0:0:0:
320,192,193305,1,0,0:0:0:0:
192,192,193620,1,0,0:0:0:0:
64,192,193620,128,0,193936:0:0:0:0:
320,192,193936,1,0,0:0:0:0:
448,192,194252,1,0,0:0:0:0:
320,192,194568,1,0,0:0:0:0:
320,192,194884,1,0,0:0:0:0:
320,192,195199,1,0,0:0:0:0:
64,192,195515,1,0,0:0:0:0:
448,192,195673,1,0,0:0:0:0:
192,192,195831,1,0,0:0:0:0:
192,192,196147,1,0,0:0:0:0:
192,192,196463,1,0,0:0:0:0:
192,192,196778,1,0,0:0:0:0:
448,192,196936,1,0,0:0:0:0:
64,192,197094,1,0,0:0:0:0:
64,192,197410,1,0,0:0:0:0:
448,192,197568,1,0,0:0:0:0:
192,192,197726,1,0,0:0:0:0:
64,192,198042,1,0,0:0:0:0:
448,192,198199,1,0,0:0:0:0:
320,192,198357,1,0,0:0:0:0:
64,192,198357,128,0,201042:0:0:0:0:
