osu file format v14

[General]
AudioFilename: audio.mp3
AudioLeadIn: 1500
PreviewTime: 61772
Countdown: 0
SampleSet: Soft
StackLeniency: 0.8
Mode: 0
LetterboxInBreaks: 0
WidescreenStoryboard: 1

[Editor]
Bookmarks: 21515,82147,112463,157620,168036,173094
DistanceSpacing: 1
BeatDivisor: 4
GridSize: 4
TimelineZoom: 2.5

[Metadata]
Title:A New King Is Born
TitleUnicode:A New King Is Born
Artist:Loki
ArtistUnicode:Loki
Creator:Sallad4ever
Version:Hard
Source:osu!
Tags:the fall of a new hero symphonic metal osu featured artist
BeatmapID:1625679
BeatmapSetID:773369

[Difficulty]
HPDrainRate:6
CircleSize:4
OverallDifficulty:6
ApproachRate:8
SliderMultiplier:1.4
SliderTickRate:1

[Events]
//Background and Video events
0,0,"FuLnmFr.jpg",0,0
//Break Periods
2,102551,111199
2,153078,157180
//Storyboard Layer 0 (Background)
//Storyboard Layer 1 (Fail)
//Storyboard Layer 2 (Pass)
//Storyboard Layer 3 (Foreground)
//Storyboard Layer 4 (Overlay)
//Storyboard Sound Samples

[TimingPoints]
36,315.789473684211,4,2,0,70,1,0
3825,-166.666666666667,4,2,0,70,0,0
21509,-100,4,2,0,65,0,0
81509,-100,4,2,0,45,0,0
82141,-100,4,2,0,75,0,1
87193,-100,4,2,0,65,0,1
87351,-100,4,2,0,75,0,1
97299,-100,4,2,0,65,0,1
97457,-100,4,2,0,75,0,1
102351,-100,4,2,0,75,0,0
157930,-100,4,2,0,55,0,0
173088,-100,4,2,0,65,0,0
178141,-100,4,2,0,75,0,1
188246,-100,4,2,0,85,0,1
198036,-100,4,2,0,50,0,1
198351,-100,4,2,0,65,0,1
200878,-100,4,2,0,30,0,0

[Colours]
Combo1 : 128,0,64
Combo2 : 64,0,128
Combo3 : 128,0,0

[HitObjects]
256,32,36,5,4,3:1:0:0:
256,108,1299,1,0,3:0:0:0:
116,192,2562,1,0,3:0:0:0:
396,192,3193,1,0,3:0:0:0:
340,352,3825,2,0,L|168:352,1,167.999994873047,4|0,3:1|1:0,0:0:0:0:
108,296,4772,1,0,0:0:0:0:
192,280,5088,6,0,P|256:234|320:280,2,167.999994873047,0|0|0,3:0|3:0|3:0,0:0:0:0:
256,124,6983,1,0,1:0:0:0:
396,28,7614,5,4,3:1:0:0:
256,124,8246,1,4,3:1:0:0:
108,44,8878,2,0,B|60:112|132:156|196:200|124:272,1,251.999992309571,4|0,1:1|0:0,0:0:0:0:
76,328,10141,5,4,3:1:0:0:
168,328,11404,1,0,3:0:0:0:
256,328,12667,1,0,3:0:0:0:
256,160,13299,1,0,3:0:0:0:
424,160,13930,1,4,3:1:0:0:
424,328,14562,5,0,1:0:0:0:
424,244,14878,1,0,0:0:0:0:
420,160,15193,2,0,B|464:96|464:96|424:12,1,167.999994873047,0|0,3:0|3:1,0:0:0:0:
256,16,16457,2,0,L|256:188,1,167.999994873047,0|0,3:0|1:0,0:0:0:0:
256,352,17720,5,4,0:1:0:0:
172,352,18036,2,0,B|161:310|161:310|128:276,1,83.9999974365235,0|4,0:0|3:1,0:0:0:0:
87,352,18667,1,0,0:0:0:0:
4,352,18983,1,4,3:1:0:0:
256,192,19062,12,0,21193,0:0:0:0:
28,80,21509,6,0,B|88:80|88:80|132:80|152:124,1,140,4|0,3:1|1:0,0:0:0:0:
156,192,21983,1,0,0:0:0:0:
160,262,22141,2,0,B|178:303|222:303|222:303|282:303,1,140,0|0,0:0|1:0,0:0:0:0:
353,304,22614,1,0,0:0:0:0:
424,304,22772,1,0,0:0:0:0:
424,164,23088,1,0,1:0:0:0:
424,92,23246,1,0,0:0:0:0:
424,20,23404,2,0,B|364:20|364:20|320:20|300:64,2,140,0|0|2,0:0|1:0|0:0,0:0:0:0:
424,164,24351,5,0,1:0:0:0:
360,196,24509,1,0,0:0:0:0:
296,228,24667,1,2,0:0:0:0:
16,160,25299,1,2,0:0:0:0:
256,32,25614,1,0,0:0:0:0:
496,160,25930,2,0,L|496:232,1,70,2|0,0:0|0:0,0:0:0:0:
360,266,26246,2,0,L|360:184,1,70,0|0,1:0|0:0,0:0:0:0:
316,76,26562,6,0,P|256:45|196:76,1,140,4|0,3:1|1:0,0:0:0:0:
256,116,27036,1,0,0:0:0:0:
256,188,27193,2,0,L|256:328,1,140,0|0,0:0|1:0,0:0:0:0:
199,373,27667,1,0,0:0:0:0:
140,332,27825,1,0,0:0:0:0:
44,232,28141,1,0,1:0:0:0:
80,172,28299,1,0,0:0:0:0:
116,112,28457,1,0,0:0:0:0:
220,20,28772,5,0,1:0:0:0:
292,20,28930,1,0,0:0:0:0:
256,80,29088,2,0,B|274:121|318:121|318:121|378:121,1,140,2|0,0:0|1:0,0:0:0:0:
400,192,29562,1,2,0:0:0:0:
378,263,29720,2,0,B|318:263|318:263|274:263|255:304,1,140,0|0,0:0|1:0,0:0:0:0:
183,305,30193,1,0,0:0:0:0:
112,305,30351,2,0,L|40:305,1,70,2|0,0:0|0:0,0:0:0:0:
160,196,30667,2,0,L|90:196,1,70,0|0,1:3|0:0,0:0:0:0:
212,92,30983,2,0,L|60:92,1,140,0|0,1:0|1:0,0:0:0:0:
300,92,31614,6,0,B|348:92|348:92|372:76|372:76|435:76,1,140,4|0,3:1|1:0,0:0:0:0:
505,76,32088,1,0,0:0:0:0:
504,148,32246,2,0,B|396:148|396:148|356:174,1,140,0|0,0:0|1:0,0:0:0:0:
332,224,32720,1,0,0:0:0:0:
288,280,32878,1,0,0:0:0:0:
148,280,33193,1,0,1:0:0:0:
77,280,33351,1,0,0:0:0:0:
8,280,33509,2,0,B|8:216|8:216|24:184|24:184|24:128,2,140,0|0|2,0:0|1:0|0:0,0:0:0:0:
120,368,34457,5,0,1:0:0:0:
188,368,34614,1,0,0:0:0:0:
256,368,34772,1,2,0:0:0:0:
344,56,35404,1,2,0:0:0:0:
344,328,35720,1,0,0:0:0:0:
88,192,36036,2,0,L|164:192,1,70,2|0,0:0|0:0,0:0:0:0:
290,236,36351,2,0,L|220:236,1,70,0|0,1:0|0:0,0:0:0:0:
360,264,36667,6,0,L|504:264,1,140,4|0,3:1|1:0,0:0:0:0:
496,192,37141,1,0,0:0:0:0:
496,120,37299,2,0,L|352:120,1,140,0|0,0:0|1:0,0:0:0:0:
284,120,37772,1,0,0:0:0:0:
284,48,37930,1,0,0:0:0:0:
144,48,38246,1,0,1:0:0:0:
76,56,38404,1,0,0:0:0:0:
52,120,38562,1,0,0:0:0:0:
52,264,38878,5,0,1:0:0:0:
122,264,39036,1,0,0:0:0:0:
191,264,39193,2,0,B|235:236|235:236|331:236,1,140,2|0,0:0|1:0,0:0:0:0:
393,236,39667,1,2,0:0:0:0:
463,236,39825,2,0,B|504:217|504:173|504:173|504:113,1,140,0|0,0:0|1:0,0:0:0:0:
433,112,40299,1,0,0:0:0:0:
376,72,40457,5,2,0:0:0:0:
316,108,40614,1,0,0:0:0:0:
256,72,40772,1,0,1:0:0:0:
196,108,40930,1,0,0:0:0:0:
136,72,41088,2,0,B|104:44|104:44|0:44,1,140,0|0,1:0|1:0,0:0:0:0:
120,308,41720,5,4,3:1:0:0:
392,308,42351,1,2,0:0:0:0:
392,172,42667,1,0,1:0:0:0:
392,240,42825,1,2,0:0:0:0:
392,308,42983,1,0,0:0:0:0:
392,36,43614,5,2,0:0:0:0:
256,36,43930,1,0,1:0:0:0:
184,36,44088,1,0,0:0:0:0:
112,36,44246,2,0,L|76:176,1,140,2|0,0:0|1:0,0:0:0:0:
147,171,44720,1,0,0:0:0:0:
217,171,44878,2,0,L|181:311,1,140,2|0,0:0|1:0,0:0:0:0:
256,308,45351,1,0,0:0:0:0:
329,306,45509,6,0,L|295:171,1,140,2|0,0:0|1:0,0:0:0:0:
367,169,45983,1,0,0:0:0:0:
384,236,46141,2,0,L|404:316,1,70,2|0,0:0|0:0,0:0:0:0:
488,372,46457,2,0,L|468:296,1,70,0|2,1:0|0:0,0:0:0:0:
438,169,46772,5,4,3:1:0:0:
184,48,47404,1,2,0:0:0:0:
328,48,47720,1,0,1:0:0:0:
256,48,47878,1,2,0:0:0:0:
184,48,48036,1,0,0:0:0:0:
256,320,48667,1,2,0:0:0:0:
256,48,48983,1,0,1:0:0:0:
456,212,49299,6,0,B|456:268|388:288|356:248|356:248|360:304|276:320|256:276|256:276|236:320|152:304|156:248|156:248|124:288|56:268|56:212,1,560,2|2,0:0|0:0,0:0:0:0:
20,148,50720,1,0,0:0:0:0:
88,148,50878,1,0,1:0:0:0:
156,148,51036,1,0,0:0:0:0:
223,148,51193,1,2,0:0:0:0:
289,148,51351,1,0,0:0:0:0:
356,148,51509,1,0,1:0:0:0:
424,148,51667,1,2,0:0:0:0:
492,148,51825,5,4,3:1:0:0:
352,344,52457,1,2,0:0:0:0:
432,232,52772,1,0,1:0:0:0:
392,288,52930,1,0,0:0:0:0:
352,344,53088,1,2,0:0:0:0:
80,344,53720,5,2,0:0:0:0:
216,344,54036,1,0,1:0:0:0:
216,276,54193,1,0,0:0:0:0:
216,208,54351,2,0,B|196:168|196:168|96:132,1,140,2|0,0:0|1:0,0:0:0:0:
44,104,54825,1,0,0:0:0:0:
76,40,54983,2,0,L|216:40,1,140,2|0,0:0|1:0,0:0:0:0:
256,100,55457,1,0,0:0:0:0:
296,40,55614,6,0,L|436:40,1,140,2|0,0:0|1:0,0:0:0:0:
468,104,56088,1,0,0:0:0:0:
496,172,56246,2,0,L|420:172,1,70,2|0,0:0|0:0,0:0:0:0:
336,240,56562,2,0,L|412:240,1,70,0|2,1:0|0:0,0:0:0:0:
496,296,56878,5,4,3:1:0:0:
256,16,57509,1,2,0:0:0:0:
352,112,57825,1,0,1:0:0:0:
304,64,57983,1,0,0:0:0:0:
256,16,58141,1,2,0:0:0:0:
64,204,58772,1,2,0:0:0:0:
256,16,59088,1,0,1:0:0:0:
445,204,59404,2,0,B|376:204|344:284|344:284|280:284|256:189|256:189|232:284|168:284|168:284|136:204|64:204,1,560,0|4,0:0|3:1,0:0:0:0:
256,188,61930,5,2,0:0:0:0:
256,52,62246,1,0,0:0:0:0:
256,188,62562,1,0,1:0:0:0:
212,240,62720,1,0,0:0:0:0:
164,288,62878,2,0,L|80:288,1,70
24,288,63193,1,0,1:0:0:0:
24,56,63509,1,2,0:0:0:0:
256,56,63825,1,0,1:0:0:0:
256,336,64772,5,2,0:0:0:0:
324,336,64930,1,0,0:0:0:0:
392,336,65088,2,0,L|472:336,1,70,0|0,1:0|0:0,0:0:0:0:
392,264,65404,2,0,L|468:264,1,70
392,192,65720,1,0,1:0:0:0:
136,192,66036,1,2,0:0:0:0:
392,192,66351,1,0,1:0:0:0:
136,76,66983,5,4,3:1:0:0:
56,192,67299,1,0,0:0:0:0:
56,331,67614,1,0,1:0:0:0:
126,331,67772,1,0,0:0:0:0:
196,332,67930,2,0,B|232:332|232:332|256:308,1,70
256,236,68246,1,0,1:0:0:0:
100,120,68562,1,2,0:0:0:0:
412,120,68878,1,0,1:0:0:0:
412,120,69509,6,0,B|356:76|252:64|256:192|260:320|156:308|100:264,1,420,2|0,0:0|0:3,0:3:0:0:
100,192,70614,1,0,0:0:0:0:
100,120,70772,2,0,B|156:76|260:64|256:192|252:320|356:308|412:264,1,420,2|0,0:0|0:0,0:0:0:0:
480,144,72036,5,4,3:1:0:0:
476,4,72351,1,0,0:0:0:0:
480,144,72667,1,0,1:0:0:0:
410,146,72825,1,0,0:0:0:0:
340,148,72983,2,0,L|292:80,1,70
256,36,73299,1,0,1:0:0:0:
256,276,73614,1,2,0:0:0:0:
256,36,73930,1,0,1:0:0:0:
76,348,74878,5,2,0:0:0:0:
146,348,75036,1,0,0:0:0:0:
216,348,75193,2,0,L|288:348,1,70,0|0,1:0|0:0,0:0:0:0:
216,276,75509,2,0,L|288:276,1,70
216,204,75825,1,0,1:0:0:0:
396,36,76141,1,2,0:0:0:0:
116,36,76457,1,0,1:0:0:0:
116,36,77088,5,4,3:1:0:0:
256,36,77404,1,0,0:0:0:0:
396,36,77720,1,0,1:0:0:0:
396,105,77878,1,0,0:0:0:0:
396,174,78036,2,0,L|396:258,1,70
396,316,78351,1,0,1:0:0:0:
396,36,78667,1,2,0:0:0:0:
396,316,78983,1,0,1:0:0:0:
396,36,79614,6,0,L|320:36,1,70,0|0,0:0|0:0,0:0:0:0:
290,104,79930,2,0,L|360:104,1,70
322,172,80246,2,0,L|252:172,1,70,2|0,0:0|0:0,0:0:0:0:
220,240,80562,2,0,L|296:240,1,70
360,240,80878,1,2,0:0:0:0:
96,96,81509,5,0,1:0:0:0:
96,166,81667,1,0,1:0:0:0:
96,236,81825,1,0,1:0:0:0:
96,306,81983,1,0,1:0:0:0:
24,308,82141,6,0,L|24:160,1,140,4|0,3:1|1:0,0:0:0:0:
24,96,82614,1,0,0:0:0:0:
96,96,82772,2,0,B|156:96|156:96|200:96|220:140,1,140,0|0,0:0|1:0,0:0:0:0:
220,208,83246,1,0,0:0:0:0:
220,280,83404,2,0,P|256:329|292:280,1,140,0|0,0:0|1:0,0:0:0:0:
292,208,83878,1,0,0:0:0:0:
292,136,84036,2,0,B|310:94|354:94|354:94|414:94,1,140,0|0,0:0|1:0,0:0:0:0:
412,236,84667,5,2,0:0:0:0:
328,348,84983,1,0,1:0:0:0:
256,348,85141,1,0,0:0:0:0:
184,348,85299,1,2,0:0:0:0:
8,40,85930,1,2,0:0:0:0:
256,40,86246,1,0,0:0:0:0:
504,40,86562,2,0,L|504:120,1,70,0|0,1:0|0:0,0:0:0:0:
388,174,86878,2,0,L|388:244,1,70,0|0,1:0|0:0,0:0:0:0:
320,348,87193,6,0,P|256:372|192:348,1,140,4|0,3:1|1:0,0:0:0:0:
132,312,87667,1,0,0:0:0:0:
192,276,87825,2,0,P|256:252|320:276,1,140,0|0,0:0|1:0,0:0:0:0:
372,224,88299,1,0,0:0:0:0:
324,172,88457,2,0,P|256:159|188:172,1,140,0|0,0:0|1:0,0:0:0:0:
152,112,88930,1,0,0:0:0:0:
188,52,89088,2,0,P|256:39|324:52,1,140,0|0,0:0|1:0,0:0:0:0:
465,52,89720,5,2,0:0:0:0:
465,192,90036,1,0,1:0:0:0:
395,193,90193,1,0,0:0:0:0:
324,192,90351,2,0,P|256:179|188:192,1,140,2|0,0:0|1:0,0:0:0:0:
124,228,90825,1,0,0:0:0:0:
84,288,90983,2,0,L|12:248,1,70,2|0,0:0|0:0,0:0:0:0:
64,192,91299,2,0,L|32:124,1,70,0|0,1:0|0:0,0:0:0:0:
128,156,91614,2,0,L|128:16,1,140,0|0,1:0|1:0,0:0:0:0:
200,208,92246,6,0,B|200:268|200:268|184:296|184:296|184:348,1,140,4|0,3:1|1:0,0:0:0:0:
256,364,92720,1,0,0:0:0:0:
328,344,92878,2,0,B|328:297|328:297|312:269|312:269|312:209,1,140,0|0,0:0|1:0,0:0:0:0:
312,138,93351,1,0,0:0:0:0:
360,84,93509,2,0,B|388:120|388:120|388:172|388:172|420:216,1,140,0|0,0:0|1:0,0:0:0:0:
456,264,93983,1,0,0:0:0:0:
508,312,94141,2,0,B|480:344|480:344|380:344,1,140,0|0,0:0|1:0,0:0:0:0:
234,344,94772,5,2,0:0:0:0:
120,260,95088,1,0,1:0:0:0:
120,189,95246,1,0,0:0:0:0:
120,118,95404,1,2,0:0:0:0:
454,8,96036,1,2,0:0:0:0:
256,192,96351,1,0,0:0:0:0:
454,376,96667,2,0,L|382:376,1,70,0|0,1:0|0:0,0:0:0:0:
220,296,96983,2,0,L|292:296,1,70,0|0,1:0|0:0,0:0:0:0:
128,376,97299,6,0,B|86:357|86:313|86:313|86:253,1,140,4|0,3:1|1:0,0:0:0:0:
104,184,97772,1,0,0:0:0:0:
144,124,97930,2,0,P|180:75|216:124,1,140,0|0,0:0|1:0,0:0:0:0:
256,184,98404,1,0,0:0:0:0:
295,122,98562,2,0,P|332:75|368:124,1,140,0|0,0:0|1:0,0:0:0:0:
408,184,99036,1,0,0:0:0:0:
425,253,99193,2,0,B|425:313|425:313|425:357|384:376,1,140,0|0,0:0|1:0,0:0:0:0:
256,320,99825,5,2,0:0:0:0:
256,180,100141,1,0,1:0:0:0:
256,110,100299,1,0,0:0:0:0:
256,40,100457,1,2,0:0:0:0:
256,320,100772,1,0,1:0:0:0:
256,40,101088,5,0,1:0:0:0:
192,72,101246,1,0,0:0:0:0:
192,144,101404,1,0,1:0:0:0:
256,180,101562,1,0,0:0:0:0:
320,144,101720,1,0,1:0:0:0:
320,72,101878,1,0,0:0:0:0:
256,110,102036,2,0,L|256:254,1,140,0|4,1:0|3:1,0:0:0:0:
256,44,112457,6,0,L|176:44,1,70,2|0,0:0|0:0,0:0:0:0:
115,44,112772,1,0,0:0:0:0:
44,44,112930,1,0,0:0:0:0:
44,116,113088,2,0,B|44:192|44:192|120:232,1,140,0|0,1:0|0:0,0:0:0:0:
172,228,113562,1,0,0:0:0:0:
128,284,113720,2,0,B|128:368|188:368|252:368|256:298|256:298|260:368|324:368|384:368|384:284,1,420,2|0,0:0|0:0,0:0:0:0:
256,228,114983,6,0,L|256:152,1,70,2|0,0:0|0:0,0:0:0:0:
292,96,115299,1,0,0:0:0:0:
220,96,115457,1,0,0:0:0:0:
192,32,115614,2,0,P|256:8|320:32,1,140,0|0,1:0|0:0,0:0:0:0:
388,56,116088,1,0,0:0:0:0:
452,88,116246,2,0,B|452:132|452:132|468:180|468:180|468:232,2,140,2|0|0,0:0|0:0|1:0,0:0:0:0:
448,368,117509,6,0,B|468:336|468:336|468:304,1,70,2|0,0:0|0:0,0:0:0:0:
397,303,117825,1,0,0:0:0:0:
326,303,117983,1,0,0:0:0:0:
255,303,118141,2,0,B|214:284|214:240|214:240|214:180,1,140,0|0,1:0|0:0,0:0:0:0:
216,108,118614,1,0,0:0:0:0:
145,108,118772,2,0,P|-6:192|144:276,1,420,2|0,0:0|0:0,0:0:0:0:
220,164,120036,6,0,L|220:240,1,70,2|0,0:0|0:0,0:0:0:0:
220,303,120351,1,0,0:0:0:0:
220,372,120509,1,0,0:0:0:0:
283,338,120667,2,0,B|343:338|343:338|387:338|406:297,1,140,0|0,1:0|0:0,0:0:0:0:
399,228,121141,1,0,0:0:0:0:
342,269,121299,2,0,B|301:250|301:206|301:206|301:146,1,140,2|0,0:0|1:0,0:0:0:0:
302,76,121772,1,0,0:0:0:0:
364,112,121930,2,0,B|404:96|404:48|404:48|404:-12,1,140,2|0,0:0|1:0,0:0:0:0:
208,76,122562,5,2,0:0:0:0:
140,76,122720,1,0,0:0:0:0:
72,76,122878,1,0,0:0:0:0:
4,76,123036,1,0,0:0:0:0:
4,144,123193,2,0,B|4:188|4:188|24:216|24:216|24:288,1,140,0|0,1:0|0:0,0:0:0:0:
24,348,123667,1,0,0:0:0:0:
96,348,123825,2,0,B|96:288|188:288|188:344|188:344|256:361|324:344|324:344|324:288|416:288|416:344,1,420,2|0,0:0|0:0,0:0:0:0:
500,192,125088,5,2,0:0:0:0:
428,192,125246,1,0,0:0:0:0:
356,192,125404,1,0,0:0:0:0:
284,192,125562,1,0,0:0:0:0:
212,192,125720,2,0,L|68:192,1,140,0|0,1:0|0:0,0:0:0:0:
0,192,126193,1,0,0:0:0:0:
40,252,126351,2,0,B|72:232|72:188|72:188|72:116,2,140,2|0|0,0:0|0:0|1:0,0:0:0:0:
196,20,127614,5,2,0:0:0:0:
256,57,127772,1,0,0:0:0:0:
303,110,127930,1,0,0:0:0:0:
256,164,128088,1,0,0:0:0:0:
196,204,128246,2,0,P|256:235|316:204,1,140,0|0,1:0|0:0,0:0:0:0:
372,160,128720,1,0,0:0:0:0:
416,216,128878,2,0,P|256:330|96:216,1,420,2|0,0:0|0:0,0:0:0:0:
220,148,130141,5,2,0:0:0:0:
292,148,130299,1,0,0:0:0:0:
292,76,130457,1,0,0:0:0:0:
220,76,130614,1,0,0:0:0:0:
220,148,130772,2,0,B|220:188|220:188|196:220|196:220|196:284,1,140,0|0,1:0|0:0,0:0:0:0:
196,352,131246,1,0,0:0:0:0:
132,316,131404,2,0,B|102:293|102:293|102:181,1,140,2|0,0:0|1:0,0:0:0:0:
104,120,131878,1,0,0:0:0:0:
40,152,132036,2,0,B|16:120|16:120|16:16,1,140,2|0,0:0|1:0,0:0:0:0:
4,312,132667,6,0,B|24:400|184:400|176:252|176:252|192:360|256:377|320:360|336:252|336:252|328:400|488:400|508:312,1,840,2|2,0:0|0:0,0:0:0:0:
484,40,135193,2,0,B|464:72|396:72|364:24|364:24|364:104|320:156|320:156|300:68|256:36|256:36|212:68|192:156|192:156|148:104|148:24|148:24|116:72|48:72|28:40,1,840,2|2,0:0|0:0,0:0:0:0:
4,312,137720,6,0,B|24:224|184:224|176:372|176:372|192:264|256:247|320:264|336:372|336:372|328:224|488:224|508:312,1,840,2|2,0:0|0:0,0:0:0:0:
480,100,140246,2,0,B|480:152|420:152|420:152|372:152|372:152|328:16|328:16|320:124|256:146|192:124|184:16|184:16|140:152|140:152|92:152|92:152|32:152|32:100,1,840,2|2,0:0|0:0,0:0:0:0:
256,228,142772,5,2,0:0:0:0:
115,228,143088,2,0,P|256:358|396:228,1,420
256,228,144351,1,0,0:0:0:0:
256,88,144667,1,2,0:0:0:0:
256,88,145299,5,2,0:0:0:0:
324,208,145614,2,0,B|340:240|336:272|336:272|320:348|320:348|256:320|192:348|192:348|176:272|176:272|172:240|188:208,1,420
256,88,146878,1,0,0:0:0:0:
256,228,147193,1,2,0:0:0:0:
52,36,147825,5,2,0:0:0:0:
52,176,148141,2,0,B|60:227|104:227|104:227|164:227,2,140
52,36,149088,1,0,0:0:0:0:
256,36,149404,1,0,0:0:0:0:
460,36,149720,1,2,0:0:0:0:
468,316,150351,5,2,0:0:0:0:
400,192,150667,2,0,B|348:192|348:192|320:216|320:216|256:216,2,140
468,316,151614,1,0,0:0:0:0:
256,316,151930,1,0,0:0:0:0:
44,316,152246,1,2,0:0:0:0:
148,136,152562,1,0,0:0:0:0:
364,136,152878,1,4,3:1:0:0:
76,200,157930,6,0,L|76:280,2,70,2|0|0,0:0|0:0|0:0,0:0:0:0:
136,164,158404,2,0,L|136:12,2,140,2|2|2,0:0|0:0|0:0,0:0:0:0:
216,224,159193,6,0,L|216:304,2,70,2|0|0,0:0|0:0|0:0,0:0:0:0:
276,188,159667,2,0,L|276:36,2,140,2|2|2,0:0|0:0|0:0,0:0:0:0:
352,256,160457,6,0,L|352:336,2,70,2|0|0,0:0|0:0|0:0,0:0:0:0:
412,220,160930,2,0,L|412:68,2,140,2|2|2,0:0|0:0|0:0,0:0:0:0:
352,326,161720,6,0,L|290:366,1,70,2|0,0:0|0:0,0:0:0:0:
248,310,162036,2,0,L|164:290,1,70
108,292,162351,2,0,L|20:332,2,70,2|0|2,0:0|0:0|0:0,0:0:0:0:
4,193,162983,5,2,0:0:0:0:
74,193,163141,1,0,0:0:0:0:
40,132,163299,1,0,0:0:0:0:
112,132,163457,2,0,B|166:151|166:151|208:236,2,140,2|2|2,0:0|0:0|0:0,0:0:0:0:
76,70,164246,5,2,0:0:0:0:
148,72,164404,1,0,0:0:0:0:
182,9,164562,1,0,0:0:0:0:
244,44,164720,2,0,B|236:116|236:116|272:188,2,140,2|2|2,0:0|0:0|0:0,0:0:0:0:
312,36,165509,5,2,0:0:0:0:
312,107,165667,1,0,0:0:0:0:
372,71,165825,1,0,0:0:0:0:
372,143,165983,2,0,B|392:207|392:207|368:287,2,140,2|2|2,0:0|0:0|0:0,0:0:0:0:
308,244,166772,6,0,L|280:312,1,70,2|0,0:0|0:0,0:0:0:0:
204,140,167088,2,0,L|232:72,1,70
286,125,167404,1,2,0:0:0:0:
261,191,167562,1,0,0:0:0:0:
308,244,167720,1,2,0:0:0:0:
281,309,167878,1,0,0:0:0:0:
336,353,168036,6,0,L|412:353,1,70,0|0,1:0|0:0,0:0:0:0:
478,353,168351,1,0,0:0:0:0:
476,282,168509,2,0,B|440:226|440:226|452:150,1,140,0|0,1:0|1:0,0:0:0:0:
468,84,168983,2,0,L|484:16,1,70,0|0,0:0|1:0,0:0:0:0:
392,84,169299,6,0,B|356:84|356:84|312:100,1,70,0|0,1:0|0:0,0:0:0:0:
256,112,169614,1,0,0:0:0:0:
188,132,169772,2,0,B|116:152|116:152|32:152,1,140,0|0,1:0|1:0,0:0:0:0:
24,88,170246,2,0,L|0:4,1,70,0|0,0:0|1:0,0:0:0:0:
52,152,170562,6,0,L|76:224,1,70,0|0,1:0|0:0,0:0:0:0:
96,284,170878,1,0,0:0:0:0:
124,348,171036,2,0,B|192:320|192:320|280:332,1,140,0|0,1:0|1:0,0:0:0:0:
328,340,171509,2,0,L|400:352,1,70,0|0,0:0|1:0,0:0:0:0:
312,268,171825,6,0,L|229:252,1,70,0|0,1:0|0:0,0:0:0:0:
200,192,172141,2,0,L|283:176,1,70
340,120,172457,2,0,L|257:104,2,70,0|0|0,1:0|0:0|1:0,0:0:0:0:
336,260,173088,6,0,L|392:316,2,70,0|0|0,1:0|0:0|0:0,0:0:0:0:
281,308,173562,2,0,B|265:326|265:326|149:326,1,140,0|0,1:0|1:0,0:0:0:0:
78,326,174036,2,0,L|78:246,1,70,0|0,0:0|1:0,0:0:0:0:
48,192,174351,6,0,L|-28:192,2,70,0|0|0,1:0|0:0|0:0,0:0:0:0:
116,176,174825,2,0,B|131:194|131:194|247:194,1,140,0|0,1:0|1:0,0:0:0:0:
320,192,175299,2,0,L|320:120,1,70,0|0,0:0|1:0,0:0:0:0:
392,120,175614,6,0,L|392:196,2,70,0|0|0,1:0|0:0|0:0,0:0:0:0:
352,60,176088,2,0,B|336:41|336:41|220:41,1,140,0|0,1:0|1:0,0:0:0:0:
150,41,176562,2,0,L|104:104,1,70,0|0,0:0|1:0,0:0:0:0:
60,152,176878,6,0,L|60:228,1,70,0|0,1:0|0:0,0:0:0:0:
106,277,177193,1,0,1:0:0:0:
160,231,177351,1,0,0:0:0:0:
196,292,177509,2,0,P|256:324|316:292,1,140,4|0,1:1|0:0,0:0:0:0:
256,168,178141,5,4,3:1:0:0:
373,372,178457,1,2,0:0:0:0:
421,240,178772,1,0,1:0:0:0:
349,240,178930,1,0,0:0:0:0:
385,300,179088,1,2,0:0:0:0:
457,300,179246,1,0,0:0:0:0:
497,240,179404,2,0,B|489:168|413:168|413:168|256:168,1,280,2|0,0:0|1:0,0:0:0:0:
116,164,180351,1,2,0:0:0:0:
44,164,180509,1,0,0:0:0:0:
44,236,180667,6,0,L|44:388,2,140,2|2|0,0:0|0:0|1:0,0:0:0:0:
44,164,181457,1,0,0:0:0:0:
102,126,181614,1,2,0:0:0:0:
160,87,181772,1,0,0:0:0:0:
224,55,181930,2,0,B|224:115|224:115|224:159|275:167,1,140,2|0,0:0|1:0,0:0:0:0:
345,166,182404,1,0,0:0:0:0:
312,231,182562,2,0,B|312:291|312:291|312:335|363:343,1,140,2|0,0:0|1:0,0:0:0:0:
492,236,183193,5,2,0:0:0:0:
492,0,183509,1,2,0:0:0:0:
492,236,183825,1,0,1:0:0:0:
445,288,183983,1,0,0:0:0:0:
404,344,184141,1,2,0:0:0:0:
363,287,184299,1,0,0:0:0:0:
320,232,184457,2,0,P|256:133|192:232,1,280,2|0,0:0|1:0,0:0:0:0:
124,344,185404,1,0,0:0:0:0:
52,344,185562,1,0,0:0:0:0:
88,284,185720,6,0,B|88:132,2,140,2|2|0,0:0|0:0|1:0,0:0:0:0:
256,96,186667,1,0,0:0:0:0:
324,80,186825,1,2,0:0:0:0:
364,24,186983,1,0,1:0:0:0:
256,288,187299,1,2,0:0:0:0:
188,304,187457,1,0,0:0:0:0:
148,360,187614,1,0,1:0:0:0:
256,288,187930,1,0,1:0:0:0:
356,192,188246,5,4,3:1:0:0:
256,84,188562,2,0,B|144:84|144:84|120:108,1,140,0|0,1:0|1:0,0:0:0:0:
70,148,189036,1,0,0:0:0:0:
14,192,189193,1,0,1:0:0:0:
70,236,189351,1,0,0:0:0:0:
125,281,189509,2,0,B|145:301|145:301|257:301,2,140,0|0|0,1:0|1:0|1:0,0:0:0:0:
14,192,190457,1,0,1:0:0:0:
84,192,190614,1,0,0:0:0:0:
154,192,190772,6,0,B|154:144|154:144|134:104|134:104|134:52,2,140,0|0|0,1:0|1:0|1:0,0:0:0:0:
212,232,191562,1,0,0:0:0:0:
264,278,191720,1,0,1:0:0:0:
321,318,191878,1,0,0:0:0:0:
384,349,192036,2,0,B|412:309|412:309|412:209,1,140,0|0,1:0|1:0,0:0:0:0:
412,149,192509,1,0,0:0:0:0:
472,185,192667,2,0,B|500:145|500:145|500:53,1,140,0|0,1:0|1:0,0:0:0:0:
438,20,193141,1,0,1:0:0:0:
368,20,193299,5,4,3:1:0:0:
84,192,193614,1,0,1:0:0:0:
196,112,193930,1,0,1:0:0:0:
256,72,194088,1,0,0:0:0:0:
316,112,194246,1,0,1:0:0:0:
256,148,194404,1,0,0:0:0:0:
196,112,194562,2,0,B|140:76|140:76|140:0,2,140,0|0|0,1:0|1:0|1:0,0:0:0:0:
220,248,195509,5,0,1:0:0:0:
256,308,195667,1,0,0:0:0:0:
291,248,195825,1,0,1:3:0:0:
256,48,196141,1,0,1:0:0:0:
464,192,196457,1,0,1:0:0:0:
256,192,196772,5,0,1:0:0:0:
152,168,196930,1,0,0:0:0:0:
76,96,197088,1,4,3:1:0:0:
256,192,197404,1,0,0:0:0:0:
360,168,197562,1,0,0:0:0:0:
436,96,197720,1,4,3:1:0:0:
256,48,198036,6,0,L|256:-8,4,35,0|0|0|0|4,1:0|1:0|1:0|1:0|3:1,1:0:0:0:
256,192,198430,12,0,200878,0:0:0:0:
