osu file format v14

[General]
AudioFilename: audio.mp3
AudioLeadIn: 1500
PreviewTime: 61772
Countdown: 0
SampleSet: Soft
StackLeniency: 0.8
Mode: 0
LetterboxInBreaks: 0
WidescreenStoryboard: 0

[Editor]
Bookmarks: 42,21515,79620,102357,112463,142778,152884,162673,167726,172778,173094,178147
DistanceSpacing: 1
BeatDivisor: 4
GridSize: 4
TimelineZoom: 1

[Metadata]
Title:A New King Is Born
TitleUnicode:A New King Is Born
Artist:Loki
ArtistUnicode:Loki
Creator:Sallad4ever
Version:Easy
Source:osu!
Tags:the fall of a new hero symphonic metal osu featured artist
BeatmapID:1625678
BeatmapSetID:773369

[Difficulty]
HPDrainRate:2
CircleSize:2
OverallDifficulty:2
ApproachRate:3
SliderMultiplier:0.8
SliderTickRate:1

[Events]
//Background and Video events
0,0,"FuLnmFr.jpg",0,0
//Break Periods
2,19183,20069
2,102551,111017
2,153078,156490
//Storyboard Layer 0 (Background)
//Storyboard Layer 1 (Fail)
//Storyboard Layer 2 (Pass)
//Storyboard Layer 3 (Foreground)
//Storyboard Layer 4 (Overlay)
//Storyboard Sound Samples

[TimingPoints]
36,315.789473684211,4,2,0,70,1,0
82141,-100,4,2,0,75,0,1
102351,-100,4,2,0,85,0,0
168036,-100,4,2,0,55,0,0
173088,-100,4,2,0,65,0,0
178141,-100,4,2,0,85,0,1
200878,-100,4,2,0,40,0,0

[Colours]
Combo1 : 128,0,64
Combo2 : 64,0,128
Combo3 : 128,0,0

[HitObjects]
256,32,36,5,4,0:1:0:0:
256,352,1299,1,0,3:0:0:0:
36,192,2562,5,0,3:0:0:0:
148,76,3193,1,0,3:0:0:0:
256,192,3825,1,4,3:1:0:0:
476,192,5088,5,0,3:0:0:0:
416,340,5720,1,0,3:0:0:0:
256,356,6351,1,0,3:0:0:0:
328,52,7614,6,0,P|256:23|184:52,2,160,4|4|4,3:1|3:1|3:1,0:0:0:0:
476,344,10141,5,4,0:1:0:0:
256,128,11404,1,0,3:0:0:0:
36,344,12667,5,0,3:0:0:0:
196,344,13299,1,0,3:0:0:0:
116,208,13930,1,4,3:1:0:0:
416,132,15193,5,0,3:0:0:0:
255,132,15825,1,0,3:0:0:0:
256,292,16457,1,0,3:0:0:0:
32,64,17720,6,0,B|12:104|12:104|32:180|32:180|16:220,2,160,4|4|4,3:1|3:1|3:1,0:0:0:0:
328,192,21509,6,0,P|257:78|184:192,1,320,4|2,3:1|0:0,0:0:0:0:
256,332,23404,1,0,1:1:0:0:
416,332,24036,6,0,B|448:301|448:257|448:257|448:180,1,160,2|0,0:0|1:1,0:0:0:0:
332,72,25299,1,2,0:0:0:0:
256,92,25614,1,0,0:0:0:0:
180,72,25930,1,0,1:2:0:0:
184,232,26562,6,0,P|255:346|328:232,1,320,2|2,0:0|0:0,0:0:0:0:
256,92,28457,1,0,1:0:0:0:
96,92,29088,6,0,B|64:123|64:167|64:167|64:244,1,160,2|0,0:0|1:0,0:0:0:0:
172,360,30351,2,0,B|204:329|204:285|204:285|204:208,1,160,2|4,0:0|2:1,0:0:0:0:
96,92,31614,6,0,P|256:83|416:92,1,320,2|2,0:0|0:0,0:0:0:0:
448,240,33509,1,0,1:0:0:0:
348,364,34141,6,0,B|316:333|316:289|316:289|316:212,1,160,2|0,0:0|1:0,0:0:0:0:
320,60,35404,1,2,0:0:0:0:
256,108,35720,1,0,0:0:0:0:
192,60,36036,1,0,1:2:0:0:
192,220,36667,6,0,B|192:304|192:304|192:352|148:380|104:352|104:304|104:304|104:220,1,320,2|2,0:0|0:0,0:0:0:0:
104,60,38562,1,0,1:0:0:0:
263,60,39193,6,0,B|295:91|295:135|295:135|295:212,1,160,2|0,0:0|1:0,0:0:0:0:
295,367,40457,1,2,0:0:0:0:
374,367,40772,1,0,0:0:0:0:
456,368,41088,2,0,L|456:204,1,160,0|4,1:0|3:1,0:0:0:0:
452,48,42351,6,0,L|512:112,2,80,0|2|0,1:0|0:0|0:0,0:0:0:0:
296,40,43614,1,0,1:0:0:0:
324,116,43930,1,2,0:0:0:0:
352,192,44246,6,0,B|372:272|372:272|392:348|336:360|288:368|268:304|268:304|256:256|256:256|244:304|244:304|224:368|176:360|120:348|140:272|140:272|160:192,1,640,0|2,0:0|0:0,0:0:0:0:
188,36,47404,5,0,1:0:0:0:
256,72,47720,1,2,0:0:0:0:
256,152,48036,1,0,0:0:0:0:
196,300,48667,1,0,1:0:0:0:
256,352,48983,1,2,0:0:0:0:
316,300,49299,6,0,B|456:300|456:300|520:300|540:236|516:180|480:180|480:180|528:40|348:-16|316:140,1,640,0|4,0:0|3:1,0:0:0:0:
176,220,52457,6,0,L|92:220,2,80,0|2|0,1:0|0:0|0:0,0:0:0:0:
316,300,53720,1,0,1:0:0:0:
256,352,54036,1,2,0:0:0:0:
196,300,54351,6,0,B|56:300|56:300|-8:300|-28:236|-4:180|32:180|32:180|-16:40|164:-16|196:140,1,640,0|4,0:0|3:1,0:0:0:0:
276,276,57509,5,0,1:0:0:0:
328,336,57825,1,2,0:0:0:0:
408,336,58141,1,0,0:0:0:0:
460,196,58772,1,0,1:0:0:0:
491,122,59088,1,2,0:0:0:0:
416,96,59404,6,0,P|256:87|96:96,1,320,2|4,0:0|3:1,0:0:0:0:
256,353,61930,5,2,0:0:0:0:
256,272,62246,1,0,0:0:0:0:
256,192,62562,2,0,L|256:32,2,160,0|0|0,1:0|1:0|1:0,0:0:0:0:
64,332,64772,6,0,B|141:332|141:332|185:332|216:300,1,160,2|0,0:0|0:0,0:0:0:0:
296,300,65720,2,0,B|327:332|371:332|371:332|448:332,1,160,0|0,1:0|1:0,0:0:0:0:
447,175,66983,5,2,0:0:0:0:
372,196,67299,1,0,0:0:0:0:
296,216,67614,2,0,B|264:185|264:141|264:141|264:64,2,160,0|0|0,1:0|1:0|1:0,0:0:0:0:
440,272,69509,6,0,B|440:291|440:291|440:335|404:356|372:356|372:356|256:356,1,240,2|0,0:0|0:0,0:0:0:0:
176,355,70772,2,0,B|157:355|157:355|113:355|93:323|93:287|93:287|93:171,1,240,2|2,0:0|0:0,0:0:0:0:
96,92,72036,6,0,P|256:101|416:92,1,320,4|0,3:1|1:0,0:0:0:0:
416,252,73930,1,0,1:0:0:0:
172,252,74878,6,0,B|141:284|97:284|97:284|20:284,1,160,2|0,0:0|0:0,0:0:0:0:
23,203,75825,2,0,B|54:171|98:171|98:171|175:171,1,160,0|0,1:0|1:0,0:0:0:0:
96,40,77088,5,2,0:0:0:0:
176,40,77404,1,0,0:0:0:0:
256,40,77720,2,0,B|333:40|333:40|377:40|408:72,2,160,0|0|0,1:0|1:0|1:0,0:0:0:0:
212,192,79614,6,0,B|212:276|212:276|212:324|256:352|300:324|300:276|300:276|300:192,1,320,2|2,0:0|0:0,0:0:0:0:
256,40,81509,1,2,0:0:0:0:
112,108,82141,6,0,L|44:252,2,160,4|0|2,0:1|1:0|0:0,0:0:0:0:
256,40,84036,1,0,1:0:0:0:
400,108,84667,6,0,L|468:252,1,160,2|0,0:0|1:0,0:0:0:0:
336,336,85930,1,2,0:0:0:0:
256,352,86246,1,0,0:0:0:0:
176,336,86562,1,0,1:0:0:0:
180,176,87193,6,0,P|256:198|332:176,2,160,2|0|2,0:0|1:0|0:0,0:0:0:0:
32,116,89088,1,0,1:0:0:0:
180,56,89720,6,0,P|256:34|332:56,1,160,2|0,0:0|1:0,0:0:0:0:
480,116,90983,1,2,0:0:0:0:
480,192,91299,1,0,0:0:0:0:
480,268,91614,1,4,3:1:0:0:
336,328,92246,6,0,L|172:328,2,160,2|0|2,0:0|1:0|0:0,0:0:0:0:
256,192,94141,1,0,1:0:0:0:
336,56,94772,6,0,L|172:56,1,160,2|0,0:0|1:2,0:0:0:0:
32,116,96036,1,2,0:0:0:0:
32,192,96351,1,0,0:0:0:0:
32,268,96667,1,0,1:0:0:0:
168,192,97299,6,0,B|168:72|256:52|344:72|344:192,1,320,2|2,0:0|0:0,0:0:0:0:
343,351,99193,1,0,1:0:0:0:
184,348,99825,6,0,P|104:320|84:240,1,160,2|0,0:0|1:0,0:0:0:0:
96,92,101088,2,0,P|256:83|416:92,1,320,2|4,0:0|3:1,0:0:0:0:
100,61,112457,6,0,B|100:140|100:140|48:172|24:232|40:304|96:344,2,320,4|2|2,3:1|0:0|0:0,0:0:0:0:
256,32,115614,5,0,1:0:0:0:
256,192,116246,1,2,0:0:0:0:
256,272,116562,1,0,0:0:0:0:
256,352,116878,1,0,1:0:0:0:
416,344,117509,6,0,B|472:304|488:232|464:172|412:140|412:140|412:60,2,320,2|2|2,0:0|0:0|0:0,0:0:0:0:
256,348,120667,5,0,1:0:0:0:
332,208,121299,2,0,P|256:186|180:208,1,160,2|0,0:0|1:0,0:0:0:0:
97,348,122562,5,2,0:0:0:0:
60,276,122878,1,0,0:0:0:0:
32,200,123193,2,0,B|0:169|0:125|0:125|0:48,2,160,0|2|0,1:0|0:0|1:0,0:0:0:0:
104,64,125088,6,0,B|135:32|179:32|179:32|256:32,1,160,2|0,0:0|1:0,0:0:0:0:
256,112,126036,1,0,0:0:0:0:
256,192,126351,2,0,L|256:356,1,160,2|0,0:0|1:0,0:0:0:0:
415,348,127614,5,2,0:0:0:0:
452,276,127930,1,0,0:0:0:0:
480,200,128246,2,0,B|512:169|512:125|512:125|512:48,2,160,0|2|0,1:0|0:0|1:0,0:0:0:0:
408,64,130141,6,0,B|377:32|333:32|333:32|256:32,1,160,2|0,0:0|1:0,0:0:0:0:
256,112,131088,1,0,0:0:0:0:
256,192,131404,2,0,L|256:352,1,160,0|0,0:0|1:2,0:0:0:0:
256,192,132667,6,0,B|160:192|160:192|68:192|20:108|68:24|160:24|160:24|256:24,1,480,4|0,3:1|0:0,0:0:0:0:
256,192,135193,2,0,B|352:192|352:192|444:192|492:276|444:360|352:360|352:360|256:360,1,480,2|2,0:0|0:0,0:0:0:0:
256,192,137720,6,0,B|69:192|69:192|57:108|113:32|193:32|193:32|257:32,1,480,4|0,3:1|0:0,0:0:0:0:
256,192,140246,2,0,B|443:192|443:192|455:276|399:352|319:352|319:352|255:352,1,480,2|2,0:0|0:0,0:0:0:0:
96,352,142772,6,0,B|96:256|96:256|96:180|96:132|160:112|224:112,1,320,4|2,3:1|0:0,0:0:0:0:
256,272,144667,1,0,0:0:0:0:
416,352,145299,6,0,B|416:256|416:256|416:180|416:132|352:112|288:112,1,320,2|2,0:0|0:0,0:0:0:0:
256,272,147193,1,0,0:0:0:0:
104,224,147825,6,0,B|72:152|72:152|-12:124,2,160,4|0|2,3:1|0:0|0:0,0:0:0:0:
256,272,149720,1,0,0:0:0:0:
408,224,150351,6,0,B|440:152|440:152|524:124,2,160,2|0|2,0:0|0:0|0:0,0:0:0:0:
255,272,152246,1,2,0:0:0:0:
255,191,152562,1,0,0:0:0:0:
255,110,152878,1,4,3:1:0:0:
480,112,157930,6,0,P|388:47|296:112,1,240,2|0,0:0|0:0,0:0:0:0:
215,111,159193,2,0,P|123:47|32:112,1,240,2|0,0:0|0:0,0:0:0:0:
32,192,160457,6,0,B|64:292|208:300|256:216|256:216|304:300|448:292|480:192,1,560,2|0,0:0|0:0,0:0:0:0:
480,112,162983,5,2,0:0:0:0:
340,32,163614,1,0,0:0:0:0:
172,32,164246,1,2,0:0:0:0:
32,112,164878,1,0,0:0:0:0:
32,272,165509,6,0,P|130:338|234:285,1,240,2|0,0:0|0:0,0:0:0:0:
278,224,166772,2,0,P|382:177|477:243,1,240,2|0,0:0|0:0,0:0:0:0:
480,324,168036,6,0,L|320:324,1,160,4|0,1:0|1:0,0:0:0:0:
188,232,169299,2,0,L|188:68,1,160,0|0,1:0|1:0,0:0:0:0:
332,0,170562,6,0,L|332:168,1,160,0|0,1:0|1:1,0:0:0:0:
448,268,171825,1,0,1:0:0:0:
448,188,172141,1,0,0:0:0:0:
448,108,172457,1,0,1:0:0:0:
300,44,173088,6,0,B|300:92|300:92|256:144|256:144|256:192,1,160,0|0,1:0|1:0,0:0:0:0:
256,347,174351,2,0,B|208:347|208:347|156:303|156:303|108:303,1,160,0|0,1:0|1:0,0:0:0:0:
0,188,175614,5,0,1:0:0:0:
96,60,176246,1,0,1:0:0:0:
256,60,176878,1,0,1:0:0:0:
335,60,177193,1,0,0:0:0:0:
415,60,177509,1,4,1:1:0:0:
415,220,178141,5,4,3:1:0:0:
256,220,178772,1,0,1:0:0:0:
192,168,179088,1,0,0:0:0:0:
132,220,179404,2,0,B|132:304|132:304|132:352|88:380|44:352|44:304|44:304|44:220,2,320,2|2|2,0:0|0:0|0:0,0:0:0:0:
132,59,182562,1,0,1:0:0:0:
300,56,183193,5,4,3:1:0:0:
461,56,183825,1,0,1:0:0:0:
436,132,184141,1,0,0:0:0:0:
408,208,184457,2,0,B|372:188|336:208|336:208|296:184|256:212|256:212|216:188|176:208|176:208|140:188|104:208,2,320,2|2|2,0:0|0:0|0:0,0:0:0:0:
408,368,187614,1,0,1:0:0:0:
255,368,188246,5,4,3:1:0:0:
95,368,188878,1,0,1:0:0:0:
76,290,189193,1,0,0:0:0:0:
60,212,189509,2,0,L|236:212,1,160,2|0,0:0|1:0,0:0:0:0:
380,212,190772,6,0,B|312:212|312:212|296:124|212:124|212:124|92:124,1,320,2|2,0:0|0:0,0:0:0:0:
108,284,192667,1,0,1:0:0:0:
256,316,193299,5,4,3:1:0:0:
416,316,193930,1,0,1:0:0:0:
416,235,194246,1,0,0:0:0:0:
416,156,194562,2,0,L|252:156,1,160,2|0,0:0|1:0,0:0:0:0:
96,156,195825,6,0,B|164:156|164:156|180:68|264:68|264:68|384:68,1,320,2|2,0:0|0:0,0:0:0:0:
256,156,197720,1,4,3:1:0:0:
256,192,198351,12,0,200878,0:0:0:0:
