osu file format v14

[General]
AudioFilename: audio.mp3
AudioLeadIn: 0
PreviewTime: 112394
Countdown: 0
SampleSet: Normal
StackLeniency: 0.7
Mode: 1
LetterboxInBreaks: 0
WidescreenStoryboard: 0

[Editor]
Bookmarks: 10147,21515,26568,36673,41726,46778,51831,56884,61936,66989,72042,77094,82147,102357,132673,137726,142778,157936,168042,177515,188252
DistanceSpacing: 0.4
BeatDivisor: 4
GridSize: 32
TimelineZoom: 1.6

[Metadata]
Title:A New King Is Born
TitleUnicode:A New King Is Born
Artist:Loki
ArtistUnicode:Loki
Creator:Raiden
Version:Futsuu
Source:osu!
Tags:MWR mapping with rewards Thaehan symphonic metal featured artist FA instrumental
BeatmapID:2417252
BeatmapSetID:1158282

[Difficulty]
HPDrainRate:6.5
CircleSize:2
OverallDifficulty:4
ApproachRate:10
SliderMultiplier:1.4
SliderTickRate:1

[Events]
//Background and Video events
0,0,"medieval wallpaper.jpg",0,75
//Break Periods
2,153094,157496
//Storyboard Layer 0 (Background)
//Storyboard Layer 1 (Fail)
//Storyboard Layer 2 (Pass)
//Storyboard Layer 3 (Foreground)
//Storyboard Layer 4 (Overlay)
//Storyboard Sound Samples

[TimingPoints]
52,315.789473684211,4,1,0,65,1,0
20260,-100,4,1,0,67,0,0
20418,-100,4,1,0,69,0,0
20576,-100,4,1,0,71,0,0
20892,-100,4,1,0,75,0,0
21207,-100,4,1,0,81,0,0
21523,-100,4,1,0,85,0,0
112473,-100,4,1,0,85,0,1
121315,-100,4,1,0,85,0,0
122578,-100,4,1,0,85,0,1
132683,-100,4,1,0,85,0,0
178157,-100,4,1,0,85,0,1
198367,-100,4,1,0,85,0,0
198523,-100,4,1,0,55,0,0

[HitObjects]
112,92,52,5,4,0:0:0:0:
328,272,1315,5,12,0:0:0:0:
115,105,2578,5,4,0:0:0:0:
401,305,3209,1,12,0:0:0:0:
128,128,3525,1,0,0:0:0:0:
384,288,3841,1,12,0:0:0:0:
384,288,4473,1,8,0:0:0:0:
151,117,5104,5,4,0:0:0:0:
407,276,5736,1,12,0:0:0:0:
128,128,6052,1,8,0:0:0:0:
131,95,6367,1,4,0:0:0:0:
352,288,6999,1,8,0:0:0:0:
160,112,7630,5,4,0:0:0:0:
160,112,8262,1,4,0:0:0:0:
371,291,8894,1,8,0:0:0:0:
378,319,9209,1,8,0:0:0:0:
416,288,9367,1,8,0:0:0:0:
384,303,9525,1,8,0:0:0:0:
416,288,9841,1,8,0:0:0:0:
112,92,10157,5,4,0:0:0:0:
328,272,11420,5,12,0:0:0:0:
115,105,12683,5,4,0:0:0:0:
401,305,13315,1,12,0:0:0:0:
128,96,13630,1,0,0:0:0:0:
408,102,13946,1,12,0:0:0:0:
384,256,14578,1,8,0:0:0:0:
256,192,14894,1,0,0:0:0:0:
151,117,15209,5,4,0:0:0:0:
407,276,15841,1,12,0:0:0:0:
128,96,16157,1,0,0:0:0:0:
131,95,16473,1,4,0:0:0:0:
384,256,17104,1,8,0:0:0:0:
160,112,17736,5,4,0:0:0:0:
352,288,18052,1,8,0:0:0:0:
160,112,18367,1,4,0:0:0:0:
384,288,18683,1,8,0:0:0:0:
156,123,18999,1,4,0:0:0:0:
136,110,20262,1,0,0:0:0:0:
128,96,20420,1,0,0:0:0:0:
136,110,20578,1,0,0:0:0:0:
420,280,20894,1,8,0:0:0:0:
384,288,21209,1,8,0:0:0:0:
136,110,21525,5,4,0:0:0:0:
128,96,21841,1,0,0:0:0:0:
420,280,22157,1,8,0:0:0:0:
431,274,22788,1,8,0:0:0:0:
166,103,23104,1,0,0:0:0:0:
128,96,23262,1,0,0:0:0:0:
422,270,23420,1,8,0:0:0:0:
53,101,24052,5,0,0:0:0:0:
128,96,24367,1,0,0:0:0:0:
398,276,24683,1,8,0:0:0:0:
156,144,25315,1,0,0:0:0:0:
384,288,25630,1,8,0:0:0:0:
128,128,25946,1,0,0:0:0:0:
161,152,26578,5,0,0:0:0:0:
96,128,26894,1,0,0:0:0:0:
387,281,27209,1,8,0:0:0:0:
387,281,27841,1,8,0:0:0:0:
403,296,28157,1,8,0:0:0:0:
128,96,28315,1,0,0:0:0:0:
384,303,28473,1,8,0:0:0:0:
147,96,29104,5,0,0:0:0:0:
128,128,29420,1,0,0:0:0:0:
407,263,29736,1,8,0:0:0:0:
348,221,30367,1,8,0:0:0:0:
407,263,30525,1,8,0:0:0:0:
93,59,30683,1,0,0:0:0:0:
371,253,30999,1,8,0:0:0:0:
138,134,31630,5,4,0:0:0:0:
128,96,31946,1,0,0:0:0:0:
361,273,32262,1,8,0:0:0:0:
393,286,32894,1,8,0:0:0:0:
137,103,33209,1,0,0:0:0:0:
137,103,33367,1,0,0:0:0:0:
379,296,33525,1,8,0:0:0:0:
71,65,34157,5,0,0:0:0:0:
128,96,34473,1,0,0:0:0:0:
376,288,34788,1,8,0:0:0:0:
469,327,35420,1,8,0:0:0:0:
416,288,35736,1,8,0:0:0:0:
192,128,36052,1,0,0:0:0:0:
129,154,36683,5,0,0:0:0:0:
128,128,36999,1,0,0:0:0:0:
399,265,37315,1,8,0:0:0:0:
361,263,37946,1,8,0:0:0:0:
109,131,38262,1,0,0:0:0:0:
128,128,38420,1,0,0:0:0:0:
361,287,38578,1,8,0:0:0:0:
85,123,39209,5,0,0:0:0:0:
128,128,39525,1,0,0:0:0:0:
360,258,39841,1,8,0:0:0:0:
360,258,40473,1,8,0:0:0:0:
384,256,40630,1,8,0:0:0:0:
128,64,40788,1,0,0:0:0:0:
360,258,41104,1,8,0:0:0:0:
127,106,41736,5,0,0:0:0:0:
116,136,42367,1,0,0:0:0:0:
160,128,42683,1,0,0:0:0:0:
384,256,42841,1,8,0:0:0:0:
128,96,42999,1,0,0:0:0:0:
364,259,43630,1,8,0:0:0:0:
416,320,43946,1,8,0:0:0:0:
416,320,44104,1,8,0:0:0:0:
94,106,44262,5,4,0:0:0:0:
96,134,44894,1,4,0:0:0:0:
116,123,45525,5,4,0:0:0:0:
320,256,46157,1,8,0:0:0:0:
384,288,46473,1,8,0:0:0:0:
133,112,46788,5,0,0:0:0:0:
362,262,47420,1,8,0:0:0:0:
328,249,47736,1,8,0:0:0:0:
384,288,47894,1,8,0:0:0:0:
105,109,48052,1,0,0:0:0:0:
376,306,48683,1,8,0:0:0:0:
128,96,48841,1,0,0:0:0:0:
352,256,48999,1,8,0:0:0:0:
157,139,49315,5,0,0:0:0:0:
320,256,49946,1,8,0:0:0:0:
151,144,50578,5,0,0:0:0:0:
160,128,50894,1,0,0:0:0:0:
360,236,51052,1,8,0:0:0:0:
128,128,51209,1,0,0:0:0:0:
352,256,51525,1,8,0:0:0:0:
177,169,51841,5,0,0:0:0:0:
348,238,52473,1,8,0:0:0:0:
348,238,52788,1,8,0:0:0:0:
320,256,52946,1,8,0:0:0:0:
48,92,53104,1,0,0:0:0:0:
116,87,53736,1,0,0:0:0:0:
128,128,54052,1,0,0:0:0:0:
128,96,54209,1,0,0:0:0:0:
348,239,54367,5,12,0:0:0:0:
408,325,54999,1,12,0:0:0:0:
408,325,55630,1,12,0:0:0:0:
192,128,56262,1,0,0:0:0:0:
352,256,56578,1,8,0:0:0:0:
416,288,56736,1,8,0:0:0:0:
91,109,56894,5,0,0:0:0:0:
408,290,57525,1,8,0:0:0:0:
408,290,57841,1,8,0:0:0:0:
384,256,57999,1,8,0:0:0:0:
106,129,58157,1,0,0:0:0:0:
415,281,58788,1,8,0:0:0:0:
160,96,58946,1,0,0:0:0:0:
384,288,59104,1,8,0:0:0:0:
198,189,59420,5,0,0:0:0:0:
384,288,60052,1,8,0:0:0:0:
99,143,60683,1,4,0:0:0:0:
134,105,61946,5,0,0:0:0:0:
128,96,62262,1,0,0:0:0:0:
480,352,62578,1,8,0:0:0:0:
384,288,62736,1,8,0:0:0:0:
192,160,62894,1,0,0:0:0:0:
160,96,63209,5,0,0:0:0:0:
448,320,63841,1,8,0:0:0:0:
160,128,64473,1,0,0:0:0:0:
416,320,64788,1,8,0:0:0:0:
160,96,64946,1,0,0:0:0:0:
384,288,65104,1,8,0:0:0:0:
128,96,65420,1,0,0:0:0:0:
384,288,65736,1,8,0:0:0:0:
384,288,66367,1,8,0:0:0:0:
128,96,66999,5,0,0:0:0:0:
128,96,67315,1,0,0:0:0:0:
352,288,67630,1,8,0:0:0:0:
384,288,67788,1,8,0:0:0:0:
128,64,67946,1,0,0:0:0:0:
96,128,68262,1,0,0:0:0:0:
352,288,68894,1,8,0:0:0:0:
384,288,69525,5,8,0:0:0:0:
160,96,69841,5,0,0:0:0:0:
160,96,69999,1,0,0:0:0:0:
352,288,70157,1,8,0:0:0:0:
320,288,70473,1,8,0:0:0:0:
128,96,70788,1,0,0:0:0:0:
352,256,71420,1,8,0:0:0:0:
134,105,72052,5,4,0:0:0:0:
128,96,72367,1,0,0:0:0:0:
480,352,72683,1,8,0:0:0:0:
384,288,72841,1,8,0:0:0:0:
192,160,72999,1,0,0:0:0:0:
160,96,73315,5,0,0:0:0:0:
448,320,73946,1,8,0:0:0:0:
160,128,74578,1,0,0:0:0:0:
416,320,74894,1,8,0:0:0:0:
160,96,75052,1,0,0:0:0:0:
384,288,75209,1,8,0:0:0:0:
128,96,75525,1,0,0:0:0:0:
384,288,75841,1,8,0:0:0:0:
384,288,76473,1,8,0:0:0:0:
128,96,77104,5,0,0:0:0:0:
128,96,77420,1,0,0:0:0:0:
352,288,77736,1,8,0:0:0:0:
384,288,77894,1,8,0:0:0:0:
128,64,78052,1,0,0:0:0:0:
96,128,78367,1,0,0:0:0:0:
352,288,78999,1,8,0:0:0:0:
384,288,79630,5,8,0:0:0:0:
160,96,79946,5,0,0:0:0:0:
160,96,80104,1,0,0:0:0:0:
352,288,80262,1,8,0:0:0:0:
320,288,80578,1,8,0:0:0:0:
128,96,80894,1,4,0:0:0:0:
352,256,81525,1,4,0:0:0:0:
136,110,82157,5,4,0:0:0:0:
128,96,82473,1,0,0:0:0:0:
420,280,82788,1,8,0:0:0:0:
431,274,83420,1,8,0:0:0:0:
166,103,83736,1,0,0:0:0:0:
128,96,83894,1,0,0:0:0:0:
422,270,84052,1,8,0:0:0:0:
53,101,84683,5,0,0:0:0:0:
128,96,84999,1,0,0:0:0:0:
398,276,85315,1,8,0:0:0:0:
156,144,85946,1,0,0:0:0:0:
384,288,86262,1,8,0:0:0:0:
128,128,86578,1,0,0:0:0:0:
161,152,87209,5,0,0:0:0:0:
96,128,87525,1,0,0:0:0:0:
387,281,87841,1,8,0:0:0:0:
387,281,88473,1,8,0:0:0:0:
403,296,88788,1,8,0:0:0:0:
128,96,88946,1,0,0:0:0:0:
384,303,89104,1,8,0:0:0:0:
147,96,89736,5,0,0:0:0:0:
128,128,90052,1,0,0:0:0:0:
407,263,90367,1,8,0:0:0:0:
348,221,90999,1,8,0:0:0:0:
407,263,91157,1,8,0:0:0:0:
93,59,91315,1,0,0:0:0:0:
371,253,91630,1,8,0:0:0:0:
138,134,92262,5,0,0:0:0:0:
128,96,92578,1,0,0:0:0:0:
361,273,92894,1,8,0:0:0:0:
393,286,93525,1,8,0:0:0:0:
137,103,93841,1,0,0:0:0:0:
137,103,93999,1,0,0:0:0:0:
379,296,94157,1,8,0:0:0:0:
71,65,94788,5,0,0:0:0:0:
128,96,95104,1,0,0:0:0:0:
376,288,95420,1,8,0:0:0:0:
469,327,96052,1,8,0:0:0:0:
416,288,96367,1,8,0:0:0:0:
192,128,96683,1,0,0:0:0:0:
129,154,97315,5,0,0:0:0:0:
128,128,97630,1,0,0:0:0:0:
399,265,97946,1,8,0:0:0:0:
361,263,98578,1,8,0:0:0:0:
109,131,98894,1,0,0:0:0:0:
128,128,99052,1,0,0:0:0:0:
361,287,99209,1,8,0:0:0:0:
85,123,99841,5,0,0:0:0:0:
128,128,100157,1,0,0:0:0:0:
360,258,100473,1,8,0:0:0:0:
360,258,101104,1,8,0:0:0:0:
384,256,101262,1,8,0:0:0:0:
128,64,101420,1,0,0:0:0:0:
360,258,101736,1,8,0:0:0:0:
128,96,102367,5,4,0:0:0:0:
352,256,103630,1,8,0:0:0:0:
128,96,104894,5,0,0:0:0:0:
384,224,106157,1,8,0:0:0:0:
384,224,106788,1,8,0:0:0:0:
128,96,107420,1,0,0:0:0:0:
384,224,108683,1,8,0:0:0:0:
128,96,109946,1,0,0:0:0:0:
128,128,110578,1,0,0:0:0:0:
128,128,111209,5,0,0:0:0:0:
128,128,111525,1,0,0:0:0:0:
128,128,111841,1,8,0:0:0:0:
128,128,112473,5,4,0:0:0:0:
128,96,112788,1,0,0:0:0:0:
128,96,112946,1,0,0:0:0:0:
384,256,113104,1,8,0:0:0:0:
416,256,113420,1,8,0:0:0:0:
160,128,113736,1,0,0:0:0:0:
384,256,114367,1,8,0:0:0:0:
96,96,114999,1,0,0:0:0:0:
128,128,115157,1,0,0:0:0:0:
384,256,115315,1,8,0:0:0:0:
352,224,115630,1,8,0:0:0:0:
352,224,115946,1,8,0:0:0:0:
160,96,116262,5,0,0:0:0:0:
160,96,116578,1,0,0:0:0:0:
416,256,116894,1,8,0:0:0:0:
128,128,117525,5,0,0:0:0:0:
160,96,117683,1,0,0:0:0:0:
416,288,117841,1,8,0:0:0:0:
448,256,118157,1,8,0:0:0:0:
128,96,118473,1,0,0:0:0:0:
384,288,118788,1,8,0:0:0:0:
128,96,119420,1,0,0:0:0:0:
128,96,120052,1,0,0:0:0:0:
128,96,120209,1,0,0:0:0:0:
384,288,120367,1,8,0:0:0:0:
384,288,120683,1,8,0:0:0:0:
384,288,120999,1,8,0:0:0:0:
320,256,121157,1,8,0:0:0:0:
160,128,121315,5,0,0:0:0:0:
384,256,121946,1,8,0:0:0:0:
128,128,122578,5,4,0:0:0:0:
128,96,122894,1,0,0:0:0:0:
128,96,123052,1,0,0:0:0:0:
384,256,123209,1,8,0:0:0:0:
416,256,123525,1,8,0:0:0:0:
160,128,123841,1,0,0:0:0:0:
384,256,124473,1,8,0:0:0:0:
96,96,125104,1,0,0:0:0:0:
128,128,125262,1,0,0:0:0:0:
384,256,125420,1,8,0:0:0:0:
352,224,125736,1,8,0:0:0:0:
352,224,126052,1,8,0:0:0:0:
160,96,126367,5,0,0:0:0:0:
160,96,126683,1,0,0:0:0:0:
416,256,126999,1,8,0:0:0:0:
128,128,127630,5,0,0:0:0:0:
160,96,127788,1,0,0:0:0:0:
416,288,127946,1,8,0:0:0:0:
448,256,128262,1,8,0:0:0:0:
128,96,128578,1,0,0:0:0:0:
384,288,128894,1,8,0:0:0:0:
128,96,129525,1,0,0:0:0:0:
128,96,130157,1,0,0:0:0:0:
128,96,130315,1,0,0:0:0:0:
384,288,130473,1,8,0:0:0:0:
384,288,130788,1,8,0:0:0:0:
384,288,131104,1,8,0:0:0:0:
320,256,131262,1,8,0:0:0:0:
160,128,131420,5,0,0:0:0:0:
384,288,132052,1,8,0:0:0:0:
384,288,132367,1,8,0:0:0:0:
128,96,132683,5,0,0:0:0:0:
160,128,132841,1,0,0:0:0:0:
352,288,132999,1,8,0:0:0:0:
160,128,133315,1,0,0:0:0:0:
352,288,133630,1,8,0:0:0:0:
352,288,134262,1,8,0:0:0:0:
160,128,134578,1,0,0:0:0:0:
160,128,134736,1,0,0:0:0:0:
352,288,134894,1,8,0:0:0:0:
128,128,135209,5,0,0:0:0:0:
352,288,135525,1,8,0:0:0:0:
352,288,136157,1,8,0:0:0:0:
160,128,136473,1,0,0:0:0:0:
160,128,136630,1,0,0:0:0:0:
352,288,136788,1,8,0:0:0:0:
160,128,137104,1,12,0:0:0:0:
352,256,137420,1,8,0:0:0:0:
128,96,137736,5,0,0:0:0:0:
352,288,138052,1,8,0:0:0:0:
352,288,138683,1,8,0:0:0:0:
128,128,138999,1,0,0:0:0:0:
128,128,139157,1,0,0:0:0:0:
352,288,139315,1,8,0:0:0:0:
128,128,139630,1,0,0:0:0:0:
352,288,139946,1,8,0:0:0:0:
128,128,140262,5,0,0:0:0:0:
128,128,140420,1,0,0:0:0:0:
352,288,140578,1,8,0:0:0:0:
352,288,141209,1,8,0:0:0:0:
96,96,141525,1,0,0:0:0:0:
96,96,141683,1,0,0:0:0:0:
352,288,141841,1,8,0:0:0:0:
384,256,142157,1,8,0:0:0:0:
384,256,142473,1,8,0:0:0:0:
128,128,142788,5,0,0:0:0:0:
384,256,143420,1,8,0:0:0:0:
320,256,143736,1,8,0:0:0:0:
128,128,144052,1,0,0:0:0:0:
160,128,144367,1,0,0:0:0:0:
352,256,144683,1,8,0:0:0:0:
128,160,145315,1,0,0:0:0:0:
416,320,145946,1,8,0:0:0:0:
384,288,146262,1,8,0:0:0:0:
128,160,146578,1,0,0:0:0:0:
384,288,146894,1,8,0:0:0:0:
416,288,147209,1,12,0:0:0:0:
256,192,147367,1,0,0:0:0:0:
256,192,147525,1,8,0:0:0:0:
128,128,147841,5,0,0:0:0:0:
384,256,148473,1,8,0:0:0:0:
128,128,148788,1,0,0:0:0:0:
384,256,149104,1,0,0:0:0:0:
384,288,149420,1,8,0:0:0:0:
160,96,149736,1,0,0:0:0:0:
160,128,150367,1,0,0:0:0:0:
384,320,150999,5,8,0:0:0:0:
160,96,151315,1,0,0:0:0:0:
416,288,151630,1,8,0:0:0:0:
384,288,151946,1,8,0:0:0:0:
384,288,152262,1,8,0:0:0:0:
384,288,152420,1,8,0:0:0:0:
384,288,152578,1,8,0:0:0:0:
384,288,152894,5,12,0:0:0:0:
128,96,157946,5,0,0:0:0:0:
64,128,158262,1,0,0:0:0:0:
128,160,158420,1,0,0:0:0:0:
64,128,158578,1,0,0:0:0:0:
64,128,158894,1,0,0:0:0:0:
64,128,159209,1,0,0:0:0:0:
256,192,159525,1,8,0:0:0:0:
128,160,159841,1,0,0:0:0:0:
416,288,160473,1,8,0:0:0:0:
416,288,160788,1,8,0:0:0:0:
384,288,160946,1,8,0:0:0:0:
416,288,161104,1,8,0:0:0:0:
416,288,161420,1,8,0:0:0:0:
416,288,161736,1,8,0:0:0:0:
256,192,162052,1,0,0:0:0:0:
416,288,162367,1,8,0:0:0:0:
160,96,162999,5,0,0:0:0:0:
160,96,163315,1,0,0:0:0:0:
160,160,163473,1,0,0:0:0:0:
160,96,163630,1,0,0:0:0:0:
160,96,163946,1,0,0:0:0:0:
160,96,164262,1,0,0:0:0:0:
256,192,164578,1,8,0:0:0:0:
160,160,164894,1,0,0:0:0:0:
416,288,165525,5,8,0:0:0:0:
416,288,165841,1,8,0:0:0:0:
416,256,165999,1,8,0:0:0:0:
416,288,166157,1,8,0:0:0:0:
416,288,166473,1,8,0:0:0:0:
416,288,166788,1,8,0:0:0:0:
256,192,167104,1,0,0:0:0:0:
416,288,167420,1,8,0:0:0:0:
128,64,168052,5,0,0:0:0:0:
160,160,168367,1,0,0:0:0:0:
160,160,168525,1,0,0:0:0:0:
160,96,168683,1,0,0:0:0:0:
160,96,168999,1,0,0:0:0:0:
416,288,169315,1,8,0:0:0:0:
256,192,169630,1,8,0:0:0:0:
160,160,169946,1,0,0:0:0:0:
384,288,170578,5,8,0:0:0:0:
160,160,170894,1,0,0:0:0:0:
160,160,171052,1,0,0:0:0:0:
384,288,171209,1,8,0:0:0:0:
160,96,171525,1,0,0:0:0:0:
384,288,171841,1,8,0:0:0:0:
256,192,172157,1,0,0:0:0:0:
384,288,172473,1,8,0:0:0:0:
384,288,173104,5,8,0:0:0:0:
160,160,173420,1,0,0:0:0:0:
384,256,173578,1,8,0:0:0:0:
160,128,173736,1,0,0:0:0:0:
160,128,174052,1,0,0:0:0:0:
416,320,174367,1,8,0:0:0:0:
256,192,174683,1,8,0:0:0:0:
160,128,174999,1,0,0:0:0:0:
384,288,175630,5,8,0:0:0:0:
384,288,175946,1,8,0:0:0:0:
384,288,176104,1,8,0:0:0:0:
384,288,176262,1,8,0:0:0:0:
128,128,176578,1,0,0:0:0:0:
448,320,176894,5,8,0:0:0:0:
128,128,177209,1,0,0:0:0:0:
128,128,177367,1,0,0:0:0:0:
448,288,177525,5,8,0:0:0:0:
448,288,178157,5,8,0:0:0:0:
64,128,178473,1,0,0:0:0:0:
416,320,178788,1,8,0:0:0:0:
384,352,178946,1,8,0:0:0:0:
384,320,179104,1,8,0:0:0:0:
416,320,179262,1,8,0:0:0:0:
128,128,179420,1,0,0:0:0:0:
384,288,180052,1,8,0:0:0:0:
352,256,180367,1,8,0:0:0:0:
352,256,180525,1,8,0:0:0:0:
128,128,180683,5,0,0:0:0:0:
128,128,181315,1,0,0:0:0:0:
128,128,181473,1,0,0:0:0:0:
352,256,181630,1,8,0:0:0:0:
384,288,181788,1,8,0:0:0:0:
128,160,181946,1,0,0:0:0:0:
384,256,182262,1,8,0:0:0:0:
384,288,182420,1,8,0:0:0:0:
128,128,182578,1,0,0:0:0:0:
384,288,183209,5,8,0:0:0:0:
160,128,183525,1,0,0:0:0:0:
128,128,183841,1,0,0:0:0:0:
128,96,183999,1,0,0:0:0:0:
384,256,184157,1,8,0:0:0:0:
384,288,184315,1,8,0:0:0:0:
128,128,184473,1,0,0:0:0:0:
384,256,185104,1,8,0:0:0:0:
128,128,185420,1,0,0:0:0:0:
160,128,185578,1,0,0:0:0:0:
448,352,185736,5,8,0:0:0:0:
352,256,186367,1,8,0:0:0:0:
128,160,186683,1,0,0:0:0:0:
160,128,186841,1,0,0:0:0:0:
448,320,186999,1,8,0:0:0:0:
416,288,187315,1,8,0:0:0:0:
416,288,187473,1,8,0:0:0:0:
128,128,187630,1,0,0:0:0:0:
448,288,188262,5,8,0:0:0:0:
160,160,188578,1,0,0:0:0:0:
416,320,188894,1,8,0:0:0:0:
416,288,189052,1,8,0:0:0:0:
448,288,189209,1,8,0:0:0:0:
416,288,189367,1,8,0:0:0:0:
128,128,189525,1,0,0:0:0:0:
416,288,189841,1,8,0:0:0:0:
160,160,190157,1,0,0:0:0:0:
384,256,190473,1,8,0:0:0:0:
352,288,190630,1,8,0:0:0:0:
128,128,190788,5,0,0:0:0:0:
352,256,191420,1,8,0:0:0:0:
384,256,191578,1,8,0:0:0:0:
352,256,191736,1,8,0:0:0:0:
384,256,191894,1,8,0:0:0:0:
128,96,192052,1,0,0:0:0:0:
416,320,192367,1,8,0:0:0:0:
128,128,192683,1,0,0:0:0:0:
384,288,193315,5,8,0:0:0:0:
160,128,193630,1,0,0:0:0:0:
128,128,193946,1,0,0:0:0:0:
160,96,194104,1,0,0:0:0:0:
384,288,194262,1,8,0:0:0:0:
384,256,194420,1,8,0:0:0:0:
160,96,194578,1,0,0:0:0:0:
384,256,194894,1,8,0:0:0:0:
160,96,195209,1,0,0:0:0:0:
128,128,195525,1,0,0:0:0:0:
160,96,195683,1,0,0:0:0:0:
448,352,195841,5,8,0:0:0:0:
192,160,196157,1,0,0:0:0:0:
384,256,196473,1,8,0:0:0:0:
128,160,196788,1,0,0:0:0:0:
160,128,196946,1,0,0:0:0:0:
448,320,197104,1,8,0:0:0:0:
448,288,197420,1,8,0:0:0:0:
384,256,197578,1,8,0:0:0:0:
64,128,197736,1,0,0:0:0:0:
192,128,198052,1,0,0:0:0:0:
448,288,198367,5,12,0:0:0:0:
256,192,198525,12,0,200894,0:0:0:0:
